#VERSION:0.83;
#TITLE:不沈艦CANDY;
#SUBTITLE:;
#ARTIST:Risk Junk;
#TITLETRANSLIT:YELLOW CANDY;
#SUBTITLETRANSLIT:;
#ARTISTTRANSLIT:;
#GENRE:;
#ORIGIN:;
#CREDIT:;
#BANNER:YELLOW CANDY.png;
#BACKGROUND:YELLOW CANDY-bg.png;
#PREVIEWVID:;
#JACKET:YELLOW CANDY-jacket.png;
#CDIMAGE:;
#DISCIMAGE:;
#LYRICSPATH:;
#CDTITLE:;
#MUSIC:YELLOW CANDY.ogg;
#OFFSET:0.000000;
#SAMPLESTART:5.110000;
#SAMPLELENGTH:15.000000;
#SELECTABLE:YES;
#BPMS:0.000=188.000,
176.000=94.000,
212.000=188.000;
#STOPS:;
#DELAYS:;
#WARPS:;
#TIMESIGNATURES:0.000=4=4;
#TICKCOUNTS:0.000=4;
#COMBOS:0.000=1;
#SPEEDS:0.000=1.000=0.000=0;
#SCROLLS:0.000=1.000;
#FAKES:;
#LABELS:0.000=Song Start;
#BGCHANGES:0.000=YELLOW CANDY.avi=1.000=0=0=0=StretchNoLoop====,
99999=-nosongbg-=1.000=0=0=0 // don't automatically add -songbackground-
;
#KEYSOUNDS:;
#ATTACKS:
;

//---------------dance-single - ----------------
#NOTEDATA:;
#CHARTNAME:;
#STEPSTYPE:dance-single;
#DESCRIPTION:;
#CHARTSTYLE:;
#DIFFICULTY:Beginner;
#METER:2;
#RADARVALUES:0.137276,0.202886,0.072676,0.016150,0.000000,119.000000,110.000000,9.000000,2.000000,0.000000,0.000000,0.000000,0.000000,0.000000,0.137276,0.202886,0.072676,0.016150,0.000000,119.000000,110.000000,9.000000,2.000000,0.000000,0.000000,0.000000,0.000000,0.000000;
#CREDIT:;
#NOTES:
0000
0000
0000
0000
,
0000
0000
0000
0000
,
0000
0000
0000
0000
,
0000
0000
0000
0000
,
1000
0000
1000
0000
,
1000
0000
0000
0000
,
0001
0000
0001
0000
,
0001
0000
0000
0000
,
0010
0000
0000
0000
,
0100
0000
0000
0000
,
0001
0000
1000
0000
,
1001
0000
0000
0000
,
0001
0000
0001
0000
,
0001
0000
0000
0000
,
1000
0000
1000
0000
,
1000
0000
0000
0000
,
0010
0000
0000
0000
,
0100
0000
0000
0000
,
1000
0000
1000
0000
,
0001
0000
0001
0000
,
1001
0000
0000
0000
,
0100
0000
0000
0000
,
0100
0000
0000
0000
,
0010
0000
0000
0000
,
0010
0000
0000
0000
,
1000
0000
0000
0000
,
0001
0000
0000
0000
,
1000
0000
0000
0000
,
0001
0000
0000
0000
,
0100
0000
0100
0000
,
0010
0000
0000
0000
,
0100
0000
0100
0000
,
0010
0000
0000
0000
,
1000
0000
0001
0000
,
1000
0000
0000
0000
,
1000
0000
0001
0000
,
0010
0000
0000
0000
,
0010
0000
0000
0000
,
0010
0000
0000
0000
,
0010
0000
0000
0000
,
0010
0000
0010
0000
,
0010
0000
0010
0000
,
0001
0000
0001
0000
,
1000
0000
1000
0000
,
1001
0000
0000
0000
,
1000
0000
0100
0000
,
0001
0000
0100
0000
,
0010
0000
0000
0000
,
0010
0000
0100
0000
,
1000
0000
0100
0000
,
0001
0000
0100
0000
,
0010
0000
0000
0000
,
0010
0000
0100
0000
,
1001
0000
0000
0000
,
0000
0000
0000
0000
,
1000
0000
1000
0000
,
0000
0000
0000
0000
,
0001
0000
0001
0000
,
0000
0000
0000
0000
,
0100
0000
0100
0000
,
0100
0000
0000
0000
,
1000
0000
0001
0000
,
1000
0000
0000
0000
,
0001
0000
1000
0000
,
0001
0000
0000
0000
,
0010
0000
0100
0000
,
0010
0000
0000
0000
,
0100
0000
0010
0000
,
0100
0000
0100
0000
,
0100
0000
0000
0000
,
0000
0000
0000
0000
,
1000
0000
0001
0000
,
1001
0000
0000
0000
,
1000
0000
1000
0000
,
1000
0000
0000
0000
,
0001
0000
0001
0000
,
0001
0000
0000
0000
,
0010
0000
0000
0000
,
0100
0000
0000
0000
,
0001
0000
1000
0000
,
1001
0000
0000
0000
,
1001
0000
0000
0000
,
1001
0000
0000
0000
,
0100
0000
2002
3003
;

//---------------dance-single - ----------------
#NOTEDATA:;
#CHARTNAME:;
#STEPSTYPE:dance-single;
#DESCRIPTION:;
#CHARTSTYLE:;
#DIFFICULTY:Easy;
#METER:6;
#RADARVALUES:0.284934,0.338143,0.153426,0.153426,0.000000,247.000000,228.000000,19.000000,19.000000,0.000000,0.000000,0.000000,0.000000,0.000000,0.284934,0.338143,0.153426,0.153426,0.000000,247.000000,228.000000,19.000000,19.000000,0.000000,0.000000,0.000000,0.000000,0.000000;
#CREDIT:;
#NOTES:
0000
0000
0000
0000
,
0000
0000
0000
0000
,
0000
0000
0000
0000
,
0000
0000
0000
0000
,
0010
1000
0010
0100
,
0000
0100
0001
0010
,
0100
1000
0100
0010
,
0000
0010
0001
0100
,
0001
0010
0010
0010
,
0200
0000
0300
0000
,
1000
0001
1000
0001
,
1001
0000
0000
0000
,
0100
0001
0100
0010
,
0000
0010
1000
0100
,
0010
0001
0010
0100
,
0000
0100
1000
0010
,
1000
0100
0100
0100
,
0020
0000
0030
0000
,
0001
1000
0001
1000
,
1001
0000
1001
0000
,
0000
0000
0000
0000
,
0100
0100
0010
1000
,
0100
0100
0010
0001
,
0100
0100
0010
1000
,
0100
0100
0010
0000
,
0100
0100
0010
0001
,
0100
0100
0010
1000
,
0100
0100
0010
0001
,
0100
0000
0010
0000
,
1000
1000
0001
0100
,
1000
1000
0001
0100
,
1000
1000
0001
0100
,
1000
1000
0010
0000
,
0001
0001
1000
0100
,
0001
0001
1000
0100
,
0001
0001
1000
0100
,
0001
0100
0110
0000
,
1000
0001
1001
0000
,
0100
0010
0110
0000
,
0001
1000
1001
0000
,
0110
0000
0110
0000
,
1001
0000
1001
0000
,
0010
0100
0010
0100
,
0001
1000
0001
1000
,
2002
0000
3003
0000
,
1000
0020
0000
0030
,
0100
0002
0000
0003
,
0010
0200
0000
0300
,
2000
3000
0002
0003
,
0100
0020
0000
0030
,
1000
0200
0000
0300
,
0010
0002
0000
0003
,
0200
0300
0020
0030
,
1000
0000
1000
0000
,
0000
0001
0100
0010
,
1000
0001
0100
0000
,
0000
0100
0001
1000
,
0010
0100
0100
0000
,
0000
0100
0001
1000
,
0100
0010
0000
0001
,
0010
0001
0100
0000
,
0001
0000
0001
0000
,
0000
1000
0100
0010
,
0001
1000
0100
0000
,
0000
0100
1000
0001
,
0010
0100
0100
0000
,
0000
0100
1000
0001
,
0100
0010
0000
1000
,
0010
1000
0100
0000
,
0220
0000
0000
0000
,
0000
0000
0330
0000
,
0010
0010
0010
0000
,
0010
1001
0000
0000
,
0100
0001
0100
0010
,
0000
0010
1000
0100
,
0010
0001
0010
0100
,
0000
0100
1000
0010
,
1000
0100
0100
0100
,
0020
0000
0030
0000
,
0001
1000
0001
1000
,
1001
0000
0000
0000
,
0110
0000
0000
0000
,
1001
0000
0110
0000
,
0100
0010
2002
3003
;

//---------------dance-single - ----------------
#NOTEDATA:;
#CHARTNAME:;
#STEPSTYPE:dance-single;
#DESCRIPTION:;
#CHARTSTYLE:;
#DIFFICULTY:Medium;
#METER:9;
#RADARVALUES:0.400293,0.405772,0.145351,0.282627,0.000000,347.000000,329.000000,18.000000,35.000000,0.000000,0.000000,0.000000,0.000000,0.000000,0.400293,0.405772,0.145351,0.282627,0.000000,347.000000,329.000000,18.000000,35.000000,0.000000,0.000000,0.000000,0.000000,0.000000;
#CREDIT:;
#NOTES:
0000
0000
0000
0000
,
0000
0000
0000
0000
,
0000
0000
0000
0000
,
0000
0000
0000
0000
,
1001
0000
0001
0000
0010
0000
0010
0100
,
0000
1000
0000
0001
0000
1000
0010
0000
,
1000
0000
0100
0000
0010
0000
0001
1000
,
0000
0100
0000
0010
0000
0001
0100
0000
,
0001
0001
1000
0100
,
0010
0002
0000
0003
,
2010
3100
0010
0001
,
0001
0100
0010
2000
0000
0000
3000
0000
,
1001
0000
1000
0000
0100
0000
0100
0010
,
0000
0001
0000
1000
0000
0001
0100
0000
,
0001
0000
0010
0000
0100
0000
1000
0001
,
0000
0010
0000
0100
0000
1000
0010
0000
,
1000
0100
1000
0000
0001
0000
0010
0000
,
0100
2000
0000
3000
,
0102
0013
2100
3010
,
1000
0010
0100
0001
,
2002
0000
0000
3003
,
0100
0000
0100
0000
1000
0010
1000
0000
,
0100
0100
0010
1000
,
0100
0000
0100
0000
1000
0010
1000
0000
,
0001
0001
0010
0001
,
0100
0000
0100
0000
0010
1000
0010
0000
,
0100
0100
1000
0010
,
0100
0000
0100
0000
0010
1000
0010
0000
,
0000
1010
0000
1001
0000
1000
0010
0000
,
0001
0000
0001
0000
1000
0100
0010
0000
,
0001
0001
1000
0100
,
0001
0000
0001
0000
1000
0010
0100
0000
,
1000
1000
0010
0100
,
0001
0000
0001
0000
1000
0100
0010
0000
,
0001
0001
1000
0100
,
0001
0001
1000
0100
,
0010
1000
0000
0010
0000
0100
0000
0001
,
1000
0010
0000
0100
0000
0001
0000
1000
,
0010
0100
0000
0001
0000
1000
0000
0010
,
0100
0001
0000
1000
0000
0010
0000
0100
,
0010
0010
1000
1000
,
0100
0100
0001
0001
,
0010
1000
0100
0001
,
0010
1000
0100
0001
,
2002
0000
3003
0000
,
0100
0000
0020
0000
0000
0031
0100
0001
,
0100
0000
0020
0000
0000
1030
0100
1000
,
0100
0000
0020
0000
0000
0031
1000
0001
,
1000
0100
0020
0000
,
1030
0000
2001
0000
0000
3001
0100
0001
,
0100
0000
0020
0000
0000
1030
0100
1000
,
0100
0000
0020
0000
0000
0031
1000
0001
,
1000
0000
0010
0000
1000
0100
0001
0100
,
2000
0000
0002
0000
,
3003
0001
0100
1000
,
0100
0000
0010
1000
0200
0000
0010
0000
,
0010
0310
1000
0001
,
1000
0000
0010
1000
0200
0000
0010
0000
,
0010
0310
0001
1000
,
0100
0020
0001
0001
,
0031
0000
1000
0000
1100
0000
1000
0100
,
0020
0000
0200
0000
,
0330
0010
0100
0010
,
0001
0000
1000
0001
0200
0000
0010
0000
,
0010
0310
0100
0010
,
1000
0000
0001
1000
0200
0000
0010
0000
,
0010
0310
0001
1000
,
0100
0020
1000
1000
,
1030
0000
0001
0000
0101
0000
0010
1000
,
0200
0000
0000
0000
,
0000
0000
0000
0300
,
0010
0001
0100
1000
,
0010
0000
0100
0010
0000
0100
0010
0000
,
1001
0000
1000
0000
0010
0000
0010
0100
,
0000
0001
0000
1000
0000
0001
0010
0000
,
0001
0000
0100
0000
0010
0000
1000
0001
,
0000
0100
0000
0010
0000
1000
0100
0000
,
1000
0010
1000
0000
0001
0000
0100
0000
,
0010
2000
0000
3000
,
0012
0103
2010
3100
,
1000
0100
0010
0002
0000
0000
0003
0000
,
0001
0010
0100
2000
0000
0000
3000
0000
,
1000
0010
0100
0000
0001
0010
0100
0000
,
0110
0110
2002
3003
;

//---------------dance-single - ----------------
#NOTEDATA:;
#CHARTNAME:;
#STEPSTYPE:dance-single;
#DESCRIPTION:;
#CHARTSTYLE:;
#DIFFICULTY:Hard;
#METER:14;
#RADARVALUES:0.723295,0.743915,0.460279,0.145351,0.193802,627.000000,570.000000,57.000000,18.000000,0.000000,0.000000,0.000000,0.000000,0.000000,0.723295,0.743915,0.460279,0.145351,0.193802,627.000000,570.000000,57.000000,18.000000,0.000000,0.000000,0.000000,0.000000,0.000000;
#CREDIT:;
#NOTES:
0000
0000
0000
0000
,
0000
0000
0000
0000
,
0000
0000
0000
0000
,
0000
0000
0000
0000
,
0010
0100
0010
0100
0001
1000
0100
0100
,
1000
0001
0100
0010
0100
0001
0010
0100
,
1000
0001
1000
0001
0010
0100
0010
0010
,
0100
1000
0010
1000
0100
0010
0001
0000
,
0100
0010
0010
0100
0010
1000
0010
0100
,
0001
1000
0100
1100
0000
1000
0001
1000
,
0010
0100
0000
0000
0100
0001
0000
0000
0001
1000
0000
0000
1000
0100
0000
0000
,
0100
0000
0010
0000
0001
0000
1000
0100
1000
0000
0010
0000
1000
0000
0001
0000
,
0010
0100
0010
0100
1000
0001
0100
0100
,
0001
1000
0100
0010
0100
1000
0010
0100
,
0001
1000
0001
1000
0010
0100
0010
0010
,
0100
0001
0010
0001
0100
0010
1000
0000
,
0100
0010
0010
0100
0010
0001
0010
0100
,
1000
0001
0100
0101
0000
0001
1000
0001
,
0010
0010
0100
1000
1000
0001
0100
0100
,
1000
0000
0000
0000
0010
0000
0000
0010
1000
0000
0001
0000
1000
0000
0001
0000
,
2002
0000
0000
3003
,
1100
0000
0000
0000
1001
0000
0000
0010
0001
0000
1000
0000
0010
0000
0100
0000
,
0100
0000
0000
0000
0001
0000
1000
0010
0000
0010
1000
0000
0100
0000
0010
0000
,
0011
0000
0000
0000
1001
0000
0000
0100
1000
0000
0001
0000
0100
0000
0010
0000
,
0010
0000
0000
0000
1000
0000
0001
0100
0000
0100
0001
0000
0010
0000
0100
0000
,
0110
0000
0000
0000
1001
0000
0000
0100
0010
0000
1000
0000
0100
0000
0001
0000
,
0100
0000
0000
0000
0010
0000
0100
1000
0000
1000
0100
0000
0010
0000
0001
0000
,
1001
0000
0000
0000
0110
0000
0000
0001
1000
0000
1000
0000
0100
0000
0010
0000
,
0000
0011
0000
1100
0000
0001
0010
0100
,
0101
0000
0000
0000
1001
0000
0000
0010
1000
0000
0001
0000
0010
0000
0100
0000
,
0100
0000
0000
0000
1000
0000
0001
0010
0000
0010
0001
0000
0100
0000
0010
0000
,
1010
0000
0000
0000
1001
0000
0000
0100
0001
0000
1000
0000
0100
0000
0010
0000
,
0010
0000
0000
0000
0001
0000
1000
0100
0000
0100
1000
0000
0010
0000
0100
0000
,
0110
0000
0000
0000
1001
0000
0000
0100
0010
0000
0001
0000
0100
0000
1000
0000
,
0100
0000
0000
0000
0010
0000
0100
0001
0000
0001
0100
0000
0010
0000
1000
0000
,
1001
0000
0000
0000
0110
0000
0000
1000
0001
0000
0001
0000
0100
0000
0010
0000
,
1000
1100
0000
0011
0000
0001
0010
0100
,
1000
1010
0000
0101
0000
1000
0100
0010
,
0001
0101
0000
1010
0000
1000
0100
0010
,
0001
0011
0000
1100
0000
0001
0010
0100
,
1000
0100
0001
0100
1000
0100
0001
0100
,
1000
0010
0001
0010
1000
0010
0001
0010
,
1000
0000
0000
0100
0010
0000
0000
0001
1000
0000
0000
0010
0100
0000
0000
1000
,
0001
1000
0010
0100
0001
1000
0010
0100
,
2002
0000
0000
0000
3003
0000
0100
0010
,
0210
0000
0320
0000
0000
1030
0100
1000
,
0100
0000
0010
0001
0200
0000
0000
0000
0000
0000
0301
0000
0001
0000
1000
0000
,
0010
0000
0010
1000
0002
0000
0000
0000
0000
0000
0103
0000
0100
0000
0010
0000
,
1000
0000
2001
0000
0000
0000
0010
0000
0100
0000
0010
0000
3100
0000
0100
0010
,
0200
0000
0320
0000
0000
0031
0100
0001
,
0100
0000
0010
1000
0200
0000
0000
0000
0000
0000
1300
0000
1000
0000
0001
0000
,
0010
0000
0010
0001
2000
0000
0000
0000
0000
0000
3100
0000
0100
0000
0010
0000
,
0001
0000
1002
0000
0000
0000
0010
0000
0100
0000
0010
0000
0103
0000
0100
0010
,
1000
0100
1000
0100
0010
0001
0010
0001
,
1000
0100
0010
0100
1000
0100
0010
0001
,
0011
0000
0010
0100
1100
0000
0100
0010
,
0001
0100
1000
0100
0010
0100
0001
0100
,
0110
0000
1000
0100
0011
0000
0001
0010
,
0001
0100
1000
0100
0010
0100
0001
0100
,
0110
1001
1100
0011
,
0110
0000
0000
0000
1001
0000
0000
1000
0100
0000
1000
0000
0001
0100
0001
0100
,
0001
0010
0001
0010
0100
1000
0100
1000
,
0001
0010
0100
0010
0001
0010
0100
1000
,
1100
0000
0100
0010
0011
0000
0010
0100
,
1000
0010
0001
0010
0100
0010
1000
0010
,
0110
0000
0001
0010
1100
0000
1000
0100
,
1000
0010
0001
0010
0100
0010
1000
0010
,
0110
1001
0011
1100
,
0110
0000
0000
0000
1001
0000
0000
0001
0010
0000
0001
0000
1000
0010
1000
0010
,
0200
0000
0010
0000
0010
0010
0010
0000
,
0020
0000
0000
0000
0000
0000
0000
0330
,
0010
0100
0100
0100
0001
1000
0001
1000
,
0010
0100
0100
0010
0000
1000
0001
1000
,
0100
0010
0100
0010
0001
1000
0010
0010
,
1000
0001
0010
0100
0010
0001
0100
0010
,
1000
0001
1000
0001
0100
0010
0100
0100
,
0010
1000
0100
1000
0010
0100
0001
0000
,
0010
0100
0100
0010
0100
1000
0100
0010
,
0001
1000
0010
1010
0000
1000
0001
1000
,
0100
0010
0100
0000
0010
0001
0010
0000
0001
1000
0001
0000
1000
0010
1000
0000
,
0010
0000
0100
0000
0001
0000
1000
0010
1000
0000
0100
0000
1000
0000
0001
0000
,
0010
0000
0100
0000
1000
0000
0001
0010
0001
0000
0100
0000
0001
0000
1000
0000
,
0010
0010
0100
0100
0001
0100
1000
0010
,
0110
0000
0100
0110
2002
0000
3003
0000
;

//---------------dance-double - ----------------
#NOTEDATA:;
#CHARTNAME:;
#STEPSTYPE:dance-double;
#DESCRIPTION:;
#CHARTSTYLE:;
#DIFFICULTY:Easy;
#METER:5;
#RADARVALUES:0.253788,0.304329,0.096901,0.153426,0.000000,220.000000,208.000000,12.000000,19.000000,0.000000,0.000000,0.000000,0.000000,0.000000,0.253788,0.304329,0.096901,0.153426,0.000000,220.000000,208.000000,12.000000,19.000000,0.000000,0.000000,0.000000,0.000000,0.000000;
#CREDIT:;
#NOTES:
00000000
00000000
00000000
00000000
,
00000000
00000000
00000000
00000000
,
00000000
00000000
00000000
00000000
,
00000000
00000000
00000000
00000000
,
00010000
10000000
00010000
00100000
,
00000000
00100000
00001000
00000000
,
00001000
00010000
00000010
00001000
,
00000000
00001000
00000001
00000000
,
00000001
00000010
00000010
00000010
,
00000200
00000000
00000300
00000000
,
00000100
00010000
00001000
00010000
,
00011000
00000000
00000000
00000000
,
01000000
00010000
10000000
00100000
,
00000000
00100000
01000000
00000000
,
01000000
00001000
00010000
00001000
,
00000000
00001000
00000010
00000000
,
00000010
00000001
00000001
00000001
,
00002000
00000000
00003000
00000000
,
00001000
00000100
00010000
00001000
,
00010000
00010000
00001000
00001000
,
00000000
00000000
00000000
00000000
,
00100000
00010000
01000000
10000000
,
01000000
01000000
00010000
00000000
,
00100000
00001000
00010000
00001000
,
00000100
00000100
00000010
00000000
,
00000010
00001000
00000100
00000001
,
00000100
00000100
00001000
00000000
,
00000010
00010000
00001000
00010000
,
01000000
00000000
00100000
00000000
,
10000000
10000000
00010000
01000000
,
00100000
01000000
00001000
00000000
,
00010000
00010000
00001000
00100000
,
00001000
00000100
00000010
00000000
,
00000001
00000001
00001000
00000100
,
00000010
00000100
00010000
00000000
,
00001000
00001000
00010000
00010000
,
00011000
00000000
00000000
00000000
,
01100000
00000000
00000000
00000000
,
00000110
00000000
00000000
00000000
,
00011000
00000000
00000000
00000000
,
00100000
00000000
01000000
00000000
,
00001000
00000000
00010000
00000000
,
00000010
00000000
00000100
00000000
,
00010000
00000000
00001000
00000000
,
00022000
00000000
00033000
00000000
,
10000000
00200000
00000000
00300000
,
01000000
00020000
00000000
00030000
,
00001000
00000200
00000000
00000300
,
00002000
00003000
00000002
00000003
,
00000100
00000020
00000000
00000030
,
00010000
00002000
00000000
00003000
,
00100000
00020000
00000000
00030000
,
20000000
30000000
00020000
00030000
,
10000000
00000000
10000000
00000000
,
00000000
01000000
00010000
00001000
,
00000100
00001000
00010000
00000000
,
00000000
00010000
00001000
00000100
,
00000010
00000100
00001000
00000000
,
00000000
00001000
00000100
00000010
,
00000100
00000001
00000000
00000100
,
00001000
00010000
00001000
00000000
,
00010000
00000000
00010000
00000000
,
00000000
00100000
01000000
00100000
,
00001000
00010000
00100000
00000000
,
00000000
00010000
00001000
00000100
,
00000010
00000100
00001000
00000000
,
00000000
00010000
00001000
00000010
,
00000100
00000010
00000000
00000001
,
00001000
00000100
00010000
00001000
,
00022000
00000000
00000000
00000000
,
00000000
00000000
00033000
00000000
,
00100000
00100000
00100000
00100000
,
10010000
00000000
00000000
00000000
,
00010000
10000000
00010000
00100000
,
00000000
00100000
00001000
00000000
,
00001000
00010000
00000010
00001000
,
00000000
00001000
00000001
00000000
,
00000001
00000010
00000010
00000010
,
00000200
00000000
00000300
00000000
,
00000100
00010000
00001000
00010000
,
00011000
00000000
00000000
00000000
,
01100000
00000000
00000000
00000000
,
00000110
00000000
00000000
00000000
,
00010000
00001000
00022000
00033000
;

//---------------dance-double - ----------------
#NOTEDATA:;
#CHARTNAME:;
#STEPSTYPE:dance-double;
#DESCRIPTION:;
#CHARTSTYLE:;
#DIFFICULTY:Medium;
#METER:8;
#RADARVALUES:0.376067,0.439586,0.104976,0.153426,0.000000,326.000000,313.000000,13.000000,19.000000,0.000000,0.000000,0.000000,0.000000,0.000000,0.376067,0.439586,0.104976,0.153426,0.000000,326.000000,313.000000,13.000000,19.000000,0.000000,0.000000,0.000000,0.000000,0.000000;
#CREDIT:;
#NOTES:
00000000
00000000
00000000
00000000
,
00000000
00000000
00000000
00000000
,
00000000
00000000
00000000
00000000
,
00000000
00000000
00000000
00000000
,
00000001
00000000
00000010
00000000
00000100
00000000
00000100
00001000
,
00000000
00000010
00000000
00010000
00000000
00001000
00010000
00000000
,
00001000
00000000
00100000
00000000
01000000
00000000
10000000
00010000
,
00000000
00100000
00000000
01000000
00000000
10000000
00100000
00000000
,
10000000
10000000
01000000
00010000
,
00001000
00010000
00000000
00000000
,
00020000
00001000
00000100
00030010
,
00001000
00000010
00000100
00000001
00000000
00000000
00000000
00000000
,
00000001
00000000
00000100
00000000
00000010
00000000
00000010
00001000
,
00000000
00000100
00000000
00010000
00000000
00001000
00010000
00000000
,
00001000
00000000
01000000
00000000
00100000
00000000
10000000
00010000
,
00000000
01000000
00000000
00100000
00000000
10000000
01000000
00000000
,
10000000
10000000
00100000
00010000
,
00001000
00010000
00000000
00000000
,
00001000
00000100
00000010
00000100
,
00001000
00010000
00100000
00010000
,
00022000
00000000
00033000
00000000
,
00010000
00000000
00010000
00000000
00000100
00001000
00000100
00000000
,
00010000
00010000
00000100
00001000
,
00000010
00000000
00000010
00000000
00000100
00000001
00000100
00000000
,
00000001
00000001
00001001
00000000
,
00000010
00000000
00000010
00000000
00001000
00000100
00001000
00000000
,
00000010
00000010
00010000
00001000
,
00100000
00000000
00100000
00000000
00010000
01000000
00010000
00000000
,
00000000
10010000
00000000
10010000
00000000
00100000
01000000
00100000
,
01000000
00000000
01000000
00000000
00100000
10000000
00100000
00000000
,
01000000
01000000
00100000
01000000
,
00001000
00000000
00001000
00000000
00010000
00000100
00010000
00000000
,
00000010
00000000
00000010
00000000
00010000
00001000
00010000
00000000
,
00000100
00000000
00000100
00000000
00000010
00000001
00000010
00000000
,
00000100
00000100
00001000
00000010
,
00010000
00010000
00001000
00001000
,
00011000
00000000
00100000
01000000
,
11000000
00000000
00100000
00001000
,
00011000
00000000
00010000
00000100
,
00000110
00000000
00000010
00000001
,
00001001
00000001
00000100
00000100
,
00000010
00000010
00001000
00001000
,
00000100
00010000
00001000
00100000
,
00010000
01000000
00100000
10000000
,
20020000
00000000
30030000
00000000
,
00100000
00000000
01000000
00000000
00000000
00010000
00100000
00010000
,
00100000
00000000
00001000
00000000
00000000
00000100
00000010
00000100
,
00000010
00000000
00000001
00000000
00000000
00001000
00000001
00001000
,
00000001
00000100
00010000
00001000
,
00011000
00000000
00100000
00000000
00000000
00100000
10000000
00100000
,
10000000
00000000
01000000
00000000
00000000
00010000
00001000
00010000
,
00001000
00000000
00000010
00000000
00000000
00000001
00000100
00000001
,
00000100
00000000
00001000
00000000
00010000
01000000
00100000
10000000
,
00020000
00000000
20000000
00000000
,
30030000
10000000
01000000
00010000
,
00001000
00000000
00010000
01000000
00200000
00000000
00000000
00000000
,
00000000
00301000
00010000
00001000
,
00000010
00000000
00000100
00001000
00000020
00000000
00000000
00000000
,
00000000
00000130
00001000
00010000
,
00001000
00200000
00000000
00001000
,
00301000
00000000
00010000
00000000
01000000
00000000
10000000
00100000
,
02000000
00000000
00200000
00000000
,
03300000
00010000
10000000
00010000
,
00100000
00000000
00001000
00010000
00002000
00000000
00000000
00000000
,
00000000
00013000
00000100
00000010
,
00000001
00000000
00001000
00000001
00000200
00000000
00000000
00000000
,
00000000
00000310
00001000
00000100
,
00010000
00002000
00000000
00010000
,
00013000
00000000
01000000
00000000
10000000
00000000
00010000
01000000
,
00200000
00000000
00000000
00000000
,
00000000
00000000
00000000
00300000
,
00010000
00001000
00010000
00001000
,
00011000
00000000
00001000
00010000
00000000
00010000
00100000
00000000
,
10000000
00000000
00100000
00000000
01000000
00000000
01000000
00010000
,
00000000
00100000
00000000
00001000
00000000
00010000
00001000
00000000
,
00010000
00000000
00000010
00000000
00000100
00000000
00000001
00001000
,
00000000
00000010
00000000
00000100
00000000
00000001
00000010
00000000
,
00000001
00000001
00000100
00001000
,
00010000
00001000
00000000
00000000
,
00002000
00010000
01000000
00103000
,
00010000
00100000
01000000
10000000
00000000
00000000
01000000
00000000
,
00100000
00001000
00010000
00000100
00000000
00000000
00000010
00000000
,
00000001
00000100
00001000
00000000
00000100
00001000
00010000
00000000
,
00001000
00010000
00022000
00033000
;

//---------------dance-double - ----------------
#NOTEDATA:;
#CHARTNAME:;
#STEPSTYPE:dance-double;
#DESCRIPTION:;
#CHARTSTYLE:;
#DIFFICULTY:Hard;
#METER:14;
#RADARVALUES:0.663309,0.608658,0.492579,0.161501,0.060563,575.000000,514.000000,61.000000,20.000000,0.000000,0.000000,0.000000,0.000000,0.000000,0.663309,0.608658,0.492579,0.161501,0.060563,575.000000,514.000000,61.000000,20.000000,0.000000,0.000000,0.000000,0.000000,0.000000;
#CREDIT:;
#NOTES:
// measure 0
00000000
00000000
00000000
00000000
,  // measure 1
00000000
00000000
00000000
00000000
,  // measure 2
00000000
00000000
00000000
00000000
,  // measure 3
00000000
00000000
00000000
00000000
,  // measure 4
00100000
01000000
00100000
01000000
00001000
00010000
00001000
00001000
,  // measure 5
00010000
00001000
00000100
00000010
00000100
00000001
00000010
00000100
,  // measure 6
00010000
00000100
00010000
00001000
00100000
01000000
00100000
00100000
,  // measure 7
01000000
10000000
00100000
01000000
00001000
00010000
00000100
00000000
,  // measure 8
00000100
00000010
00000010
00000100
00000010
00000001
00000010
00000100
,  // measure 9
00010000
00001000
00010000
00011000
00000000
00001000
00010000
00100000
,  // measure 10
01000000
01100000
10010000
00101000
,  // measure 11
00100000
00001000
00010000
00000100
00000010
00000010
00000100
00000000
,  // measure 12
00000010
00000100
00000010
00000100
00010000
00001000
00010000
00010000
,  // measure 13
00001000
00010000
01000000
00100000
01000000
10000000
00100000
01000000
,  // measure 14
00001000
01000000
00001000
00010000
00000010
00000100
00000010
00000010
,  // measure 15
00000100
00000001
00000010
00000100
00010000
00001000
01000000
00000000
,  // measure 16
01000000
00100000
00100000
01000000
00100000
10000000
00100000
01000000
,  // measure 17
00010000
01000000
00001000
00011000
00000000
00010000
00001000
00000010
,  // measure 18
00000100
00000110
00001001
00001010
,  // measure 19
00010100
00000000
00101000
00000000
00010000
10000000
10010000
00000000
,  // measure 20
20020000
00000000
00000000
30030000
,  // measure 21
11000000
00000000
00110000
00000000
01000000
00010000
00001000
00100000
,  // measure 22
00001000
00000000
00000000
00000000
00001000
00000000
00010000
00000000
00000000
00001000
00010000
00000000
00000100
00000000
00000010
00000000
,  // measure 23
00000100
00000000
00000000
00000000
00001001
00000000
00000000
00000001
00000100
00000000
00001000
00000000
00010000
00000000
00001000
00000000
,  // measure 24
00010000
00000000
00000000
00000000
00001000
00000000
00100000
00000000
00000000
00010000
00100000
00000000
01000000
00000000
10000000
00000000
,  // measure 25
01000000
00000000
10010000
00000000
00100000
00001000
00010000
00000100
,  // measure 26
00000010
00000000
00000000
00000000
00000100
00000000
00000010
00000000
00000000
00000100
00000010
00000000
00000001
00000000
00001000
00000000
,  // measure 27
00000001
00000000
00000110
00000000
00010000
00001000
01000000
00100000
,  // measure 28
00000000
10100000
00000000
01001000
00000000
00010000
10000000
00100000
,  // measure 29
01000000
00000000
10010000
00000000
10000000
01000000
00010000
00001000
,  // measure 30
00000100
00000000
00000000
00000000
00000010
00000000
00000100
00000000
00000000
00000010
00000100
00000000
00000001
00000000
00001000
00000000
,  // measure 31
00000001
00000000
00000000
00000000
00000110
00000000
00000000
00000001
00000100
00000000
00001000
00000000
00010000
00000000
00001000
00000000
,  // measure 32
01000000
00000000
00000000
00000000
00100000
00000000
10000000
00000000
00000000
01000000
10000000
00000000
00100000
00000000
01000000
00000000
,  // measure 33
00010000
00000000
00110000
00000000
00001000
00010000
01000000
10000000
,  // measure 34
01000000
00000000
00000000
00000000
00100000
00000000
00001000
00000000
00000000
00010000
00001000
00000000
00100000
00000000
00001000
00000000
,  // measure 35
00010000
00000000
00000000
00000000
00011000
00000000
00000000
00010000
00001000
00000000
00000100
00000000
00000010
00000000
00000100
00000000
,  // measure 36
00000001
00000101
00000000
00001010
00000000
00000010
00010000
00001000
,  // measure 37
00010000
00011000
00000000
00101000
00000000
00010000
01000000
00100000
,  // measure 38
10000000
11000000
00000000
00110000
00000000
10000000
01000000
00010000
,  // measure 39
00001000
00011000
00000000
00010100
00000000
00001000
00000010
00000000
,  // measure 40
00000100
00000001
00000100
00001000
00000100
00000001
00000100
00001000
,  // measure 41
01000000
10000000
01000000
00010000
01000000
10000000
01000000
00010000
,  // measure 42
00100000
01000000
00010000
00001000
00010000
00000010
00000100
00001000
,  // measure 43
00010000
00000100
00010000
00001000
00100000
00001000
00010000
00001000
,  // measure 44
00022000
00000000
00000000
00000000
00033000
00000000
00001000
00100000
,  // measure 45
02100000
00000000
03200000
00000000
00000000
00301000
01000000
00001000
,  // measure 46
00010000
00000000
00000010
00001000
00000200
00000000
00000000
00000000
00000000
00000000
00001300
00000000
00000001
00000000
00000100
00000000
,  // measure 47
00000010
00000000
00010000
00001000
00020000
00000000
00000000
00000000
00000000
00000000
00030100
00000000
00000100
00000000
00000010
00000000
,  // measure 48
00000100
00000000
00021000
00000000
00000000
00000000
00001000
00000000
00100000
00000000
00001000
00000000
00031000
00000000
01000000
00100000
,  // measure 49
02000000
00000000
03200000
00000000
00000000
10300000
01000000
00010000
,  // measure 50
00000010
00000000
00001000
00000001
00000200
00000000
00000000
00000000
00000000
00000000
00000301
00000000
00000001
00000000
00001000
00000000
,  // measure 51
00000010
00000000
00000010
00010000
00002000
00000000
00000000
00000000
00000000
00000000
01003000
00000000
01000000
00000000
00100000
00000000
,  // measure 52
10000000
00000000
20010000
00000000
00000000
00000000
00100000
00000000
01000000
00000000
00100000
00000000
31000000
00000000
01000000
10000000
,  // measure 53
01000000
00000000
01000000
10000000
01000000
10000000
01000000
00010000
,  // measure 54
00001000
00100000
00010000
01000000
00001000
00000100
00000010
00001000
,  // measure 55
00000100
00000000
00000010
00000001
00000020
00000000
00000001
00000000
,  // measure 56
00000031
00001001
00001100
00010100
,  // measure 57
00011000
00000000
00010000
01000000
10000000
00100000
01000000
00001000
,  // measure 58
00010000
01000000
00100000
00010000
00100000
01000000
10000000
01000000
,  // measure 59
01100000
00101000
00011000
00010100
,  // measure 60
00000110
00000000
00001001
00000000
00000100
00001000
00000001
00000100
,  // measure 61
00000010
00000000
00000010
00000001
00000010
00000001
00000010
00001000
,  // measure 62
00010000
00000100
00001000
00000010
00010000
00100000
01000000
00010000
,  // measure 63
00100000
00000000
01000000
10000000
02000000
00000000
10000000
00000000
,  // measure 64
13000000
10010000
00110000
00101000
,  // measure 65
00011000
00000000
00001000
00000010
00000001
00000100
00000010
00010000
,  // measure 66
00001000
00000010
00000100
00001000
00000100
00000010
00000001
00000010
,  // measure 67
00000110
00010100
00011000
00101000
,  // measure 68
01100000
00000000
10010000
00000000
00100000
00010000
10000000
01000000
,  // measure 69
00200000
00000000
00000000
00000000
,  // measure 70
02000000
00000000
00000000
00000000
00000000
00000000
00000000
03300000
,  // measure 71
00100000
00001000
00001000
00001000
00010000
00010000
00010000
00001000
,  // measure 72
00000010
00000100
00000100
00000010
00000000
00000001
00001000
00000001
,  // measure 73
00000100
00000010
00000100
00000010
00010000
00001000
00010000
00010000
,  // measure 74
00001000
00010000
00100000
01000000
00100000
10000000
01000000
00100000
,  // measure 75
00001000
00100000
00001000
00010000
00000100
00000010
00000100
00000100
,  // measure 76
00000010
00000001
00000100
00000010
00010000
00001000
00100000
00000000
,  // measure 77
00100000
01000000
01000000
00100000
01000000
10000000
01000000
00100000
,  // measure 78
00001000
00010000
00001000
00011000
00000000
00010000
00001000
00000100
,  // measure 79
00000010
00000110
00001001
00010100
,  // measure 80
00000100
00010000
00100000
01000000
00000000
01000000
00100000
01000000
,  // measure 81
00100000
00010000
00001000
00000100
00000000
00000100
00000010
00000100
,  // measure 82
00000001
00000001
00001000
00001000
00010000
00100000
00010000
00100000
,  // measure 83
01100000
00000000
00010000
00001000
00022000
00000000
00033000
00000000
;

//---------------dance-single - ----------------
#NOTEDATA:;
#CHARTNAME:;
#STEPSTYPE:dance-single;
#DESCRIPTION:;
#CHARTSTYLE:;
#DIFFICULTY:Challenge;
#METER:18;
#RADARVALUES:1.100516,1.183502,0.266477,0.161501,1.300086,954.000000,921.000000,33.000000,20.000000,0.000000,0.000000,0.000000,0.000000,0.000000,1.100516,1.183502,0.266477,0.161501,1.300086,954.000000,921.000000,33.000000,20.000000,0.000000,0.000000,0.000000,0.000000,0.000000;
#CREDIT:;
#NOTES:
0000
0000
0000
0000
,
0000
0000
0000
0000
,
0000
0000
0000
0000
,
0000
0000
0000
0000
,
0100
0010
0100
0000
0010
0100
0010
0000
1000
0001
0100
0010
1000
0000
0001
0010
,
0100
0000
1000
0100
0010
0000
0001
0100
0010
0000
1000
0010
0100
0001
0010
0000
,
0001
0100
0001
0000
1000
0100
1000
0000
0001
0010
0100
1000
0010
0000
0100
0001
,
1000
0000
0010
1000
0001
0000
0010
0100
0001
0000
0010
0001
0100
0010
1000
0000
,
0100
1000
0100
0000
0001
0100
0001
0000
1000
0100
0010
0001
0100
0000
0010
0001
,
0200
0000
0310
0000
0100
0010
1000
0001
0010
0000
0100
0000
1000
0001
0100
0010
,
1000
0100
1000
0000
0010
0001
0010
0000
1000
0100
1000
0100
0010
0001
0010
0001
,
0010
0001
1000
0010
0100
0000
0020
0000
1000
0000
1030
0100
0010
0001
0100
0000
,
0001
0100
0001
0000
0010
1000
0010
0000
0001
0100
0010
1000
0100
0000
0010
1000
,
0100
0000
0010
0001
0100
0000
1000
0100
0010
0000
0001
0010
0100
1000
0010
0000
,
1000
0010
1000
0000
0001
0100
0001
0000
1000
0100
0010
0001
0100
0000
0010
0001
,
1000
0000
0100
0001
1000
0000
0010
0100
1000
0000
1000
0100
0010
0001
0100
0000
,
0010
0001
0010
0000
0100
0010
0100
0000
1000
0100
0010
0001
0010
0000
0100
1000
,
0020
0000
1030
0000
0010
0001
1000
0010
0100
0000
0010
0000
0001
0010
0100
1000
,
0010
0100
0010
0000
1000
0100
1000
0000
0001
0100
0001
0100
0010
1000
0010
1000
,
0001
0000
0010
0100
1000
0000
0200
0000
1000
0000
1300
0100
0010
0001
0100
0000
,
0002
0023
0230
1300
,
1100
0000
1010
0000
1000
0001
0100
0010
,
1001
0000
1010
0000
1000
0100
0001
0010
,
0110
0000
0101
0000
0010
1000
0001
0010
,
1100
0000
0101
0000
0001
0010
1000
0100
,
1010
0000
0110
0000
0001
1000
0100
0010
,
0101
0000
0110
0000
1000
0001
0010
0100
,
0011
0000
1001
0000
1000
0010
0100
0001
,
0000
1100
0000
1001
0000
0101
1001
0000
,
1000
0100
1000
0000
0001
0100
0001
0000
1000
0100
1000
0000
0001
0100
0001
0000
,
0100
1000
0100
0000
0100
0001
0100
0000
0100
1000
0100
0000
0100
0001
0100
0000
,
1000
0010
1000
0000
0001
0010
0001
0000
1000
0010
1000
0000
0001
0010
0001
0000
,
0010
1000
0010
0000
0010
0001
0010
0000
0010
1000
0010
0000
0010
0001
0010
0000
,
0001
0100
0001
0000
0010
0001
0010
0000
0001
0100
0001
0000
0010
0001
0010
0000
,
0100
0010
0100
0000
1000
0001
1000
0000
0100
0010
0100
0000
1000
0001
1000
0000
,
0010
0100
0001
0000
0010
0100
1000
0000
0010
1000
0001
0000
0010
0001
1000
0000
,
0100
1000
0100
1000
0100
0000
1000
0000
0100
0000
0010
0001
1000
0010
0100
0000
,
0001
0010
0001
0010
0001
0000
0010
0000
0100
0000
1000
0010
0100
0001
0010
0000
,
0010
1000
0010
1000
0010
0000
0100
0000
0010
0000
1000
0001
0100
0010
0001
0000
,
1000
0100
1000
0100
1000
0000
0010
0000
0001
0000
0100
1000
0100
0001
1000
0000
,
1000
0100
0001
0010
1000
0010
0001
0100
1000
0010
0100
0001
1000
0010
0100
0001
,
1000
0010
0001
0100
1000
0100
0001
0010
1000
0100
0010
0001
0100
0010
1000
0100
,
0010
0001
0100
0010
1000
0100
0010
0001
0100
0010
1000
0100
0010
0001
1000
0010
,
0001
0000
0000
0100
0000
0000
0010
0000
0000
1000
0000
0000
0100
0000
0000
0010
0000
0000
1000
0000
0000
0001
0000
0000
0010
0000
0000
0100
0000
0000
1000
0000
0000
0001
0000
0000
1000
0000
0001
0000
1000
0000
0001
0000
1000
0000
0002
0000
,
2000
0000
0000
0000
0000
0000
0000
0000
3003
0000
0000
0000
1000
0100
0010
0000
,
0001
0000
0101
0000
1010
1000
1100
0100
,
0010
0000
0001
0010
1000
0000
1010
0000
0110
0000
0100
0001
0010
0000
0001
0000
,
0110
0000
0010
1000
0001
0000
0101
0000
0010
0000
0100
1000
0010
0000
1000
0000
,
0100
0000
0110
0000
0010
0000
0011
0000
0001
0000
1001
0000
1000
0000
0001
0010
,
0100
0000
2200
0000
3300
1000
0100
0010
,
0001
0000
0010
0002
0200
0000
0000
0000
0303
0000
0001
0000
0100
0000
0010
0000
,
1000
0000
0001
0020
0200
0000
0000
0000
0330
0000
0100
0000
0010
0000
1000
0000
,
0001
0000
0010
0000
0100
0000
1000
0000
0001
0000
0100
0000
0010
0000
1000
0000
0001
0000
0010
0000
0100
1000
0100
1000
0100
0000
0010
0000
0001
0000
1000
0000
,
0010
0100
0001
0000
0010
0100
0001
0000
0010
0100
0001
0000
0010
0001
0100
0010
,
1000
0100
0010
0000
1000
0100
0010
0000
1000
0100
0010
0000
1000
0010
0100
0001
,
1000
0001
0100
0000
1000
0001
0100
0000
1000
0001
0100
0000
1000
0001
0010
0100
,
1000
0010
0001
0000
1000
0010
0001
0000
1000
0010
0001
0000
0010
0001
1000
0010
,
0100
0001
0100
0010
0100
0001
0100
0010
0100
0001
0100
0010
0100
0001
0100
0000
,
0010
0001
0100
0001
0010
0001
0100
0001
0010
0001
0100
0001
0010
0001
0100
0000
,
1000
0100
0010
0001
1000
0010
0100
0001
1000
0100
0010
0001
0010
0100
1000
0000
,
0001
0010
0100
1000
0010
0100
0001
1000
0100
0010
0001
1000
0010
0100
0001
1000
,
0100
0010
1000
0010
0100
0010
0001
0000
1000
0100
0010
0001
0100
0010
1000
0001
,
0010
0000
0100
0001
1000
0000
0001
0100
0010
0000
1000
0010
0100
0001
0010
0000
,
0001
0010
0100
0000
0010
1000
0100
0000
1000
0100
0010
0001
0100
0000
0010
1000
,
0100
0000
0010
0001
1000
0000
0001
0100
0010
0000
1000
0010
0100
0001
0010
0000
,
1000
0100
0010
0000
0001
0100
0010
0000
1000
0001
0100
0001
0010
0000
0001
0010
,
0100
0000
0010
1000
0100
0000
0001
1000
0100
0000
0010
1000
0001
0000
0010
0001
,
1000
0000
0100
0010
1000
0000
0001
0100
0010
0000
1000
0100
0010
0000
0001
1000
,
0010
0000
0000
0000
0000
0000
0001
0000
0100
0000
0001
0000
0100
0000
0000
0001
0000
0000
1000
0000
0000
0100
0000
0000
0010
0000
0000
0000
0000
0000
0001
0000
0010
0000
0001
0000
0010
0000
0000
0100
0000
0000
1000
0000
0000
0000
0000
0000
,
0100
1000
0100
1000
0100
1000
0100
1000
0100
1000
0100
1000
0100
1000
0100
1000
,
0100
0010
0001
0010
0100
1000
0010
0100
0001
1000
0100
0010
0001
0010
0100
1000
,
0010
0010
0010
0010
0010
0010
0010
0010
,
0010
0010
0010
0020
0030
0010
0010
0010
,
1000
0001
0100
0000
0001
1000
0100
0000
0010
0001
0100
0010
1000
0000
0100
0010
,
1000
0000
0010
0100
0001
0000
1000
0100
0010
0000
0100
0001
0010
1000
0001
0000
,
0010
0001
0100
0000
1000
0100
0010
0000
0001
0010
0100
1000
0010
0000
0100
0001
,
1000
0000
0010
1000
0100
0000
0010
0001
1000
0000
0001
0010
0100
1000
0010
0000
,
0100
0001
1000
0000
0100
1000
0001
0000
0010
0001
0100
0010
1000
0000
0100
0010
,
0002
0000
0013
0000
0100
0010
1000
0001
0010
0000
0100
0000
0010
0100
0001
1000
,
0100
0010
0001
0000
0001
0010
0100
0000
0010
1000
0100
0010
0001
0010
0100
1000
,
0010
0100
0001
1000
0010
0000
2000
0000
0010
0000
3100
0001
1000
0010
0100
0000
,
0010
0001
0100
0000
0010
1000
0100
0000
0001
0100
0010
1000
0100
0000
0010
0000
,
0001
0010
0001
0010
0001
0010
0001
0010
0100
1000
0100
1000
0100
1000
0100
0000
,
1100
0000
0101
0011
2002
0000
3003
0000
;
