#TITLE:Xepher;
#SUBTITLE:;
#ARTIST:Tatsh;
#TITLETRANSLIT:;
#SUBTITLETRANSLIT:;
#ARTISTTRANSLIT:;
#GENRE:;
#CREDIT:;
#BANNER:Xepher.png;
#BACKGROUND:Xepher-bg.png;
#LYRICSPATH:;
#CDTITLE:;
#MUSIC:Xepher.ogg;
#OFFSET:0.000000;
#SAMPLESTART:33.900002;
#SAMPLELENGTH:15.000000;
#SELECTABLE:YES;
#BPMS:0.000000=170.000000
;
#STOPS:
;
#BGCHANGES:0.000=Xepher.avi=1.000=0=0=0=StretchNoLoop====,
99999=-nosongbg-=1.000=0=0=0 // don't automatically add -songbackground-
;
#KEYSOUNDS:;
#ATTACKS:;

//---------------dance-single - ----------------
#NOTES:
     dance-single:
     :
     Beginner:
     4:
     0.166327,0.203751,0.087322,0.000000,0.000000,120.000000,111.000000,9.000000,0.000000,0.000000,0.000000,0.166327,0.203751,0.087322,0.000000,0.000000,120.000000,111.000000,9.000000,0.000000,0.000000,0.000000:
0000
0000
0000
0000
,
0000
0000
0000
0000
,
0000
0000
0000
0000
,
0000
0000
0000
0000
,
0000
0000
0000
0000
,
0000
0000
0000
0000
,
1000
0000
0000
1001
,
0000
0000
0000
0110
,
0000
0000
0000
1000
,
0000
0100
0000
0010
,
0000
0000
0000
0001
,
0000
0000
0000
0110
,
0000
0000
0000
0010
,
0000
0010
0000
0100
,
0000
0110
0000
0100
,
0000
1000
0000
0010
,
0000
0001
0000
1000
,
0000
0100
0000
0100
,
0100
0000
0001
0000
,
1000
0000
0001
0000
,
0001
0000
0001
0000
,
0010
0000
0001
0000
,
0010
0000
0010
0000
,
1000
0000
0010
0000
,
0001
0000
0000
0000
,
0010
0000
0100
0000
,
1000
0000
0100
0000
,
0010
0000
0010
0000
,
1000
0000
0010
0000
,
0010
0000
0100
0000
,
1000
0000
1000
0000
,
0001
0000
0010
0000
,
0100
0000
0100
0000
,
1000
0000
0010
0000
,
1000
0000
0100
0000
,
0100
0000
0000
1000
,
0000
0000
0000
0100
,
0000
0000
0000
0010
,
0000
0100
0000
0010
,
0000
0000
0000
0100
,
0000
0000
0000
1001
,
0000
0000
0000
0110
,
0000
0010
0000
0100
,
0000
0000
0010
0000
,
0100
0000
1000
0000
,
0001
0000
0100
0000
,
0010
0000
1000
0000
,
0001
0000
1000
0000
,
0001
0000
0010
0000
,
0001
0000
0100
0000
,
0100
0000
0010
0000
,
1000
0000
1000
0000
,
0001
0000
0100
0000
,
1000
0000
0100
0000
,
1000
0000
0010
0000
,
0100
0000
0100
0100
,
0000
0010
0000
0001
,
0000
0001
0000
0010
,
0000
0010
0000
0100
,
0000
0010
0000
0001
,
0000
1001
0000
0001
,
0000
0100
0100
0000
,
0001
0000
1000
0000
,
0010
0000
0000
0100
,
0000
0000
0000
0100
,
0000
0000
0000
0010
,
0000
0000
0000
0010
,
0000
0000
0000
1000
,
0000
0000
0000
0000
,
0110
0000
0000
0000
,
1001
0000
0000
0000
,
0000
0000
0000
0000
;

//---------------dance-single - ----------------
#NOTES:
     dance-single:
     :
     Easy:
     7:
     0.350673,0.441460,0.310478,0.145536,0.000000,253.000000,221.000000,32.000000,15.000000,0.000000,0.000000,0.350673,0.441460,0.310478,0.145536,0.000000,253.000000,221.000000,32.000000,15.000000,0.000000,0.000000:
0000
0000
0000
0000
,
0000
0000
0000
0000
,
0000
0000
0000
0000
,
0000
0000
0000
0000
,
0000
0000
0000
0000
,
0000
0000
0000
0000
,
1000
0000
0000
0010
0000
0000
1001
0000
,
0100
0000
0000
1000
0000
0000
0110
0000
,
0001
0000
0000
0010
0000
0000
1100
0000
,
0001
0100
1000
0010
,
0001
0000
0000
1000
0000
0000
0101
0000
,
0010
0000
0000
0001
0000
0000
0110
0000
,
1000
0000
0000
0100
0000
0000
1010
0000
,
0100
0010
0001
0100
,
1001
0110
0001
0100
,
0010
1000
0001
0010
,
1100
0101
0010
1000
,
0001
0100
1000
0100
,
0011
1010
0001
0100
,
1000
0010
0001
1000
,
0001
0010
0001
0100
,
0010
1000
0001
0100
,
0010
1000
0010
0001
,
1000
0100
0010
0100
,
0002
0000
0000
0003
,
0010
0001
0100
0001
,
1000
0010
0100
0001
,
0010
1100
0010
0101
,
1000
0001
0010
0100
,
0010
1000
0100
0001
,
1000
0010
1000
0100
,
0001
0100
0010
0001
,
0100
1000
0100
0010
,
1000
0001
0010
0100
,
1000
0011
0100
1010
,
0100
0000
0000
0001
0000
0000
1100
0000
,
0010
0000
0000
1000
0000
0000
0011
0000
,
1000
0000
0000
0100
0000
0000
1010
0000
,
0001
0100
1000
0010
,
0001
0000
0000
1000
0000
0000
0011
0000
,
1000
0000
0000
0010
0000
0000
1001
0000
,
0010
0000
0000
1000
0000
0000
0110
0000
,
0001
0010
1000
0100
,
0002
0000
0020
0003
,
0200
0030
2000
0300
,
0002
3000
0200
0003
,
0020
0300
2000
3030
,
0001
0100
1000
0100
,
0001
1000
0010
0100
,
0001
0010
0100
0001
,
0100
1000
0010
0001
,
1000
0100
1000
0010
,
0101
1000
0100
0001
,
1000
0010
0100
0001
,
1000
0001
0010
1000
,
0100
1010
0100
0011
,
1001
0010
0100
0001
,
0010
0001
0100
0010
,
1000
0010
0001
0100
,
0001
0010
1000
0001
,
0100
1001
0010
0101
,
1000
0011
0100
1010
,
0002
0000
2000
3003
,
0010
0000
0000
1000
0000
0000
0100
0000
,
0010
0000
0000
0001
0000
0000
0100
0000
,
0001
0000
0000
1000
0000
0000
0010
0000
,
0100
0000
0000
0001
0000
0000
0010
0000
,
1000
0000
0000
0100
0000
0000
2000
0002
,
0000
0000
0000
3003
,
0220
0000
0000
0330
,
1001
0000
0000
0000
,
0000
0000
0000
0000
;

//---------------dance-single - ----------------
#NOTES:
     dance-single:
     :
     Medium:
     10:
     0.532247,0.543336,0.465716,0.116429,0.000000,384.000000,336.000000,48.000000,12.000000,0.000000,0.000000,0.532247,0.543336,0.465716,0.116429,0.000000,384.000000,336.000000,48.000000,12.000000,0.000000,0.000000:
0000
0000
0000
0000
,
0000
0000
0000
0000
,
0000
0000
0000
0000
,
0000
0000
0000
0000
,
0000
0000
0000
0000
,
0000
0000
0000
0000
,
1000
0000
0100
0010
0001
0000
1100
0000
,
0001
0000
0100
0010
1000
0000
0011
0000
,
0100
0000
1000
0001
0010
0000
0101
0000
,
0010
0000
0001
0000
1000
0001
0100
0000
,
1000
0000
0010
1000
0100
0000
0011
0000
,
0100
0000
0010
1000
0001
0000
1100
0000
,
0001
0000
0010
0001
0100
0000
1010
0000
,
0001
0000
0100
0000
0010
0001
1000
0000
,
1010
0000
0101
0000
0010
0100
1000
0000
,
0110
0000
1001
0000
0100
0001
0010
0000
,
0101
0000
1100
0000
1000
0001
0100
0000
,
1010
0000
0011
0000
1000
0100
0001
0000
,
0011
0000
1100
0000
0001
0100
0010
0000
,
1001
0000
0110
0000
1000
0001
0100
0000
,
0010
0100
1000
0000
0001
1000
0100
0000
,
0010
1000
0100
0010
0100
1000
0010
0000
,
0001
0000
0100
0000
1000
0100
0010
0000
,
0100
1000
0001
0100
1000
0100
0001
0000
,
2002
0000
0000
3003
,
0010
0000
1000
0001
0100
0001
0010
0000
,
0100
0000
0010
0001
1000
0001
0100
0000
,
1100
0101
1001
0110
,
1000
0000
0001
0100
0010
0100
0001
0000
,
0010
0000
0100
1000
0010
1000
0100
0000
,
0010
0000
0001
1000
0010
1000
0001
0000
,
1000
0100
1000
0000
0001
0100
0001
0000
,
1000
0010
1000
0000
0001
0010
0001
0000
,
1000
0100
0100
0000
0010
0100
0100
0000
,
0001
0010
0010
0000
0100
0010
0010
0000
,
0001
0000
1000
0100
0010
0000
1001
0000
,
0100
0000
0010
1000
0010
0000
0101
0000
,
1000
0000
0100
0010
1000
0000
0110
0000
,
1000
0000
0001
0000
1000
0100
0010
0000
,
0001
0000
0100
0010
1000
0000
0101
0000
,
0010
0000
1000
0100
0010
0000
1001
0000
,
0010
0000
0100
0001
1000
0000
0110
0000
,
0001
0000
0100
0000
0001
1000
0010
0000
,
2100
0000
0001
0000
0010
0010
3010
0000
,
0102
0000
0010
0000
1000
1000
1003
0000
,
0120
0000
1000
0000
0001
0001
0031
0000
,
1200
0000
0010
0000
0001
0001
0301
0000
,
1000
0100
1000
0000
0001
0100
0001
0000
,
0010
0001
0100
0000
0010
1000
0100
0000
,
1000
0010
1000
0000
0001
0010
0001
0000
,
1000
0010
0100
0000
0001
0010
0100
0000
,
0011
0110
1100
1001
,
0010
0000
1000
0001
0100
0010
1000
0000
,
0100
0000
0010
0001
0100
0001
0010
0000
,
0100
0000
1000
0001
1000
0010
0100
0000
,
0101
1001
1100
0110
,
0001
0000
1000
0001
0100
0001
1000
0000
,
0100
0000
1000
0001
0010
0100
1000
0000
,
0001
0000
0100
0010
0100
0001
0010
0000
,
0001
0100
0001
0000
1000
0100
1000
0000
,
0010
1000
0100
0000
0010
0001
0100
0000
,
0110
1001
1010
0101
,
0022
0033
2200
3300
,
0001
1000
0010
0100
0000
0001
0010
0000
,
0100
1000
0001
0100
0000
0010
0100
0000
,
0010
1000
0100
0010
0000
0001
1000
0000
,
0100
0010
0001
0100
0000
1000
0100
0000
,
0010
1000
0100
0001
0000
0100
2000
0002
,
0000
0000
0000
3003
,
0010
0001
0100
0010
,
1001
0000
0000
0000
,
0000
0000
0000
0000
;

//---------------dance-single - ----------------
#NOTES:
     dance-single:
     :
     Hard:
     13:
     0.658379,0.713128,0.320180,0.145536,0.189197,475.000000,442.000000,33.000000,15.000000,0.000000,0.000000,0.658379,0.713128,0.320180,0.145536,0.189197,475.000000,442.000000,33.000000,15.000000,0.000000,0.000000:
0000
0000
0000
0000
,
0000
0000
0000
0000
,
0000
0000
0000
0000
,
0000
0000
0000
0000
,
0000
0000
0000
0000
,
0000
0000
0000
0000
,
1000
0000
0000
0100
0000
0000
0010
0000
0000
0001
0000
0000
1100
0000
0000
0000
,
0001
0000
0000
0100
0000
0000
0010
0000
0000
1000
0000
0000
0101
0000
1000
0000
,
0100
0000
0000
1000
0000
0000
0010
0000
0000
1000
0000
0000
0110
0000
0000
0000
,
0010
0100
0001
0100
1000
0001
0100
0010
,
1000
0000
0000
0010
0000
0000
1000
0000
0000
0100
0000
0000
0011
0000
0000
0000
,
0100
0000
0000
0010
0000
0000
1000
0000
0000
0001
0000
0000
0011
0000
1000
0000
,
0100
0000
0000
0001
0000
0000
0010
0000
0000
0001
0000
0000
1001
0000
0000
0000
,
1000
0010
1000
0100
0010
0001
0100
0000
,
1010
0000
0101
0000
0010
0100
1000
0010
,
0100
0010
1000
0100
0010
0100
1000
0010
,
0101
0000
0110
0000
0010
0100
0001
1000
,
0100
0010
0001
0100
1000
0100
0001
0000
,
1100
0000
0101
0000
0010
0100
0001
0010
,
1100
0000
0101
0000
1000
0001
0100
0001
,
0010
0100
1000
0001
0010
0001
0100
0010
,
0100
0001
0010
0100
0001
0100
1000
0000
,
0010
0001
1000
0100
0001
1000
0100
0010
,
0001
0100
0001
0010
1000
0001
0100
2000
,
0002
0000
0000
3003
,
0010
0100
1000
0001
0100
0001
0010
0100
,
1000
0010
0100
0001
1000
0100
0001
0100
,
1000
0010
0101
0000
0001
0010
1100
0000
,
1000
1000
0001
0100
0010
0100
0001
0010
,
0100
0100
0001
0100
1000
0010
1000
0100
,
0010
0010
0001
1000
0010
0100
0001
0010
,
0001
1000
0100
1000
1000
0001
0100
0001
,
0010
0100
1000
0010
0010
0100
0001
1000
,
0200
1000
1000
1000
1000
1000
1300
0001
,
0200
0001
0001
0001
0001
0001
0301
0000
,
0010
0000
0000
1000
0000
0000
0100
0000
0000
0010
0000
0000
1001
0000
0000
0000
,
0001
0000
0000
0010
0000
0000
1000
0000
0000
0010
0000
0000
0101
0000
1000
0000
,
0001
0000
0000
0100
0000
0000
0010
0000
0000
1000
0000
0000
0110
0000
0000
0000
,
0010
0001
0100
0001
1000
0100
0010
0100
,
1000
0000
0000
0100
0000
0000
0010
0000
0000
0001
0000
0000
1100
0000
0000
0000
,
0001
0000
0000
1000
0000
0000
0100
0000
0000
0010
0000
0000
0101
0000
1000
0000
,
0010
0000
0000
0100
0000
0000
0001
0000
0000
1000
0000
0000
0110
0000
0000
0000
,
0001
0010
0100
1000
0001
1000
0010
0100
,
0001
0100
0002
0000
1003
0100
2000
0000
,
3010
0100
0020
0000
1030
0001
2000
0000
,
3001
0010
0002
0000
0103
0010
0200
0000
,
0310
1000
0020
0000
1030
0001
0010
0100
,
1000
0100
1000
0100
0001
0100
0001
0100
,
0010
0100
0001
0100
1000
0100
0010
0001
,
1000
0010
1000
0010
0001
0010
0001
0010
,
0100
0010
0001
0010
1000
0010
0100
0001
,
0010
0001
0100
0001
0010
0001
0100
0001
,
0010
0100
1000
0001
0100
0010
1000
0001
,
0100
0010
0100
0001
0010
0100
1000
0010
,
1000
0100
1000
0001
0010
0001
1000
0100
,
0010
0100
1001
0000
1000
0010
0101
0000
,
0010
0100
0001
1000
0100
0001
0100
1000
,
0100
0010
0001
0010
0100
1000
0010
0001
,
1000
0100
0010
1000
0100
1000
0001
0100
,
0001
0010
0100
1000
0001
1000
0010
0100
,
0001
0010
1001
0000
0001
0010
1100
0000
,
1000
0001
0110
0000
0010
1000
0101
0000
,
2010
0010
3010
0000
0102
0100
0103
0000
,
0001
0010
0001
0010
0001
0000
0010
0000
0000
0100
0000
0000
1000
0000
0010
0000
,
0100
0010
0100
0010
0100
0000
0001
0000
0000
1000
0000
0000
0100
0000
0010
0000
,
0001
0100
0001
0100
0001
0000
0010
0000
0000
0001
0000
0000
1000
0000
0010
0000
,
1000
0001
1000
0001
1000
0000
0010
0000
0000
0100
0000
0000
0001
0000
0010
0000
,
0100
1000
0100
1000
0100
0000
1000
0000
0000
0001
0000
0000
0110
0000
2002
0000
,
0000
0000
0000
3003
,
0010
0100
0001
1000
0100
0010
0001
0100
,
1001
0000
0000
0000
,
0000
0000
0000
0000
;

//---------------dance-single - ----------------
#NOTES:
     dance-single:
     :
     Challenge:
     15:
     0.780352,0.848962,0.320180,0.145536,0.475419,563.000000,530.000000,33.000000,15.000000,0.000000,0.000000,0.780352,0.848962,0.320180,0.145536,0.475419,563.000000,530.000000,33.000000,15.000000,0.000000,0.000000:
0000
0000
0000
0000
,
0000
0000
0000
0000
,
0000
0000
0000
0000
,
0000
0000
0000
0000
,
0000
0000
0000
0000
,
0000
0000
0000
0000
,
1000
0010
0000
0010
0100
0000
0100
0001
0000
0001
0010
0000
1100
0000
0000
0000
,
0001
0010
0000
0010
0100
0000
0100
1000
0000
1000
0010
0000
0101
0000
1000
0000
,
0100
1000
0000
1000
0100
0000
0010
0001
0000
0001
0100
0000
0001
1000
0001
0000
,
0010
0100
0001
0100
1000
0001
0100
0010
,
1000
0001
0000
0010
0100
0000
1000
0010
0000
1000
0100
0000
0011
0000
0000
0000
,
0100
0001
0000
0010
0001
0000
1000
0100
0000
1000
0010
0000
0110
0000
1001
0000
,
0100
1000
0000
0001
0100
0000
0010
0100
0000
0001
0010
0000
1100
0000
0000
0000
,
1000
0000
0010
0000
1000
0000
0100
0000
0010
0001
0010
0000
0001
1000
0001
0000
,
1010
0000
0000
0000
0101
0000
0000
0000
0010
0000
0100
1000
0000
1000
0010
0000
,
0100
0010
1000
0100
0010
0100
1000
0010
,
0101
0000
0000
0000
0110
0000
0000
0000
0010
0000
0100
0001
0000
0001
1000
0000
,
0100
0000
0010
0000
0001
0000
0100
0000
1000
0100
0000
0001
0000
0010
0100
0000
,
1100
0000
0000
0000
0101
0000
0000
0000
0010
0000
0100
0001
0000
0010
0001
0000
,
1100
0000
0000
0000
0101
0000
0000
0000
1000
0000
0001
0100
0000
0100
0001
0000
,
0010
0000
0100
0000
1000
0000
0001
1000
0000
1000
0001
0000
0100
0000
0010
0000
,
0100
0001
0010
0100
0001
0100
1000
0010
,
0001
1000
0100
0001
1000
0100
0010
0001
,
0100
0000
0001
0010
0001
0000
1000
0010
1000
0000
0001
0100
0001
0000
1000
0002
,
2000
0000
0000
3003
,
0010
0100
1000
0001
0100
0001
0010
0100
,
1000
0010
0100
0001
1000
0100
0001
0100
,
1000
0010
0101
0000
0001
0010
1100
0000
,
1000
1000
0001
0100
0010
0100
0001
0010
,
0100
0100
0001
0100
1000
0010
1000
0100
,
0010
0010
0001
1000
0010
0100
0001
0010
,
0001
1000
0100
1000
1000
0001
0100
0001
,
0010
0100
1000
0010
0010
0100
0001
1000
,
0200
1000
1000
1000
1000
1000
1300
0001
,
0200
0001
0001
0001
0001
0001
0301
0000
,
0010
1000
0000
1000
0010
0000
0100
0010
0000
0010
0100
0000
1001
0000
0000
0000
,
0001
0010
0000
0010
0001
0000
1000
0010
0000
0010
1000
0000
0101
0000
1000
0000
,
0001
1000
0000
1000
0001
0000
0010
0001
0000
0001
0010
0000
0100
1000
0100
0000
,
0010
0001
0100
0001
1000
0100
0010
0100
,
1000
0010
0000
0100
0001
0000
1000
0100
0000
1000
0010
0000
0101
0000
0000
0000
,
0001
0010
0000
0100
1000
0000
0001
0100
0000
0010
1000
0000
0110
0000
1001
0000
,
0100
0010
0000
1000
0100
0000
0010
0100
0000
1000
0001
0000
0110
0000
0000
0000
,
0001
0000
0010
0000
0100
0000
1000
0000
0001
1000
0001
0000
0010
0100
0010
0000
,
0001
0100
0002
0000
1003
0100
2000
0000
,
3010
0100
0020
0000
1030
0001
2000
0000
,
3001
0010
0002
0000
0103
0010
0200
0000
,
0310
1000
0020
0000
1030
0001
0010
0100
,
1000
0100
1000
0100
0001
0100
0001
0100
,
0010
0100
0001
0100
1000
0100
0010
0001
,
1000
0010
1000
0010
0001
0010
0001
0010
,
0100
0010
0001
0010
1000
0010
0100
0001
,
0010
0100
1000
0010
0100
0010
1000
0100
,
0001
0000
0100
0000
1000
0000
0001
0000
0100
0000
0010
0000
1000
0000
0001
1000
,
0100
0000
0010
0000
0001
0000
0100
0000
0010
0000
0001
0000
0010
0000
1000
0001
,
0010
0000
0100
0000
1000
0000
0001
0000
1000
0000
0010
0000
0100
0000
0001
0010
,
0100
1000
1001
0000
1000
0010
0101
0000
,
0010
0000
0100
0000
0001
0000
1000
0000
0100
0000
0010
0000
0100
0000
1000
0001
,
0100
0000
0010
0000
1000
0000
0001
0000
0010
0000
0100
0000
1000
0000
0010
1000
,
0001
0000
0100
0000
0010
0000
0010
0000
0100
0000
0001
0000
0010
0000
0100
1000
,
0001
0000
0010
0000
0001
0000
0100
0000
0001
0000
1000
0000
0100
0000
0010
0001
,
0100
0010
1001
0000
0001
0010
1100
0000
,
1000
0001
0110
0000
0010
1000
0101
0000
,
2010
0010
3010
0010
0102
0100
0103
0100
,
0001
1000
0100
1000
0001
0000
0010
0001
0000
1000
0010
0000
0100
0000
0001
0000
,
0010
0001
1000
0001
0010
0000
0100
1000
0000
0001
0100
0000
0001
0000
0010
0000
,
0100
1000
0001
1000
0100
0000
0010
0001
0000
0100
0010
0000
0100
0000
0001
0000
,
1000
0001
0010
0001
1000
0000
0010
1000
0000
0001
0010
0000
0100
0000
1000
0000
,
0001
1000
0001
1000
0001
0000
1000
0010
0000
0100
0001
0000
0110
0000
2002
0000
,
0000
0000
0000
3003
,
0010
0100
0001
1000
0100
0010
0001
0100
,
1001
0000
0000
0000
,
0000
0000
0000
0000
;

//---------------dance-double - ----------------
#NOTES:
     dance-double:
     :
     Easy:
     7:
     0.343743,0.441460,0.300775,0.135834,0.000000,248.000000,217.000000,31.000000,14.000000,0.000000,0.000000,0.343743,0.441460,0.300775,0.135834,0.000000,248.000000,217.000000,31.000000,14.000000,0.000000,0.000000:
00000000
00000000
00000000
00000000
,
00000000
00000000
00000000
00000000
,
00000000
00000000
00000000
00000000
,
00000000
00000000
00000000
00000000
,
00000000
00000000
00000000
00000000
,
00000000
00000000
00000000
00000000
,
00000010
00000000
00000000
00001000
00000000
00000000
00000101
00000000
,
00000001
00000000
00000000
00000010
00000000
00000000
00001100
00000000
,
00000001
00000000
00000000
00001000
00000000
00000000
00000110
00000000
,
00000001
00000100
00001000
00010000
,
01000000
00000000
00000000
00100000
00000000
00000000
10010000
00000000
,
00100000
00000000
00000000
10000000
00000000
00000000
01010000
00000000
,
00010000
00000000
00000000
00100000
00000000
00000000
11000000
00000000
,
10000000
00100000
00010000
00001000
,
00001010
00000011
00000100
00001000
,
00000010
00001000
00000010
00000001
,
00001100
00000101
00000010
00001000
,
00000001
00000100
00001000
00010000
,
01010000
01100000
00010000
10000000
,
00110000
11000000
00010000
01000000
,
10000000
01000000
00100000
10000000
,
01000000
00010000
00001000
00000010
,
00000001
00000100
00001000
00000100
,
00000001
00001000
00000100
00000001
,
00000020
00000000
00000000
00000030
,
00000011
00000100
00001000
00000001
,
00000100
00001000
00010000
00100000
,
01000000
10010000
00100000
11000000
,
00100000
00010000
01000000
00100000
,
01000000
10000000
01000000
00010000
,
00100000
00010000
10000000
01000000
,
00020000
00000000
00002000
00030000
,
00000020
00003000
00000000
00000030
,
00000000
00000001
00000010
00000100
,
00001000
00000100
00000010
00000100
,
00001000
00000001
00000100
00001001
,
00000001
00000010
00001000
00011000
,
00010000
00100000
10000000
01010000
,
00100000
01000000
00100000
01000000
,
00010000
00100000
01000000
10010000
,
10000000
00100000
00010000
00011000
,
00001000
00000100
00000001
00001010
,
00000001
00001000
00000001
00001000
,
00000202
00000000
00000000
00000300
,
00002000
00000000
00000000
00003000
,
00000020
00000000
00000000
00000003
,
00000200
00000000
00000000
00000330
,
00001000
00000010
00000100
00000001
,
00000010
00001000
00010000
00100000
,
10000000
01000000
00010000
01000000
,
10000000
00100000
00010000
01000000
,
00010000
00001000
00010000
00001000
,
00010000
00100000
10000000
01000000
,
00010000
01000000
00010000
01000000
,
10000000
00100000
00010000
00001000
,
00000010
00000011
00001000
00000101
,
00000010
00001000
00000100
00000001
,
00000100
00000010
00000001
00000100
,
00001000
00000001
00001000
00000010
,
00000001
00000100
00001000
00010000
,
01000000
10000000
00100000
01000000
,
00010000
00100000
01000000
10000000
,
00020000
00000000
02000000
03030000
,
00100000
00000000
00000000
10000000
00000000
00000000
01010000
00000000
,
00010000
00000000
00000000
00100000
00000000
00000000
11000000
00000000
,
00010000
00000000
00000000
00001000
00000000
00000000
00011000
00000000
,
00000100
00000000
00000000
00000001
00000000
00000000
00001100
00000000
,
00000010
00000000
00000000
00001000
00000000
00000000
00000002
00000200
,
00000000
00000000
00000000
00000303
,
00002000
00000000
00000000
00003000
,
00011000
00000000
00000000
00000000
,
00000000
00000000
00000000
00000000
;

//---------------dance-double - ----------------
#NOTES:
     dance-double:
     :
     Medium:
     10:
     0.512843,0.543336,0.397799,0.077619,0.000000,370.000000,329.000000,41.000000,8.000000,0.000000,0.000000,0.512843,0.543336,0.397799,0.077619,0.000000,370.000000,329.000000,41.000000,8.000000,0.000000,0.000000:
00000000
00000000
00000000
00000000
,
00000000
00000000
00000000
00000000
,
00000000
00000000
00000000
00000000
,
00000000
00000000
00000000
00000000
,
00000000
00000000
00000000
00000000
,
00000000
00000000
00000000
00000000
,
00100000
00000000
00010000
01000000
00000000
00010000
10100000
00000000
,
01000000
00000000
00010000
10000000
00000000
01000000
01100000
00000000
,
10000000
00000000
00010000
01000000
00000000
00100000
10010000
00000000
,
10000000
00000000
01000000
00000000
00010000
00001000
00000100
00000000
,
00000001
00000000
00000010
00000100
00000000
00001000
00000110
00000000
,
00001000
00000000
00000001
00000100
00000000
00000010
00000100
00001000
,
00000100
00000000
00000001
00000010
00000000
00000001
00001100
00000000
,
00000001
00000000
00000010
00000000
00001000
00010000
00100000
00000000
,
10100000
00000000
01010000
00000000
10000000
00010000
00100000
00000000
,
11000000
00000000
01010000
00000000
00100000
00010000
01000000
00000000
,
00011000
00000000
00001010
00000000
00000100
00000001
00000010
00000000
,
00001001
00000000
00000110
00000000
00001000
00000100
00000001
00000000
,
00001100
00000000
00000101
00000000
00000010
00001000
00010000
00000000
,
01010000
00000000
11000000
00000000
00100000
10000000
00010000
00000000
,
00100000
00010000
01000000
00000000
10000000
01000000
00010000
00000000
,
00100000
00000000
00010000
10000000
01000000
10000000
00010000
00000000
,
10000000
00100000
00010000
00000000
00001000
00000010
00000001
00000000
,
00000100
00000000
00000001
00001000
00000100
00010000
00001000
00000000
,
00022000
00000000
00000000
00033000
,
00010000
00000000
00100000
10000000
00010000
10000000
01000000
00000000
,
00100000
00000000
00010000
01000000
00100000
01000000
00010000
00000000
,
00011000
00101000
00011000
00010010
,
00001000
00000000
00000001
00000010
00000100
00001000
00000010
00000000
,
00000100
00000000
00000001
00000100
00000010
00001000
00000100
00000000
,
00000001
00000000
00000100
00001000
00000010
00001000
00000001
00000000
,
00000010
00000001
00000010
00000000
00001000
00000010
00001000
00000000
,
00010000
00001000
00010000
00000000
01000000
00010000
01000000
00000000
,
10000000
01000000
01000000
00000000
00010000
01000000
01000000
00000000
,
10000000
00100000
00100000
00000000
00010000
00100000
00100000
00000000
,
01000000
00000000
10000000
01000000
00000000
00010000
00110000
00000000
,
10000000
00000000
01000000
00010000
00000000
00001000
00010000
00001000
,
00000100
00000000
00000001
00001000
00000000
00000010
00000101
00000000
,
00000010
00000000
00001000
00000000
00000001
00000010
00001000
00000000
,
00010000
00000000
00000100
00001000
00000000
00000010
00011000
00000000
,
00010000
00000000
00100000
10000000
00000000
01000000
00100000
00010000
,
01000000
00000000
00001000
00010000
00000000
00001000
00011000
00000000
,
00010000
00000000
01000000
00000000
10000000
00100000
01000000
00000000
,
00010000
01000000
10000000
00100000
,
00001000
00000100
00000001
00000010
,
00010000
01000000
10000000
00100000
,
00001000
00000100
00000001
00000010
,
00000001
00000010
00000100
00000000
00001000
00000100
00000001
00000000
,
00001000
00000001
00000100
00000000
00000010
00001000
00000100
00000000
,
00000001
00000010
00001000
00000000
00000010
00001000
00010000
00000000
,
00001000
00010000
01000000
00000000
00010000
01000000
10000000
00000000
,
10100000
01010000
00110000
11000000
,
00010000
00000000
01000000
00100000
01000000
00010000
00100000
00000000
,
10000000
00000000
00100000
01000000
00010000
01000000
00100000
00000000
,
00010000
00000000
00100000
01000000
10000000
00100000
01000000
00000000
,
10100000
00110000
00011000
00001100
,
00000010
00000000
00001000
00000001
00000100
00000001
00000010
00000000
,
00000100
00000000
00001000
00000010
00000100
00000001
00000010
00000000
,
00001000
00000000
00000100
00000010
00000100
00001000
00000001
00000000
,
00000001
00000100
00001000
00000000
00001000
00010000
00100000
00000000
,
00100000
10000000
00010000
00000000
00010000
00100000
01000000
00000000
,
00110000
10100000
10010000
11000000
,
02020000
03030000
00022000
00033000
,
00000010
00000000
00000001
00000010
00000000
00000100
00001000
00000000
,
00000010
00000000
00000001
00000010
00000000
00001000
00010000
00000000
,
00100000
00000000
01000000
00010000
00000000
10000000
01000000
00000000
,
00010000
00000000
01000000
10000000
00000000
00010000
01000000
00000000
,
00100000
00000000
00010000
00100000
00000000
00010000
00002000
00020000
,
00000000
00000000
00000000
00033000
,
00001000
00000010
00000001
00000100
,
00001001
00000000
00000000
00000000
,
00000000
00000000
00000000
00000000
;

//---------------dance-double - ----------------
#NOTES:
     dance-double:
     :
     Hard:
     13:
     0.623727,0.611253,0.300775,0.155239,0.116429,450.000000,419.000000,31.000000,16.000000,0.000000,0.000000,0.623727,0.611253,0.300775,0.155239,0.116429,450.000000,419.000000,31.000000,16.000000,0.000000,0.000000:
00000000
00000000
00000000
00000000
,
00000000
00000000
00000000
00000000
,
00000000
00000000
00000000
00000000
,
00000000
00000000
00000000
00000000
,
00000000
00000000
00000000
00000000
,
00000000
00000000
00000000
00000000
,
00000001
00000000
00000000
00000010
00000000
00000000
00000100
00000000
00000000
00001000
00000000
00000000
00000110
00000000
00000000
00000000
,
00001000
00000000
00000000
00000001
00000000
00000000
00000100
00000000
00000000
00000010
00000000
00000000
00000001
00000000
00001000
00000000
,
00000010
00000000
00000000
00001000
00000000
00000000
00000100
00000000
00000000
00000010
00000000
00000000
00001001
00000000
00000000
00000000
,
00000001
00000010
00001000
00010000
00100000
10000000
00010000
00000000
,
00100000
00000000
00000000
10000000
00000000
00000000
00010000
00000000
00000000
00100000
00000000
00000000
11000000
00000000
00000000
00000000
,
00010000
00000000
00000000
10000000
00000000
00000000
01000000
00000000
00000000
00100000
00000000
00000000
10000000
00000000
00010000
00000000
,
00100000
00000000
00000000
00010000
00000000
00000000
10000000
00000000
00000000
00100000
00000000
00000000
01010000
00000000
00000000
00000000
,
10000000
01000000
00010000
00001000
00000100
00000001
00000100
00000000
,
00001010
00000000
00000011
00000000
00000100
00000010
00001000
00000010
,
00000100
00000010
00000100
00000010
00000001
00000010
00001000
00000000
,
00011000
00000000
01010000
00000000
00100000
00010000
10000000
00010000
,
10000000
01000000
10000000
01000000
00100000
00010000
10000000
00000000
,
01100000
00000000
10010000
00000000
10000000
00010000
00100000
00010000
,
00011000
00000000
00001100
00000000
00000010
00000100
00000001
00000100
,
00000010
00001000
00000001
00000010
00000100
00001000
00000100
00000010
,
00000100
00000001
00000100
00001000
00010000
01000000
10000000
00000000
,
00100000
10000000
01000000
00100000
00001000
01000000
00010000
00100000
,
00001000
00010000
00000100
00001000
00000010
00000100
00001000
00010000
,
00022000
00000000
00000000
00033000
,
00001000
00000010
00000001
00000100
00001000
00000100
00000001
00001000
,
00000010
00000001
00000010
00000100
00000001
00000010
00000100
00001000
,
00000010
00000100
00001001
00000000
00000001
00000010
00001100
00000000
,
00000001
00000100
00001000
00010000
00100000
00010000
00001000
00010000
,
01000000
10000000
00100000
01000000
10000000
01000000
00010000
10000000
,
01000000
00100000
01000000
10000000
00100000
00010000
00001000
00000010
,
00000001
00001000
00000100
00000001
00000100
00000010
00000001
00000100
,
00000010
00001000
00000100
00001000
00000001
00000010
00000100
00000000
,
00000010
00000001
00000100
00000000
00000010
00001000
00000100
00000000
,
00001000
00000010
00000101
00000000
00001000
00000001
00000110
00000000
,
00000001
00000000
00000000
00000010
00000000
00000000
00000100
00000000
00000000
00001000
00000000
00000000
00000110
00000000
00000000
00000000
,
00001000
00000000
00000000
00010000
00000000
00000000
00100000
00000000
00000000
01000000
00000000
00000000
00010000
00000000
01000000
00000000
,
00010000
00000000
00000000
00100000
00000000
00000000
10000000
00000000
00000000
01000000
00000000
00000000
01010000
00000000
00000000
00000000
,
10000000
00100000
00010000
00001000
00000100
00001000
00010000
00000000
,
01000000
00000000
00000000
00100000
00000000
00000000
10000000
00000000
00000000
00010000
00000000
00000000
01100000
00000000
00000000
00000000
,
00010000
00000000
00000000
00001000
00000000
00000000
00000100
00000000
00000000
00000001
00000000
00000000
00000010
00000000
00001000
00000000
,
00000001
00000000
00000000
00000010
00000000
00000000
00000100
00000000
00000000
00000010
00000000
00000000
00001001
00000000
00000000
00000000
,
00000010
00001000
00000100
00001000
00000010
00000100
00000001
00000000
,
00000001
00000010
00000002
00000000
00000013
00001000
00000020
00000000
,
00001030
00010000
00002000
00000000
00013000
01000000
00020000
00000000
,
01030000
10000000
02000000
00000000
13000000
00100000
20000000
00000000
,
30100000
00010000
00200000
00000000
00310000
00001000
00020000
00000000
,
00031000
00100000
00001000
01000000
00001000
00010000
00001000
01000000
,
00001000
00010000
00001000
00100000
00001000
01000000
00001000
00010000
,
00010000
00001000
00010000
00000010
00010000
00000100
00010000
00001000
,
00010000
00000100
00010000
00000010
00010000
00001000
00010000
00000100
,
00001000
00000100
00000001
00000100
00001000
00000100
00000001
00000100
,
00000010
00000001
00001000
00000001
00000100
00000010
00001000
00000001
,
00000100
00001000
00010000
01000000
10000000
00010000
01000000
00100000
,
10000000
01000000
00100000
00010000
00100000
01000000
00010000
01000000
,
10000000
00100000
01010000
00000000
00010000
00100000
11000000
00000000
,
00010000
10000000
00100000
01000000
00010000
00100000
01000000
00100000
,
00010000
10000000
00100000
00010000
00001000
00000010
00000001
00000100
,
00000001
00000010
00000100
00001000
00000010
00000100
00000001
00001000
,
00000100
00000010
00000100
00001000
00000001
00000100
00000010
00001000
,
00000100
00000010
00001001
00000000
00000001
00000010
00001100
00000000
,
00000010
00001000
00011000
00000000
00010000
01000000
10100000
00000000
,
02200000
03300000
20020000
30030000
,
00010000
00100000
00010000
10000000
00000000
01000000
00010000
00001000
,
00000100
00000001
00000100
00000010
00000000
00000010
00001000
00010000
,
01000000
10000000
01000000
00100000
00000000
00100000
00010000
00001000
,
00000010
00000001
00000010
00000100
00000000
00000010
00000001
00000100
,
00001000
00010000
00100000
10000000
00000000
01000000
00100000
20020000
,
00000000
00000000
00000000
30030000
,
00100000
10000000
01000000
00010000
00001000
00000010
00000001
00000100
,
00001001
00000000
00000000
00000000
,
00000000
00000000
00000000
00000000
;

//---------------dance-double - ----------------
#NOTES:
     dance-double:
     :
     Challenge:
     15:
     0.759561,0.815004,0.320180,0.155239,0.422056,548.000000,515.000000,33.000000,16.000000,0.000000,0.000000,0.759561,0.815004,0.320180,0.155239,0.422056,548.000000,515.000000,33.000000,16.000000,0.000000,0.000000:
00000000
00000000
00000000
00000000
,
00000000
00000000
00000000
00000000
,
00000000
00000000
00000000
00000000
,
00000000
00000000
00000000
00000000
,
00000000
00000000
00000000
00000000
,
00000000
00000000
00000000
00000000
,
00000001
00000010
00000000
00000010
00000100
00000000
00000100
00001000
00000000
00001000
00000001
00000000
00000110
00000000
00000000
00000000
,
00001000
00000001
00000000
00000001
00000100
00000000
00000100
00000010
00000000
00000010
00001000
00000000
00000101
00000000
00001000
00000000
,
00000010
00001000
00000000
00001000
00000100
00000000
00000100
00000010
00000000
00000010
00000001
00000000
00001000
00000001
00001000
00000000
,
00000001
00000010
00001000
00010000
00100000
10000000
00010000
01000000
,
00100000
10000000
00000000
00100000
10000000
00000000
00010000
00100000
00000000
00010000
00100000
00000000
11000000
00000000
00000000
00000000
,
00010000
10000000
00000000
00010000
10000000
00000000
01000000
00100000
00000000
01000000
00100000
00000000
11000000
00000000
00010000
00000000
,
00100000
00010000
00000000
00100000
00010000
00000000
10000000
00100000
00000000
10000000
00100000
00000000
01010000
00000000
00000000
00000000
,
10000000
00000000
01000000
00000000
00010000
00000000
00001000
00000000
00000100
00001000
00000100
00000000
00000001
00001000
00000001
00000000
,
00001010
00000000
00000000
00000000
00000011
00000000
00000000
00000000
00000100
00000000
00001000
00000010
00000000
00001000
00000010
00000000
,
00000100
00000010
00000100
00000010
00000001
00000010
00001000
00010000
,
01010000
00000000
00000000
00000000
11000000
00000000
00000000
00000000
00100000
00000000
10000000
00010000
00000000
10000000
00010000
00000000
,
10000000
00000000
01000000
00000000
10000000
00000000
01000000
00000000
00100000
00010000
00000000
01000000
00000000
10000000
01000000
00000000
,
01100000
00000000
00000000
00000000
10010000
00000000
00000000
00000000
10000000
00000000
00010000
00100000
00000000
00010000
00100000
00000000
,
00011000
00000000
00000000
00000000
00001100
00000000
00000000
00000000
00000010
00000000
00000001
00000100
00000000
00000001
00000100
00000000
,
00000010
00000000
00000100
00000000
00000001
00000000
00001000
00000001
00000000
00001000
00000001
00000000
00000100
00000000
00000010
00000000
,
00000100
00000001
00000010
00001000
00010000
00100000
10000000
01000000
,
00010000
00001000
00000010
00000001
00000100
00001000
00010000
00000000
,
00000010
00001000
00010000
00100000
00010000
00001000
00000010
00001000
,
00022000
00000000
00000000
00033000
,
00001000
00000010
00000001
00000100
00001000
00000100
00000001
00001000
,
00000010
00000001
00000010
00000100
00000001
00000010
00000100
00001000
,
00000010
00000100
00001001
00000000
00000001
00000010
00001100
00000000
,
00000001
00000100
00001000
00010000
00100000
00010000
00001000
00010000
,
01000000
10000000
00100000
01000000
10000000
01000000
00010000
10000000
,
01000000
00100000
01000000
10000000
00100000
00010000
00001000
00000010
,
00000001
00001000
00000100
00000001
00000100
00000010
00000001
00000100
,
00000010
00001000
00000100
00001000
00000001
00000010
00000100
00000000
,
00002010
00000010
00000010
00000010
00000010
00000010
00003010
00000000
,
00000102
00000100
00000100
00000100
00000100
00000100
00000103
00000000
,
00000001
00000010
00000000
00000001
00000010
00000000
00000100
00001000
00000000
00000100
00001000
00000000
00000110
00000000
00000000
00000000
,
00001000
00010000
00000000
00001000
00010000
00000000
00100000
01000000
00000000
00100000
01000000
00000000
10010000
00000000
01000000
00000000
,
00010000
00100000
00000000
00010000
00100000
00000000
01000000
10000000
00000000
01000000
10000000
00000000
00010000
01000000
00010000
00000000
,
10000000
00100000
00010000
00001000
00000100
00001000
00010000
01000000
,
10000000
00100000
00000000
00100000
10000000
00000000
00010000
10000000
00000000
10000000
00010000
00000000
01100000
00000000
00000000
00000000
,
00010000
00001000
00000000
00001000
00010000
00000000
00001000
00000100
00000000
00000100
00001000
00000000
00000110
00000000
00001000
00000000
,
00000001
00000010
00000000
00000010
00000001
00000000
00000100
00000010
00000000
00000010
00000100
00000000
00001001
00000000
00000000
00000000
,
00000001
00000000
00000010
00000000
00000100
00000000
00001000
00000000
00000010
00001000
00000010
00000000
00000100
00000001
00000100
00000000
,
00000001
00000010
00000002
00000000
00000013
00001000
00000020
00000000
,
00001030
00010000
00002000
00000000
00013000
01000000
00020000
00000000
,
01030000
10000000
02000000
00000000
13000000
00100000
20000000
00000000
,
30100000
00010000
00200000
00000000
00310000
00001000
00020000
00000000
,
00031000
00100000
00001000
01000000
00001000
00010000
00001000
01000000
,
00001000
00010000
00001000
00100000
00001000
01000000
00001000
00010000
,
00010000
00001000
00010000
00000010
00010000
00000100
00010000
00001000
,
00010000
00000100
00010000
00000010
00010000
00001000
00010000
00000100
,
00001000
00000100
00000001
00000100
00001000
00000100
00000001
00000100
,
00000010
00000001
00001000
00000001
00000100
00000010
00001000
00000001
,
00000100
00001000
00010000
01000000
10000000
00010000
01000000
00100000
,
10000000
01000000
00100000
00010000
00100000
01000000
00010000
01000000
,
10000000
00100000
01010000
00000000
00010000
00100000
11000000
00000000
,
00010000
10000000
00100000
01000000
00010000
00100000
01000000
00100000
,
00010000
10000000
00100000
00010000
00001000
00000010
00000001
00000100
,
00000001
00000010
00000100
00001000
00000010
00000100
00000001
00001000
,
00000100
00000010
00000100
00001000
00000001
00000100
00000010
00001000
,
00000100
00000010
00001001
00000000
00000001
00000010
00001100
00000000
,
00000010
00001000
00011000
00000000
00010000
01000000
10100000
00000000
,
02100000
00100000
03100000
00100000
10020000
10000000
10030000
10000000
,
00010000
00100000
00010000
00100000
00010000
00000000
10000000
00100000
00000000
10000000
01000000
00000000
00010000
00000000
00001000
00000000
,
00000100
00000001
00000100
00000001
00000100
00000000
00001000
00000100
00000000
00000001
00000010
00000000
00001000
00000000
00010000
00000000
,
01000000
10000000
01000000
10000000
01000000
00000000
00100000
00010000
00000000
10000000
00100000
00000000
00010000
00000000
00001000
00000000
,
00000010
00000001
00000010
00000001
00000010
00000000
00000100
00001000
00000000
00000100
00000010
00000000
00000001
00000000
00000100
00000000
,
00001000
00010000
00001000
00010000
00001000
00000000
00010000
00100000
00000000
00010000
00001000
00000000
00000100
00000000
00000220
00000000
,
00000000
00000000
00000000
00000330
,
00000001
00000010
00000100
00001000
00010000
00100000
01000000
10000000
,
01010000
00000000
00000000
00000000
,
00000000
00000000
00000000
00000000
;

//---------------dance-single - EDIT----------------
#NOTES:
     dance-single:
     :
     Edit:
     18:
     1.182310,1.124632,0.145536,0.155239,1.765842,853.000000,838.000000,15.000000,16.000000,0.000000,0.000000,1.182310,1.124632,0.145536,0.155239,1.765842,853.000000,838.000000,15.000000,16.000000,0.000000,0.000000:
// measure 0
0000
0000
0000
0000
,  // measure 1
0000
0000
0000
0000
,  // measure 2
0000
0000
0000
0000
,  // measure 3
0000
0000
0000
0000
,  // measure 4
0220
0000
0000
0000
,  // measure 5
0000
0000
0330
0000
,  // measure 6
1000
0100
0010
0001
1000
0010
0100
0001
1000
0100
0010
0001
1000
0100
1000
0000
,  // measure 7
0001
0100
0010
1000
0001
0010
0100
1000
0100
0010
0001
1000
0010
0000
0010
0000
,  // measure 8
1000
0100
0010
0001
1000
0010
0100
0001
1000
0100
0010
0001
0010
0100
0010
0000
,  // measure 9
0001
0100
0010
1000
0001
0100
0010
1000
0001
0010
0100
1000
0010
0100
0001
1000
,  // measure 10
0100
0010
1000
0001
0010
0100
1000
0010
0100
0001
1000
0100
0010
0001
0010
0000
,  // measure 11
0001
1000
0100
0010
0001
0100
0010
1000
0001
0010
0100
1000
0100
0000
0100
0000
,  // measure 12
1000
0010
0100
0001
1000
0100
0010
0001
1000
0010
0100
0001
0010
0000
0000
0000
,  // measure 13
1010
0000
0000
0000
0101
0000
0000
0000
0001
0100
0001
0100
0010
1000
0010
1000
,  // measure 14
0100
0000
0000
0000
1100
0000
0000
0000
1000
0000
0100
0010
0000
0010
0001
0000
,  // measure 15
0100
0000
0101
0000
0001
0010
1000
0010
,  // measure 16
0001
0000
0000
0000
0011
0000
0000
0000
0010
0000
1000
0010
0000
0010
0100
0000
,  // measure 17
0001
0000
0010
0000
0100
0000
0001
1000
0100
0000
0010
0100
0000
0100
0001
0000
,  // measure 18
1000
0000
0000
0000
1001
0000
0000
0000
0001
0000
1000
0010
0000
0010
0100
0000
,  // measure 19
0001
0000
0000
0000
0011
0000
0000
0000
0001
0000
0010
0100
0000
0100
1000
0000
,  // measure 20
0100
1000
0001
1000
0100
0000
0010
0001
0000
0001
0100
0000
0010
0000
1000
0000
,  // measure 21
0001
0100
0001
0100
0010
1000
0010
1000
,  // measure 22
0001
0100
0001
0000
0010
1000
0010
0000
0001
0100
0001
0100
0010
1000
0010
1000
,  // measure 23
0001
0100
0001
0100
0001
0100
0001
0100
0010
1000
0010
1000
0010
1000
0010
1000
,  // measure 24
0200
0000
0001
1300
,  // measure 25
1000
0100
0001
0100
1000
0001
0010
0100
,  // measure 26
1000
0100
0010
0001
0100
0000
0010
0000
0100
0010
1000
0010
0001
0000
0010
0000
,  // measure 27
0100
1000
0001
1000
0100
0000
0000
0000
0100
0001
1000
0001
0100
0000
0000
0000
,  // measure 28
0010
0001
0010
0001
0100
0010
0100
0010
1000
0100
1000
0100
0010
0001
1000
0100
,  // measure 29
0010
0001
0100
0000
0010
0001
0100
0000
0010
0100
0001
0000
0010
0100
0001
0000
,  // measure 30
1000
0100
0010
0100
1000
0100
0010
0000
0001
0010
0100
0010
0001
0010
0100
0000
,  // measure 31
1000
0010
0100
0010
0001
0010
0100
0010
1000
0100
0010
0100
0001
0100
0010
0100
,  // measure 32
1000
0001
0010
0100
1000
0100
0010
0001
1000
0010
0100
0001
1000
0100
0010
0001
,  // measure 33
0200
0000
0001
0000
0001
0000
0001
0000
0001
0000
0001
0000
0001
0000
0301
0010
,  // measure 34
0200
0000
1000
0000
1000
0000
1000
0000
1000
0000
1000
0000
1000
0000
1300
0010
,  // measure 35
0100
1000
0010
0100
0001
1000
0100
0010
0001
0100
0010
1000
0100
0010
0001
0000
,  // measure 36
0010
0001
0100
0010
1000
0100
0010
0001
1000
0010
0100
0001
0010
0000
0010
0000
,  // measure 37
0001
0100
0010
1000
0001
0010
0100
1000
0100
0010
0001
1000
0010
0100
0010
0000
,  // measure 38
0100
1000
0001
0010
0100
1000
0100
0010
0001
1000
0010
0100
0001
1000
0100
0010
,  // measure 39
0001
0100
0010
1000
0001
0010
0100
1000
0100
0010
0001
1000
0010
0100
0001
0000
,  // measure 40
1000
0010
0100
0001
1000
0100
0010
0001
1000
0010
0100
0001
1000
0000
1001
0000
,  // measure 41
0001
0010
0100
1000
0100
0010
0001
0010
0100
1000
0010
0100
0002
0000
0000
0000
,  // measure 42
0100
0000
0000
0000
0100
0000
0000
0000
0103
0001
0100
0010
1000
0100
0010
0001
,  // measure 43
1000
0010
0100
0010
1000
0010
0100
0010
1000
0010
0100
0010
1000
0010
0100
0010
,  // measure 44
0001
0010
0100
0010
0001
0010
0100
0010
0001
0010
0100
0010
0001
0010
0100
0010
,  // measure 45
1000
0100
0010
0100
1000
0100
0010
0100
1000
0100
0010
0100
1000
0100
0010
0100
,  // measure 46
0001
0100
0010
0100
0001
0100
0010
0100
0001
0100
0010
0100
0001
0100
0010
0100
,  // measure 47
0001
0100
0010
1000
0100
0010
0001
1000
0010
0100
0001
0010
0100
1000
0100
0010
,  // measure 48
0001
0100
0010
1000
0001
0010
0100
1000
0010
0001
0100
0010
1000
0100
0010
0001
,  // measure 49
1000
0010
0100
0001
1000
0100
0010
0001
1000
0100
0010
0001
1000
0010
0100
0001
,  // measure 50
1000
0010
0100
0001
1000
0100
0010
0001
0010
0100
1000
0001
0010
0100
0001
1000
,  // measure 51
0100
0010
0100
0010
0100
0010
0100
0010
1000
0001
1000
0001
1000
0001
1000
0001
,  // measure 52
1000
0010
0100
0001
1000
0100
0010
0001
1000
0010
0100
0001
1000
0100
0010
0001
,  // measure 53
0010
0100
1000
0001
0100
0010
1000
0001
0100
0010
1000
0100
0010
0001
1000
0010
,  // measure 54
0100
0001
1000
0100
0010
0001
0010
0100
1000
0001
0100
0010
1000
0100
0010
0001
,  // measure 55
1000
0001
1000
0000
2002
0000
3003
0000
0001
1000
0001
0000
2002
0000
3003
0000
,  // measure 56
0001
0100
0010
1000
0001
0010
0100
1000
0100
0010
0001
1000
0010
0100
0001
1000
,  // measure 57
0100
0010
0001
0010
0100
1000
0010
0100
0001
0100
0010
1000
0100
0010
0001
0100
,  // measure 58
0010
1000
0100
0010
0001
1000
0010
0100
0001
0010
0100
1000
0100
0010
0001
1000
,  // measure 59
0100
0010
0100
0010
0100
0010
0100
0010
0001
1000
0001
1000
0001
1000
0001
1000
,  // measure 60
0001
0010
0100
0010
0001
0010
0100
0010
0001
0010
0100
0010
0001
0010
0100
0010
,  // measure 61
1000
0100
0010
0100
1000
0100
0010
0100
1000
0100
0010
0100
1000
0100
0010
0000
,  // measure 62
2010
0000
0100
0000
3100
0010
0001
0000
0102
0000
0010
0000
0013
0000
0100
0001
,  // measure 63
1000
0010
0100
0001
1000
0010
0001
0100
0010
1000
0100
0010
0001
0100
0010
0100
,  // measure 64
1000
0010
0001
1000
0100
0010
0001
1000
0010
0100
0001
1000
0010
0100
0001
0010
,  // measure 65
1000
0100
0010
0001
1000
0010
0001
0100
0010
1000
0001
0010
0100
1000
0100
0010
,  // measure 66
0001
1000
0100
0010
0001
1000
0010
0100
0001
0010
0100
1000
0010
0100
0001
1000
,  // measure 67
0001
0000
1000
0001
0000
0001
0100
0000
0010
0000
1000
0000
0001
0000
2002
0000
,  // measure 68
0000
0000
0000
0000
0000
0000
0000
3003
,  // measure 69
1000
0100
1000
0100
0010
0001
0010
0001
1000
0100
0010
0001
1000
0100
0010
0001
,  // measure 70
2002
3003
0000
0000
;
