#TITLE:XANADU;
#SUBTITLE:;
#ARTIST:THE OLIVIA PROJECT;
#TITLETRANSLIT:;
#SUBTITLETRANSLIT:;
#ARTISTTRANSLIT:;
#GENRE:;
#CREDIT:;
#BANNER:XANADU.png;
#BACKGROUND:XANADU-bg.png;
#LYRICSPATH:;
#CDTITLE:;
#MUSIC:XANADU.ogg;
#OFFSET:0.000000;
#SAMPLESTART:48.011002;
#SAMPLELENGTH:15.000000;
#SELECTABLE:YES;
#DISPLAYBPM:130.000000;
#BPMS:0.000000=130.656998
,4.000000=129.981995
,15.000000=126.397003
,16.000000=129.983994
,84.000000=129.945999
,128.000000=130.100998
,136.000000=129.468002
,138.000000=132.692993
,140.000000=129.951996
;
#STOPS:
;
#BGCHANGES:;
#KEYSOUNDS:;
#ATTACKS:;

//---------------dance-single - ----------------
#NOTES:
     dance-single:
     :
     Easy:
     3:
     0.096722,0.158781,0.000000,0.012310,0.000000,55.000000,55.000000,0.000000,1.000000,0.000000,0.000000,0.096722,0.158781,0.000000,0.012310,0.000000,55.000000,55.000000,0.000000,1.000000,0.000000,0.000000:
0000
0000
0000
0000
,
0000
0000
0000
0000
,
0000
0000
0000
0000
,
0000
0000
0000
0000
,
0000
0000
0000
0000
,
1000
0000
0000
0000
,
1000
0000
0001
0000
,
1000
0000
0000
0000
,
1000
0000
0001
0000
,
1000
0000
0000
0000
,
1000
0000
0010
0000
,
1000
0000
0000
0000
,
1000
0000
0100
0000
,
1000
0000
0000
0000
,
1000
0000
0001
0000
,
1000
0000
0000
0000
,
1000
0000
0001
0000
,
1000
0000
0000
0000
,
1000
0000
0010
0000
,
1000
0000
0000
0000
,
1000
0000
0100
0000
,
0010
0000
0000
0000
,
0100
0000
0000
0000
,
0001
0000
0000
0000
,
1000
0000
0000
0000
,
0001
0001
0001
0001
,
0010
0000
0000
0000
,
0010
0000
0100
0000
,
0010
0000
0000
0000
,
0010
0000
0100
0000
,
0010
0000
0000
0000
,
0010
0000
0001
0000
,
0100
0000
0100
0000
,
0010
0000
1000
0000
,
0100
0000
0100
0000
,
0010
0000
0000
0000
,
0010
0000
0000
0000
,
0100
0000
0000
0000
,
0001
0000
0000
0000
,
1000
0000
0000
0000
,
0010
0000
0000
0000
,
0100
0000
0000
0000
,
0020
0000
0000
0000
0000
0000
0000
0000
0000
0000
0000
0000
0000
0000
0000
0000
0000
0000
0000
0000
0000
0000
0000
0000
0000
0000
0000
0000
0000
0000
0000
0000
0000
0000
0000
0000
0000
0000
0000
0000
0000
0000
0000
0000
0000
0000
0000
0000
0000
0000
0000
0000
0000
0000
0000
0000
0000
0000
0000
0000
0000
0000
0000
0000
0000
0000
0000
0000
0000
0000
0000
0000
0000
0000
0000
0000
0000
0000
0000
0000
0000
0000
0000
0000
0000
0000
0000
0000
0000
0000
0000
0000
0000
0000
0000
0000
0000
0000
0000
0000
0000
0000
0000
0000
0000
0000
0000
0000
0000
0000
0000
0000
0000
0000
0000
0000
0000
0000
0000
0000
0000
0000
0000
0000
0000
0000
0000
0000
0000
0000
0000
0000
0000
0000
0000
0000
0000
0000
0000
0000
0000
0000
0000
0000
0000
0000
0000
0000
0000
0000
0000
0000
0000
0000
0000
0000
0000
0000
0000
0000
0000
0000
0000
0000
0000
0000
0000
0000
0000
0000
0000
0000
0000
0000
0000
0000
0000
0000
0000
0000
0000
0000
0000
0000
0000
0000
0000
0000
0000
0000
0000
0030
;

//---------------dance-single - ----------------
#NOTES:
     dance-single:
     :
     Medium:
     6:
     0.212789,0.370490,0.184652,0.012310,0.000000,121.000000,106.000000,15.000000,1.000000,0.000000,0.000000,0.212789,0.370490,0.184652,0.012310,0.000000,121.000000,106.000000,15.000000,1.000000,0.000000,0.000000:
0000
0000
0000
0000
,
0000
0000
0000
0000
,
0000
0000
0000
0000
,
0000
0000
0000
0000
,
0000
0000
0000
0000
,
1001
0000
0000
0000
,
1000
0100
0001
0010
,
1001
0000
0000
0000
,
1000
0010
0001
0100
,
1001
0000
0000
0000
,
1000
0001
0010
0100
,
1001
0000
0000
0000
,
1000
0001
0100
0010
,
1001
0000
0000
0000
,
1000
0010
0001
0100
,
1001
0000
0000
0000
,
1000
0100
0001
0010
,
1001
0000
0000
0000
,
1000
0001
0010
0100
,
1001
0000
0000
0000
,
1000
0001
0100
0010
,
1001
0000
0000
0000
,
0100
0000
0000
0000
,
1001
0000
0000
0000
,
0010
0000
0000
0000
,
0001
0000
0000
0001
0000
0000
0001
0000
,
0010
0100
0010
0100
,
0010
1000
0100
0001
,
0010
0100
0010
0100
,
0010
0001
0100
1000
,
0010
0100
0001
1000
,
0010
0100
0001
1000
,
0110
1000
0110
0001
,
0110
1000
0110
0001
,
0110
0000
0000
0000
,
0010
0001
0100
1000
,
0010
0010
0010
0010
,
0100
1000
0010
0001
,
0100
0001
0010
1000
,
0001
0001
0001
0001
,
0010
0010
0010
0010
,
0100
0000
0000
0000
,
0020
0000
0000
0000
0000
0000
0000
0000
0000
0000
0000
0000
0000
0000
0000
0000
0000
0000
0000
0000
0000
0000
0000
0000
0000
0000
0000
0000
0000
0000
0000
0000
0000
0000
0000
0000
0000
0000
0000
0000
0000
0000
0000
0000
0000
0000
0000
0000
0000
0000
0000
0000
0000
0000
0000
0000
0000
0000
0000
0000
0000
0000
0000
0000
0000
0000
0000
0000
0000
0000
0000
0000
0000
0000
0000
0000
0000
0000
0000
0000
0000
0000
0000
0000
0000
0000
0000
0000
0000
0000
0000
0000
0000
0000
0000
0000
0000
0000
0000
0000
0000
0000
0000
0000
0000
0000
0000
0000
0000
0000
0000
0000
0000
0000
0000
0000
0000
0000
0000
0000
0000
0000
0000
0000
0000
0000
0000
0000
0000
0000
0000
0000
0000
0000
0000
0000
0000
0000
0000
0000
0000
0000
0000
0000
0000
0000
0000
0000
0000
0000
0000
0000
0000
0000
0000
0000
0000
0000
0000
0000
0000
0000
0000
0000
0000
0000
0000
0000
0000
0000
0000
0000
0000
0000
0000
0000
0000
0000
0000
0000
0000
0000
0000
0000
0000
0000
0000
0000
0000
0000
0000
0030
;

//---------------dance-single - ----------------
#NOTES:
     dance-single:
     :
     Hard:
     9:
     0.314787,0.449880,0.246202,0.000000,0.006155,179.000000,159.000000,20.000000,0.000000,0.000000,0.000000,0.314787,0.449880,0.246202,0.000000,0.006155,179.000000,159.000000,20.000000,0.000000,0.000000,0.000000:
0000
0000
0000
0000
,
0000
0000
0000
0000
,
0000
0000
0000
0000
,
0000
0000
0000
0000
,
0000
0000
0000
0000
,
1001
0000
0000
0000
,
0010
0100
0001
1000
0010
0100
0010
0000
,
1001
0000
0000
0000
,
1000
0100
0001
0100
0010
0100
0010
0000
,
1001
0000
0000
0000
,
0010
1000
0100
0001
0100
1000
0010
0000
,
1001
0000
0000
0000
,
0010
0100
1000
0100
0001
0010
0100
0000
,
1001
0000
0000
0000
,
0010
0001
1000
0100
0010
0100
0010
0000
,
1001
0000
0000
0000
,
1000
0001
0100
0010
1000
0100
0010
0000
,
1001
0000
0000
0000
,
0001
0100
0010
1000
0100
0010
0100
0000
,
1001
0000
0000
0000
,
0010
0100
1000
0001
0010
0100
1000
0000
,
0101
0000
0000
0000
,
1100
0000
0000
0000
,
1001
0000
0010
0100
,
1001
0000
0010
0100
,
1001
0000
0000
0101
0000
0000
0011
0000
,
0100
0100
0001
0001
,
1000
0100
0010
0001
0100
0010
0100
0000
,
0001
0001
0010
0010
,
0100
1000
0010
0100
0001
0010
0100
0000
,
1000
1000
0010
0010
,
0100
0001
0010
0100
1000
0010
0100
0000
,
0101
1000
1100
0001
,
0011
1000
1010
0001
,
0110
0000
0000
0000
,
0001
0100
0010
1000
0100
0010
0001
0100
,
0010
1000
0001
0010
0100
1000
0010
0100
,
0001
1000
0100
0010
0001
0100
0010
1000
,
0100
0010
0001
0100
0010
1000
0100
0000
,
0010
0010
0010
0010
,
0001
0001
0001
0001
,
0100
0000
0000
0000
,
0010
0000
0000
0000
0000
0000
0000
0000
0000
0000
0000
0000
0000
0000
0000
0000
0000
0000
0000
0000
0000
0000
0000
0000
0000
0000
0000
0000
0000
0000
0000
0000
0000
0000
0000
0000
0000
0000
0000
0000
0000
0000
0000
0000
0000
0000
0000
0000
0000
0000
0000
0000
0000
0000
0000
0000
0000
0000
0000
0000
0000
0000
0000
0000
0000
0000
0000
0000
0000
0000
0000
0000
0000
0000
0000
0000
0000
0000
0000
0000
0000
0000
0000
0000
0000
0000
0000
0000
0000
0000
0000
0000
0000
0000
0000
0000
0000
0000
0000
0000
0000
0000
0000
0000
0000
0000
0000
0000
0000
0000
0000
0000
0000
0000
0000
0000
0000
0000
0000
0000
0000
0000
0000
0000
0000
0000
0000
0000
0000
0000
0000
0000
0000
0000
0000
0000
0000
0000
0000
0000
0000
0000
0000
0000
0000
0000
0000
0000
0000
0000
0000
0000
0000
0000
0000
0000
0000
0000
0000
0000
0000
0000
0000
0000
0000
0000
0000
0000
0000
0000
0000
0000
0000
0000
0000
0000
0000
0000
0000
0000
0000
0000
0000
0000
0000
0000
0000
0000
0000
0000
0000
0100
;

//---------------dance-single - ----------------
#NOTES:
     dance-single:
     :
     Challenge:
     13:
     0.481853,0.714516,0.012310,0.000000,0.418544,274.000000,273.000000,1.000000,0.000000,0.000000,0.000000,0.481853,0.714516,0.012310,0.000000,0.418544,274.000000,273.000000,1.000000,0.000000,0.000000,0.000000:
0000
0000
0000
0000
,
0000
0000
0000
0000
,
0000
0000
0000
0000
,
0000
0000
0000
0000
,
0000
0000
0000
0000
,
0000
0000
1000
0000
0100
0000
0000
0000
0010
0000
0000
0010
0000
0000
0010
0000
,
0000
0000
0001
0000
1000
0000
0010
0100
0001
0000
0001
0000
0001
0000
0000
0000
,
0000
0000
1000
0000
0100
0000
0000
0000
0010
0000
0000
0001
0000
0000
1000
0000
,
0000
0000
0010
0000
0100
0000
0001
0010
0100
0000
1000
0000
0001
0000
0000
0000
,
0000
0001
0100
1000
0100
0000
0000
0000
,
0000
0010
1000
0100
0001
0000
0000
0000
,
0100
0010
0001
0000
0001
0000
1000
0001
0100
0000
0100
0000
0010
0000
0000
0000
,
1000
0100
0010
0000
0001
0000
1000
0100
0010
0000
0001
0000
0100
0010
0100
0010
,
0000
0000
1000
0000
0100
0000
0000
0000
0010
0000
0000
0001
0000
0000
1000
0000
,
0000
0000
0100
0000
0010
0000
0001
0100
0010
0000
1000
0000
0100
0000
0000
0000
,
0000
0000
1000
0000
0010
0000
0000
0000
0100
0000
0000
0001
0000
0000
1000
0000
,
0000
0000
0100
0000
0010
0000
0001
0100
0010
0000
1000
0000
0100
0000
0000
0000
,
0000
0010
0001
1000
0100
0000
0000
0000
,
0000
0010
0001
0100
0010
0000
0000
0000
,
1000
0001
1000
0000
0010
0000
1000
0001
1000
0000
0010
0000
0100
0000
0000
0000
,
0001
0010
0001
0000
1000
0000
0001
0010
0001
0000
1000
0000
0100
0000
0010
0000
,
0001
0000
0000
0100
0000
0000
0010
0000
1000
0000
0000
0100
0000
0000
0010
0000
,
0001
0000
0000
0100
0000
0000
0010
0000
1000
0000
0001
0000
0010
0000
0000
0000
,
0100
0000
0000
0001
0000
0000
0010
0000
1000
0000
0000
0100
0000
0000
0001
0000
,
0010
0000
0000
1000
0000
0000
0100
0000
0010
0000
0001
0000
0100
0000
0010
0000
,
1000
0010
0100
0000
0001
0000
0010
0100
1000
0000
0001
0000
0100
0010
1000
0000
,
0100
0000
0000
0010
0000
0000
0010
0000
0001
0100
0010
0000
0001
0000
0000
0000
,
1000
0000
0000
0100
0000
0000
0100
0000
0010
0001
0100
0000
1000
0000
0100
0000
,
0001
0000
0000
0010
0000
0000
0010
0000
0100
1000
0010
0000
0001
0000
0000
0000
,
1000
0000
0000
0001
0000
0000
0001
0000
0010
0100
1000
0000
0010
0000
0001
0000
,
0010
0000
0000
0000
1000
0100
0000
0000
0010
0000
0000
0000
0001
0100
0000
0000
,
0010
0000
0000
0000
1000
0001
0000
0000
0010
0000
0000
0000
0100
1000
0000
0000
,
0001
0000
0001
0000
0100
0010
0000
0000
1000
0000
0001
0100
0001
0000
0000
0000
,
0010
0000
0010
0000
0100
1000
0000
0000
0001
0000
0010
0100
0010
0000
0000
0000
,
0001
0100
0001
0000
1000
0100
1000
0000
0001
0010
0001
0000
1000
0010
1000
0000
,
0001
0000
0010
0100
0010
0000
0001
0000
1000
0100
1000
0000
0001
0100
0001
0000
,
1000
0000
0010
0100
0010
0000
1000
0000
0001
0010
0001
0000
1000
0010
1000
0000
,
0001
0100
0001
0100
0010
0000
1000
0100
1000
0100
0010
0000
0001
1000
0100
0000
,
0010
0001
0010
0001
1000
0000
0100
0010
0100
0010
0001
0000
0100
0010
1000
0000
,
0100
0000
0000
0010
0000
0000
0001
0000
1000
0000
0000
0100
0000
0000
0010
0000
,
0001
0000
0000
0100
0000
0000
0010
0000
1000
0000
0000
0100
0000
0000
0010
0000
,
1001
0000
0000
0000
,
0100
0000
0000
0000
0000
0000
0000
0000
0000
0000
0000
0000
0000
0000
0000
0000
0000
0000
0000
0000
0000
0000
0000
0000
0000
0000
0000
0000
0000
0000
0000
0000
0000
0000
0000
0000
0000
0000
0000
0000
0000
0000
0000
0000
0000
0000
0000
0000
0000
0000
0000
0000
0000
0000
0000
0000
0000
0000
0000
0000
0000
0000
0000
0000
0000
0000
0000
0000
0000
0000
0000
0000
0000
0000
0000
0000
0000
0000
0000
0000
0000
0000
0000
0000
0000
0000
0000
0000
0000
0000
0000
0000
0000
0000
0000
0000
0000
0000
0000
0000
0000
0000
0000
0000
0000
0000
0000
0000
0000
0000
0000
0000
0000
0000
0000
0000
0000
0000
0000
0000
0000
0000
0000
0000
0000
0000
0000
0000
0000
0000
0000
0000
0000
0000
0000
0000
0000
0000
0000
0000
0000
0000
0000
0000
0000
0000
0000
0000
0000
0000
0000
0000
0000
0000
0000
0000
0000
0000
0000
0000
0000
0000
0000
0000
0000
0000
0000
0000
0000
0000
0000
0000
0000
0000
0000
0000
0000
0000
0000
0000
0000
0000
0000
0000
0000
0000
0000
0000
0000
0000
0000
0010
;

//---------------dance-double - ----------------
#NOTES:
     dance-double:
     :
     Easy:
     2:
     0.186410,0.238201,0.000000,0.000000,0.000000,106.000000,106.000000,0.000000,0.000000,0.000000,0.000000,0.186410,0.238201,0.000000,0.000000,0.000000,106.000000,106.000000,0.000000,0.000000,0.000000,0.000000:
00000000
00000000
00000000
00000000
,
00000000
00000000
00000000
00000000
,
00000000
00000000
00000000
00000000
,
00000000
00000000
00000000
00000000
,
00000000
00000000
00000000
00000000
,
00100000
00000000
10000000
00000000
,
01000000
00000000
00010000
00000000
,
00000010
00000000
00001000
00000000
,
00000100
00000000
00000001
00000000
,
00000010
00000000
00001000
00000000
,
00010000
00000000
10000000
00000000
,
01000000
00000000
00010000
00000000
,
00001000
00000000
00000100
00000001
,
00000010
00000000
00000001
00000000
,
00001000
00000000
00010000
00000000
,
10000000
00000000
00010000
00000000
,
00001000
00000000
00000001
00000000
,
00000100
00000000
00010000
00000000
,
10000000
00000000
01000000
00000000
,
00001000
00000000
00000001
00000000
,
00000100
00000000
00010000
10000000
,
01000000
00000000
10000000
00000000
,
00010000
00000000
01000000
00000000
,
00001000
00000000
00010000
00000000
,
00000010
00000000
00000100
00000000
,
00001000
00010000
01000000
10000000
,
00100000
01000000
00001000
00010000
,
00000010
00000100
00000001
00000100
,
00001000
00010000
01000000
10000000
,
00010000
01000000
00001000
00010000
,
00000010
00000000
00000100
00000000
,
00001000
00000000
00010000
00000000
,
00100000
00000000
10000000
00000000
,
01000000
00000000
00010000
00000000
,
00000010
00000000
00000100
00000010
,
00010000
00001000
10000000
01000000
,
00001000
00010000
00000010
00000100
,
00010000
00001000
10000000
01000000
,
00001000
00010000
00000001
00000100
,
00010000
00001000
10000000
01000000
,
00001000
00010000
00000001
00000100
,
00010000
00001000
10000000
01000000
,
00001000
00010000
00000001
00000100
,
00000010
00000000
00000000
00000000
;

//---------------dance-double - ----------------
#NOTES:
     dance-double:
     :
     Medium:
     4:
     0.288408,0.344068,0.135411,0.000000,0.000000,164.000000,153.000000,11.000000,0.000000,0.000000,0.000000,0.288408,0.344068,0.135411,0.000000,0.000000,164.000000,153.000000,11.000000,0.000000,0.000000,0.000000:
00000000
00000000
00000000
00000000
,
00000000
00000000
00000000
00000000
,
00000000
00000000
00000000
00000000
,
00000000
00000000
00000000
00000000
,
00000000
00000000
00000000
00000000
,
00001000
00010000
00000001
00001000
,
00010000
00001000
10000000
00010000
,
00001000
00010000
00000001
00001000
,
00010000
00001000
10000000
00010000
,
00001000
00010000
00000001
00000100
,
00010000
00001000
10000000
01000000
,
00001000
00010000
00000001
00000100
,
00010000
00001000
10000000
01000000
,
00001000
00010000
00000001
00001001
,
00010000
00001000
10000000
10010000
,
00001000
00010000
00000001
00001001
,
00010000
00001000
10000000
10010000
,
00001000
00010000
00000001
00000010
,
00010000
00001000
10000000
00100000
,
00001000
00010000
00000001
00000010
,
00010000
00001000
10000000
00100000
,
00001000
00010000
00000001
00001100
,
00010000
00001000
10000000
01010000
,
00001000
00010000
00000001
00001100
,
00010000
00001000
10000000
01010000
,
00100000
00011000
00000100
00011000
,
00010000
00001000
00100000
01000000
,
00001000
00010000
00000010
00000100
,
00010000
00001000
00100000
01000000
,
00001000
00010000
00000010
00000100
,
00000001
00000100
00010000
10000000
,
10000000
01000000
00001000
00000010
,
00010000
01000000
00001000
00000100
,
00010000
01000000
00001000
00000100
,
00010000
00100000
00001000
00000010
,
00001000
01000000
10000000
00100000
,
00010000
00000100
00000001
00000010
,
00001000
01000000
10000000
00100000
,
00010000
00000100
00000001
00000010
,
00010000
01000000
10000000
00100000
,
00001000
00000100
00000001
00000010
,
00010000
01000000
10000000
00100000
,
00001000
00000100
00000001
00000010
,
00011000
00000000
00000000
00000000
;

//---------------dance-double - ----------------
#NOTES:
     dance-double:
     :
     Hard:
     6:
     0.313029,0.370535,0.147721,0.000000,0.000000,178.000000,166.000000,12.000000,0.000000,0.000000,0.000000,0.313029,0.370535,0.147721,0.000000,0.000000,178.000000,166.000000,12.000000,0.000000,0.000000,0.000000:
00000000
00000000
00000000
00000000
,
00000000
00000000
00000000
00000000
,
00000000
00000000
00000000
00000000
,
00000000
00000000
00000000
00000000
,
00000000
00000000
00000000
00000000
00000000
00000000
00001000
00010000
,
00000001
00001000
00000001
00000100
,
00001000
00000000
01000000
00000000
10000000
00000000
00001000
00010000
,
00000001
00001000
00000001
00000100
,
00001000
00000000
01000000
00000000
10000000
00000000
00001000
00010000
,
00000001
00001000
00000001
00000100
,
00001000
00000000
01000000
00000000
10000000
00000000
00001000
00010000
,
00000001
00001000
00000001
00000100
,
00001000
00000000
01000000
00000000
10000000
00000000
00001000
00010000
,
01000000
00010000
00000010
00000100
,
00010000
00000000
10000000
00000000
01000000
00000000
00010000
00001000
,
00000100
00000001
00001000
00010000
,
10000000
00000000
00010000
00000000
00001000
00000000
00000001
00000100
,
00001000
00010000
01000000
00100000
,
00010000
00000000
00000100
00000000
00000001
00000000
00000010
00001000
,
00010000
00100000
10000000
01000000
,
00010000
00000000
00000010
00000000
00000100
00000000
00000001
00010000
,
00001000
10000000
00100000
01000000
,
00001000
00000000
00010000
00000000
00000001
00000000
00001000
00000100
,
00010000
00100000
00001000
00000001
,
00000001
00001000
01000000
10000000
,
01100000
00000000
00000000
00011000
00000000
00000000
00000110
00000000
,
00000010
00000001
00000010
00000000
00001000
00000100
00001000
00000000
,
00100000
00010000
00100000
00000000
01000000
10000000
01000000
00000000
,
00001000
00000000
00000000
00000100
00000001
00000000
00000000
00000000
,
00010000
00000000
00000000
01000000
10000000
00000000
00000000
00000000
,
00100000
00010000
00001000
00000010
,
00000100
00001000
00100000
01000000
,
00000000
00000000
10000000
00000000
00001000
00010000
00000000
00000001
,
00000100
00000000
00000001
00000000
00010000
00001000
00000000
10000000
,
01000000
00001000
00010000
00000001
,
00001001
00000100
00010000
10000000
,
10010000
01000000
00001000
00000001
,
00001001
00000100
00010000
10000000
,
00001000
00010000
00001001
00011000
,
10010000
01000000
00001000
00000001
,
00000101
00001000
00100000
01000000
,
11000000
00010000
00000010
00000100
,
00010000
10000000
01000000
00001000
,
00001001
00000000
00000000
00000000
;

//---------------dance-double - ----------------
#NOTES:
     dance-double:
     :
     Challenge:
     8:
     0.490646,0.555802,0.135411,0.000000,0.381614,279.000000,268.000000,11.000000,0.000000,0.000000,0.000000,0.490646,0.555802,0.135411,0.000000,0.381614,279.000000,268.000000,11.000000,0.000000,0.000000,0.000000:
00000000
00000000
00000000
00000000
,
00000000
00000000
00000000
00000000
,
00000000
00000000
00000000
00000000
,
00000000
00000000
00000000
00000000
,
00000000
00000000
00000000
00000000
,
00001000
00000000
00010000
00000000
00000001
00001000
00000000
00000000
00000100
00000000
00010000
00000000
00001000
00100000
00000000
00000000
,
00010000
00000000
00001000
00000000
10000000
00010000
00000000
00000000
01000000
00000000
00001000
00000000
00010000
00000010
00000000
00000000
,
00001000
00000000
00000000
00000001
00000000
00000000
00000001
00000000
00000001
00000000
00000000
00000000
00000110
00000000
00000000
00000000
,
00010000
00000000
00000000
00001000
00000000
00000000
00001000
00000000
00001000
00000000
00000000
00000000
01100000
00000000
00000000
00000000
,
10000000
00000000
10000000
00000000
00010000
01000000
00000000
00000000
00001000
00000000
00010000
00001000
00000000
00000000
00100000
00010000
,
10000000
00000000
10000000
00000000
00100000
01000000
00000000
00000000
00001000
00000000
00010000
00000010
00000000
00000000
00001000
00000001
,
00000010
00000000
00000000
00000010
00000000
00000000
00000010
00000000
00000100
00000000
00000000
00000000
00001001
00000000
00000000
00000000
,
00000100
00000000
00000000
00000100
00000000
00000000
00000100
00000000
00010000
00000000
00001000
00000000
00000100
00000000
00000000
00000000
,
00000001
00000000
00000010
00000000
00001000
00010000
00000000
00000000
00100000
00000000
00001000
00000000
00000100
00010000
00000000
00000000
,
00001000
00000000
00100000
00000000
00010000
01000000
00000000
00000000
00001000
00000000
00000100
00000000
00000001
00000010
00000000
00000000
,
00000100
00000000
00000000
00000100
00000000
00000000
00000100
00000000
00010000
00000000
00000000
00000000
00101000
00000000
00000000
00000000
,
00010000
00000000
00000000
00010000
00000000
00000000
00010000
00000000
01000000
00000000
00000000
00000000
00010010
00000000
00000000
00000000
,
00001000
00000000
00000001
00000000
00000010
00000100
00000000
00000000
00001000
00000000
00000001
00000010
00000000
00000100
00001000
00000000
,
00000010
00000000
00010000
00000000
00001000
00100000
00000000
00000000
00010000
00000000
10000000
00100000
00000000
01000000
00010000
00000000
,
00100000
00000000
00000000
00001000
00000000
00000000
00010000
00000000
00000010
00000000
00000000
00000000
01001000
00000000
00000000
00000000
,
00100000
00000000
00000000
00010000
00000000
00000000
00000010
00000000
00000001
00000000
00000000
00000000
00000101
00000000
00000000
00000000
,
00001000
00000000
00000000
00001000
00000000
00000000
00000100
00000000
00010000
00000000
00000000
00010000
00000000
00000000
00001000
00000000
,
00100000
00000000
00000000
00100000
00000000
00000000
00010000
00000000
10000000
00000000
01000000
00000000
00100000
00000000
00001000
00000000
,
00010000
00000000
00000000
00010000
00000000
00000000
00000010
00000000
00001000
00000000
00000000
00001000
00000000
00000000
00000001
00000000
,
00000010
00000100
00001000
00000010
00000100
00000001
00001000
00000000
,
00011000
00000000
00000000
10010000
00000000
00000000
00011000
00000000
,
00000010
00000010
00000100
00000001
00000000
00000001
00001000
00000100
,
00010000
00001000
00000000
00100000
00010000
00000000
10000000
01000000
00000000
00100000
00010000
00000000
01000000
00000000
00000000
00000000
,
00001000
00010000
00000010
00001000
00000000
00000001
00000010
00000100
,
00001000
00000010
00000000
00010000
00001000
00000000
01000000
00010000
00000000
10000000
01000000
00000000
00100000
00000000
00010000
00000000
,
01000000
00001000
00010000
00000010
00000000
00001000
01000000
00010000
,
00100000
00001000
00010000
00000100
00000000
00001000
00100000
00010000
,
01000000
00000000
00000000
01000000
00000000
00000000
01000000
00000000
00001000
00010000
00001000
00000000
00010000
00000000
00000000
00000000
,
00000010
00000000
00000000
00000010
00000000
00000000
00000010
00000000
00001000
00000001
00001000
00000000
00000001
00000000
00000000
00000000
,
00000010
00000000
00000000
00001000
00000000
00000000
00100000
00000000
00010000
00000000
00000000
01000000
00000000
00000000
00001000
00000000
,
00000010
00000000
00000001
00000000
00000100
00000000
00000010
00000000
00001000
00000001
00001000
00000000
00000010
00000000
00000000
00000000
,
00010000
00000000
00100000
00000000
10000000
00000000
01000000
00000000
00100000
00010000
00100000
00000000
00001000
00000000
00000000
00000000
,
00010000
00000010
00010000
00000000
00001000
00000000
00010000
00000010
00010000
00000000
00001000
00000000
01000000
00000000
00000000
00000000
,
00010000
00000100
00010000
00000000
00001000
00000000
00010000
00000100
00010000
00000000
00001000
00000000
00100000
00010000
00100000
00000000
,
01000000
00000000
00010000
00000000
00001000
00000100
00000000
00000000
00000001
00000000
00000000
00000001
00000000
00000000
00000001
00000000
,
00000010
00000000
00001000
00000000
00010000
00100000
00000000
00000000
10000000
00000000
00000000
10000000
00000000
00000000
10000000
00000000
,
00010000
00000000
00000000
00010000
00000000
00000000
01000000
00000000
00001000
00000000
00000000
00001000
00000000
00000000
00010000
00000000
,
00000010
00000000
00000000
00000010
00000000
00000000
00001000
00000000
00000001
00000000
00000000
00000010
00000000
00000000
00000100
00000000
,
00001001
00000000
00000000
00000000
;

//---------------dance-couple - ----------------
#NOTES:
     dance-couple:
     :
     Challenge:
     6:
     0.240927,0.423468,0.135411,0.000000,0.000000,137.000000,126.000000,11.000000,0.000000,0.000000,0.000000,0.240927,0.423468,0.135411,0.000000,0.000000,137.000000,126.000000,11.000000,0.000000,0.000000,0.000000:
00000000
00000000
00000000
00000000
,
00000000
00000000
00000000
00000000
,
00000000
00000000
00000000
00000000
,
00000000
00000000
00000000
00000000
,
00000000
00000000
00000000
00000000
00000000
00000000
00100000
10000000
,
01000001
00000000
00010000
00000000
01000001
10000000
01000000
00000000
,
00010001
01000000
00100000
10000000
01000001
00100000
00010000
00000000
,
10010001
00000000
01000000
00000000
00100001
00010000
01000000
00000000
,
10000001
01000000
00010000
01000000
00100001
01000000
00100000
00000000
,
10010001
00000000
00100000
00000000
00010001
10000000
01000000
00000000
,
00100001
10000000
01000000
00010000
01000001
10000000
00100000
00000000
,
10010001
00000000
01000000
00000000
00010001
10000000
01000000
00000000
,
01010000
00000000
10010000
00000000
00100000
10000000
00100010
10001000
,
01010100
00000000
00000001
00000000
00000100
00001000
00000100
00000000
,
00000001
00000100
10000010
00001000
00000100
00000010
10000001
00000000
,
00001001
00000000
10000100
00000000
00000010
00000001
10000100
00000000
,
00001000
00000100
10000001
00000100
00000010
00000100
10000010
00000000
,
00001001
00000000
10000010
00000000
00000001
00001000
10000100
00000000
,
00000010
00001000
10000100
00000001
00000100
00001000
10000010
00000000
,
00001001
00000000
10000100
00000000
00000001
00001000
10000100
00000000
,
00000101
00000000
10001001
00000000
00000010
00001000
10000010
00001000
,
00000101
01000100
00011000
01000100
,
11000101
01000100
00011000
01000100
,
00000010
00001000
00000100
00000000
00100000
00010000
01000000
00000000
,
00000001
00001000
00000100
00000000
10000000
00010000
01000000
00000000
,
00001001
00000000
00000000
10010000
00000000
00000000
01100110
00000000
,
00000001
00000001
00001000
00000100
,
00000010
00001000
00000100
00000010
00000001
00000100
00001000
00000000
,
00010000
00010000
10000000
01000000
,
00100000
10000000
01000000
00100000
00010000
01000000
10000000
00000000
,
10000000
00010000
00100000
01000000
,
00000001
00001000
00000010
00000100
,
01010000
10000000
11000000
00010000
,
00000101
00001000
00001100
00000001
,
10000000
00010000
00001000
00000001
,
00010000
01000000
00100000
10000000
01000000
00100000
00010000
01000000
,
00100000
10000000
00010000
00100000
01000000
10000000
00100000
00000000
,
00000001
00001000
00000100
00000010
00000001
00000100
00000010
00001000
,
00000100
00000010
00000001
00000100
00000010
00001000
00000100
00000000
,
00100000
00100000
00100000
00100000
,
00000010
00000010
00000010
00000010
,
00100000
10000000
01000000
00000000
00000010
00000001
00000100
00000000
,
10000000
00010000
01000000
00000000
00000001
00001000
00000100
00000000
,
00011000
00000000
00000000
00000000
;

//---------------dance-solo - ----------------
#NOTES:
     dance-solo:
     :
     Easy:
     1:
     0.119584,0.132334,0.000000,0.000000,0.000000,68.000000,68.000000,0.000000,0.000000,0.000000,0.000000,0.119584,0.132334,0.000000,0.000000,0.000000,68.000000,68.000000,0.000000,0.000000,0.000000,0.000000:
000000
000000
000000
000000
,
000000
000000
000000
000000
,
000000
000000
000000
000000
,
000000
000000
000000
000000
,
000000
000000
000000
000000
,
001000
000000
000000
000000
,
010000
000000
000001
000000
,
100000
000000
000000
000000
,
000010
000000
001000
000000
,
000100
000000
000000
000000
,
100000
000000
000001
000000
,
001000
000000
000000
000000
,
000100
000000
001000
000000
,
000010
000000
000000
000000
,
010000
000000
001000
000000
,
100000
000000
000000
000000
,
000100
000000
001000
000000
,
000010
000000
000000
000000
,
010000
000000
000001
000000
,
001000
000000
001000
000000
,
000001
000000
100000
000000
,
000100
000000
000100
000000
,
001000
000000
001000
000000
,
000010
000000
000010
000000
,
100000
000000
100000
000000
,
001000
000000
000000
000000
,
000100
000000
100000
000000
,
000001
000000
001000
000000
,
000010
000000
000010
000000
,
100000
000000
001000
000000
,
000100
000000
000001
000000
,
010000
000000
010000
000000
,
000001
000000
000001
000000
,
100000
000000
100000
000000
,
001000
000000
001000
000000
,
010000
000000
010000
000000
,
000010
000000
000010
000000
,
100000
000000
100000
000000
,
000001
000000
100000
000000
,
000010
000000
000010
000000
,
001000
000000
001000
000000
,
000100
000000
000100
000000
,
100000
000000
000000
000000
,
000001
000000
000000
000000
;

//---------------dance-solo - ----------------
#NOTES:
     dance-solo:
     :
     Medium:
     4:
     0.274340,0.315754,0.160032,0.000000,0.000000,156.000000,143.000000,13.000000,0.000000,0.000000,0.000000,0.274340,0.315754,0.160032,0.000000,0.000000,156.000000,143.000000,13.000000,0.000000,0.000000,0.000000:
000000
000000
000000
000000
,
000000
000000
000000
000000
,
000000
000000
000000
000000
,
000000
000000
000000
000000
,
000000
000000
000000
000000
,
100000
000000
100000
000010
,
001000
000000
000010
000100
,
001000
000000
001000
010000
,
000100
000000
000100
100000
,
000010
000000
000010
001000
,
000001
100000
000010
100000
,
000010
010000
001000
010000
,
000100
000100
001000
010010
,
000001
010000
001000
100000
,
000010
000010
000010
000010
,
001000
001000
001000
100001
,
000100
010000
000001
001000
,
000010
000000
010000
001100
,
100000
000000
000001
001100
,
010000
001000
010000
001000
,
000100
000001
000100
000001
,
100000
000000
000000
000001
100000
000000
100001
000000
,
000010
000000
000000
001000
000100
000000
001100
000000
,
100000
000010
001000
000100
,
010000
001000
100000
000001
,
001000
000000
001000
000000
001000
000010
100000
001000
,
000100
000000
000100
000101
,
001000
000000
001000
101000
,
010000
001000
010000
001000
,
000100
000010
000100
000010
,
100000
100000
000001
100001
,
000010
000010
001000
010010
,
100001
000000
001000
001010
,
000100
000000
000100
010100
,
001000
100000
001000
100000
,
000100
001000
000100
001000
,
000001
000010
000001
000010
,
000001
100000
000001
100000
,
010000
100000
010000
100000
,
000100
100000
000100
100000
,
000001
000001
000001
000001
,
010000
010000
010000
010000
,
001000
001000
001000
001000
;

//---------------dance-solo - ----------------
#NOTES:
     dance-solo:
     :
     Hard:
     6:
     0.335890,0.449935,0.566265,0.000000,0.000000,191.000000,145.000000,46.000000,0.000000,0.000000,0.000000,0.335890,0.449935,0.566265,0.000000,0.000000,191.000000,145.000000,46.000000,0.000000,0.000000,0.000000:
000000
000000
000000
000000
,
000000
000000
000000
000000
,
000000
000000
000000
000000
,
000000
000000
000000
000000
,
000000
000000
000000
000000
,
010001
001000
001000
001000
,
000100
000010
000001
100000
000100
000000
010000
000000
,
100010
001000
001000
001000
,
000010
100010
001000
001001
,
100000
000100
001000
000001
,
010000
010000
010000
000001
,
001000
010010
000100
100001
,
001000
000000
000010
000000
100000
010000
000100
000000
,
100001
000100
010010
001000
,
000100
000010
000001
000000
000100
010000
100000
000000
,
001100
000010
100001
010000
,
100000
010000
000100
000000
000001
000010
000100
000000
,
010010
000000
000000
000000
000000
000000
100000
000001
,
100000
000000
000000
000000
000001
100000
000001
000001
,
100000
010000
000100
000010
000001
000000
000000
000000
,
000001
000010
000100
010000
100000
000000
000000
000000
,
000000
100100
000000
101000
,
000000
000101
000000
001001
,
000000
010100
000000
011000
,
000000
000110
000000
001010
,
000000
001000
001000
001000
,
010000
011000
000001
000011
,
010000
011000
000001
000011
,
100000
110000
000010
001010
,
100000
110000
000010
000110
,
001000
100001
000100
010010
,
001000
110000
010010
000011
,
100001
000000
000000
100001
,
001100
000000
000000
001100
,
010010
000000
000000
010010
,
000001
100000
100000
100000
,
000010
001000
001000
001000
,
000100
010000
010000
010000
,
000010
000010
000010
000010
,
100000
100000
100000
100000
,
100010
100010
100010
100010
,
001100
001100
001100
001100
,
000001
000000
000000
010000
,
000010
000000
000000
000000
;

//---------------dance-single - ----------------
#NOTES:
     dance-single:
     :
     Beginner:
     1:
     0.038689,0.132318,0.024620,0.061551,0.000000,22.000000,20.000000,2.000000,5.000000,0.000000,0.000000,0.038689,0.132318,0.024620,0.061551,0.000000,22.000000,20.000000,2.000000,5.000000,0.000000,0.000000:
0000
0000
0000
0000
,
0000
0000
0000
0000
,
0000
0000
0000
0000
,
0000
0000
0000
0000
,
0000
0000
0000
0000
,
0100
0000
0000
0000
,
0000
0000
0000
0000
,
0010
0000
0000
0000
,
0000
0000
0000
0000
,
0001
0000
0000
0000
,
0000
0000
0000
0000
,
1000
0000
0000
0000
,
0000
0000
0000
0000
,
0001
0000
0000
0000
,
0000
0000
0000
0000
,
0010
0000
0000
0000
,
0000
0000
0000
0000
,
0100
0000
0000
0000
,
0000
0000
0000
0000
,
1000
0000
0000
0000
,
0000
0000
0000
0000
,
0000
0000
0000
0000
,
0000
0000
0000
0000
,
0100
0000
0000
0000
,
0000
0000
0000
0000
,
0001
0000
0000
0000
,
1000
0000
0000
0000
,
0000
0000
0000
0000
,
0001
0000
0000
0000
,
0000
0000
0000
0000
,
0000
0000
0000
0000
,
0100
0000
0000
0000
,
0000
0000
0000
0000
,
0000
0000
0000
0000
,
0010
0000
0000
0000
,
1000
0000
0000
0000
,
0001
0000
0000
0000
,
2002
0000
3003
0000
,
0000
0000
0100
0000
,
0220
0000
0000
0000
,
0330
0000
0000
0000
,
0020
0000
0000
0000
,
0000
0000
0000
0000
0000
0000
0000
0000
0000
0000
0000
0000
0000
0000
0000
0000
0000
0000
0000
0000
0000
0000
0000
0000
0000
0000
0000
0000
0000
0000
0000
0000
0000
0000
0000
0000
0000
0000
0000
0000
0000
0000
0000
0000
0000
0000
0000
0000
0000
0000
0000
0000
0000
0000
0000
0000
0000
0000
0000
0000
0000
0000
0000
0000
0000
0000
0000
0000
0000
0000
0000
0000
0000
0000
0000
0000
0000
0000
0000
0000
0000
0000
0000
0000
0000
0000
0000
0000
0000
0000
0000
0000
0000
0000
0000
0000
0000
0000
0000
0000
0000
0000
0000
0000
0000
0000
0000
0000
0000
0000
0000
0000
0000
0000
0000
0000
0000
0000
0000
0000
0000
0000
0000
0000
0000
0000
0000
0000
0000
0000
0000
0000
0000
0000
0000
0000
0000
0000
0000
0000
0000
0000
0000
0000
0000
0000
0000
0000
0000
0000
0000
0000
0000
0000
0000
0000
0000
0000
0000
0000
0000
0000
0000
0000
0000
0000
0000
0000
0000
0000
0000
0000
0000
0000
0000
0000
0000
0000
0000
0000
0000
0000
0000
0000
0000
0000
0000
0000
0000
0000
0000
0030
;

//---------------dance-single - edit----------------
#NOTES:
     dance-single:
     :
     Edit:
     14:
     0.687608,0.873297,0.196962,0.184652,0.695522,391.000000,375.000000,16.000000,15.000000,0.000000,0.000000,0.687608,0.873297,0.196962,0.184652,0.695522,391.000000,375.000000,16.000000,15.000000,0.000000,0.000000:
// measure 0
0000
0000
0000
0000
,  // measure 1
0000
0000
0000
0000
,  // measure 2
0000
0000
0000
0000
,  // measure 3
0000
0000
0000
0000
,  // measure 4
0000
0000
0000
0000
0000
0000
0000
0000
0000
0000
0000
0000
0001
0010
0001
0000
,  // measure 5
0100
0000
0001
0000
0100
0000
1000
0000
0001
0000
0100
0000
1000
0000
0100
1000
,  // measure 6
0100
0000
0010
0000
0001
0000
2000
0000
0000
0000
3100
0000
0001
1000
0001
0000
,  // measure 7
1000
0000
0010
0000
0001
0000
0100
0000
0010
0000
1000
0000
0001
0000
0010
0100
,  // measure 8
0010
0000
1000
0000
0001
0000
0020
0000
0000
0000
1030
0000
0001
0010
0001
0000
,  // measure 9
1000
0000
0001
0000
0100
0000
1000
0000
0101
0000
0000
1100
0000
0000
0101
0000
,  // measure 10
0200
0000
0000
0000
0000
0000
0310
0000
1000
0010
0001
0010
0100
0000
0010
0100
,  // measure 11
1000
0010
1000
0001
0010
1000
0010
0010
,  // measure 12
0010
0000
0100
0000
0001
0000
1000
0000
0001
0000
0010
0000
0100
0010
0100
0010
,  // measure 13
1000
0100
0010
0100
1000
0001
0010
0001
,  // measure 14
0100
0001
0100
0000
0010
0000
1000
0001
1000
0000
0010
0000
0100
1000
0100
0000
,  // measure 15
0010
0000
0100
0000
0001
0000
1000
0000
0010
0000
0001
0000
0010
0100
0010
0100
,  // measure 16
1000
0000
0010
0000
0001
0000
0200
0000
0000
0000
1300
0000
0001
0100
0001
0000
,  // measure 17
0010
0000
0001
0000
1000
0000
0001
0000
0011
0000
0000
0110
0000
0000
1100
0000
,  // measure 18
0200
0000
0000
0000
0000
0000
0310
0000
1000
0100
0001
0100
1000
0000
1000
0010
,  // measure 19
0001
0010
1000
0010
0100
0001
0001
0001
,  // measure 20
1000
0000
0100
0000
0010
0000
0100
0000
0001
0010
0100
0000
1000
0000
0010
0000
,  // measure 21
2000
0000
0000
0000
0000
0000
0001
0000
3001
0000
0000
1001
0000
0000
1001
0000
,  // measure 22
0000
0101
0000
1010
0000
0100
1000
0010
,  // measure 23
0200
0000
0301
2000
0000
3010
1000
0100
,  // measure 24
0020
0000
0000
0000
1030
0000
0001
0000
1000
0000
0001
1000
0001
1000
0001
1000
,  // measure 25
0001
0000
0000
1001
0000
0000
1100
0000
,  // measure 26
0100
1000
0100
1000
0100
1000
0010
1000
0001
1000
0001
1000
0001
1000
0010
1000
,  // measure 27
0100
0000
0010
0000
1000
0001
0000
0000
0010
0000
0100
0000
0001
1000
0000
0000
,  // measure 28
0010
0001
0010
0001
0010
0001
0100
0001
1000
0001
1000
0001
1000
0001
0100
0001
,  // measure 29
0010
0000
0001
0000
1000
0001
0000
0000
0100
0010
0100
0000
0001
1000
0001
0000
,  // measure 30
0020
0000
0230
0000
2300
0000
3001
1000
,  // measure 31
0200
0000
0320
0000
0032
0000
1003
0010
,  // measure 32
0001
0000
0101
0000
0100
1000
0000
1000
,  // measure 33
0010
0000
0110
0000
1000
0100
0000
0100
,  // measure 34
0010
0000
0000
0000
0011
0000
0000
0000
1100
0000
0000
0000
0100
0001
0100
0000
,  // measure 35
0001
0010
0001
0010
0001
0010
0001
0010
0001
0010
0001
0010
0001
0010
0001
0010
,  // measure 36
0001
0100
0001
0100
0001
0100
0001
0100
0001
0100
0001
0100
0001
0100
0001
0100
,  // measure 37
0010
1000
0010
1000
0010
1000
0010
1000
0010
1000
0010
1000
0010
1000
0010
1000
,  // measure 38
0100
1000
0100
1000
0100
1000
0100
1000
0001
1000
0001
1000
0001
1000
0100
1000
,  // measure 39
0010
1000
0010
1000
0010
1000
0100
1000
0001
1000
0100
1000
0001
1000
0100
1000
,  // measure 40
0001
1000
0100
1000
0001
1000
0100
1000
0001
1000
0100
1000
0001
1000
0100
1000
,  // measure 41
0001
0010
0100
1000
0001
0010
0100
1000
0001
0010
0100
1000
0001
0010
0100
1000
,  // measure 42
0001
0000
0000
0000
0000
0000
0000
0000
0000
0000
0000
0000
0100
0000
0000
0000
0000
0000
0000
0000
0000
0000
0000
0000
0001
0000
0000
0000
0000
0000
0000
0000
0000
0000
0000
0000
0100
0000
0000
0000
0000
0000
0000
0000
0000
0000
0000
0000
0010
0000
0000
0000
0000
0000
0000
0000
0000
0000
0000
0000
1000
0000
0000
0000
0000
0000
0000
0000
0000
0000
0000
0000
0010
0000
0000
0000
0000
0000
0000
0000
0000
0000
0000
0000
1000
0000
0000
0000
0000
0000
0000
0000
0000
0000
0000
0000
0001
0000
0000
0000
0000
0000
0000
0000
0000
0000
0000
0000
0100
0000
0000
0000
0000
0000
0000
0000
0000
0000
0000
0000
0010
0000
0000
0000
0000
0000
0000
0000
0000
0000
0000
0000
1000
0000
0000
0000
0000
0000
0000
0000
0000
0000
0000
0000
0001
0000
0000
0000
0000
0000
0000
0000
0000
0000
0000
0000
0100
0000
0000
0000
0000
0000
0000
0000
0000
0000
0000
0000
0010
0000
0000
0000
0000
0000
0000
0000
0000
0000
0000
0000
1000
0000
0000
0000
0000
0000
0000
0000
0000
0000
0000
0100
;
