#VERSION:0.83;
#TITLE:Wind it Up (Original Neptunes Mix);
#SUBTITLE:;
#ARTIST:Gwen Stefani;
#TITLETRANSLIT:;
#SUBTITLETRANSLIT:;
#ARTISTTRANSLIT:;
#GENRE:;
#ORIGIN:;
#CREDIT:;
#BANNER:Wind it Up (Original Neptunes Mix).png;
#BACKGROUND:Wind it Up (Original Neptunes Mix)-bg.png;
#PREVIEWVID:;
#JACKET:;
#CDIMAGE:;
#DISCIMAGE:;
#LYRICSPATH:;
#CDTITLE:;
#MUSIC:Wind it Up (Original Neptunes Mix).ogg;
#OFFSET:0.000000;
#SAMPLESTART:39.500000;
#SAMPLELENGTH:15.000000;
#SELECTABLE:YES;
#BPMS:0.000=120.000;
#STOPS:;
#DELAYS:;
#WARPS:;
#TIMESIGNATURES:0.000=4=4;
#TICKCOUNTS:0.000=4;
#COMBOS:0.000=1;
#SPEEDS:0.000=1.000=0.000=0;
#SCROLLS:0.000=1.000;
#FAKES:;
#LABELS:0.000=Song Start;
#BGCHANGES:;
#KEYSOUNDS:;
#ATTACKS:
;

//---------------dance-single - ----------------
#NOTEDATA:;
#CHARTNAME:;
#STEPSTYPE:dance-single;
#DESCRIPTION:;
#CHARTSTYLE:;
#DIFFICULTY:Beginner;
#METER:2;
#RADARVALUES:0.115903,0.134434,0.056604,0.000000,0.000000,86.000000,80.000000,6.000000,0.000000,0.000000,0.000000,0.000000,0.000000,0.000000,0.115903,0.134434,0.056604,0.000000,0.000000,86.000000,80.000000,6.000000,0.000000,0.000000,0.000000,0.000000,0.000000,0.000000;
#CREDIT:;
#NOTES:
0000
0000
0000
0000
,
0000
0000
0000
0000
,
0000
0000
0000
0000
,
0000
0000
0000
0000
,
1000
0000
0000
0010
,
0010
0000
0000
0100
,
0100
0000
0000
0001
,
0001
0000
0000
0000
,
0001
0001
0000
0000
,
0010
0010
0000
0000
,
0100
0100
0000
0000
,
0110
0000
0000
0000
,
1000
1000
0000
0000
,
0001
0001
0000
0000
,
0010
0000
0100
0000
,
0001
0000
1000
0000
,
1001
0000
0010
0000
,
0100
0000
1000
0000
,
0001
0000
0100
0000
,
1001
0000
0000
0000
,
1000
0000
0010
0000
,
0100
0000
0001
0000
,
0001
0000
1000
0000
,
0010
0010
0000
0000
,
0100
0000
0010
0000
,
0001
0000
1000
0000
,
0100
0000
1000
0000
,
0010
0000
0001
0000
,
0010
0000
0010
0000
,
1000
0000
0100
0000
,
0001
0000
0001
0000
,
0010
0000
1000
0000
,
0100
0000
0100
0000
,
1000
0000
1000
0000
,
0010
0000
0010
0000
,
0001
0000
0001
0000
,
0110
0000
0000
0000
,
1001
0000
0000
0000
,
1000
0000
0000
0000
,
0001
0000
0000
0000
,
1001
0000
0000
0000
,
0100
0000
0010
0000
,
1000
0000
0001
0000
,
0100
0000
0010
0000
,
0001
0000
1000
0000
,
0010
0010
0000
0000
,
1000
1000
0000
0000
,
0001
0000
0001
0000
;

//---------------dance-single - ----------------
#NOTEDATA:;
#CHARTNAME:;
#STEPSTYPE:dance-single;
#DESCRIPTION:;
#CHARTSTYLE:;
#DIFFICULTY:Easy;
#METER:4;
#RADARVALUES:0.167116,0.201651,0.056604,0.047170,0.000000,124.000000,118.000000,6.000000,5.000000,0.000000,0.000000,0.000000,0.000000,0.000000,0.167116,0.201651,0.056604,0.047170,0.000000,124.000000,118.000000,6.000000,5.000000,0.000000,0.000000,0.000000,0.000000,0.000000;
#CREDIT:;
#NOTES:
0000
0000
0000
0000
,
0000
0000
0000
0000
,
0000
0000
0000
0000
,
0000
0000
0000
0000
,
1000
0000
0010
0001
,
0001
0000
0100
0000
,
0001
0000
0010
0100
,
1000
0000
0100
0000
,
0001
0000
0001
0010
,
0010
0000
1000
0000
,
0100
0000
0001
0000
,
1001
0000
1000
0001
,
0010
0100
1000
0001
,
0020
0030
0001
0100
,
1000
0010
0100
1000
,
0002
0003
1000
0100
,
0001
1000
0001
0100
,
2000
3000
0001
0010
,
0100
0010
1000
0001
,
2002
0000
3003
0000
,
1000
0001
0010
0000
,
0100
0100
0110
0000
,
0100
0001
1000
0000
,
0001
0010
0010
0000
,
0100
0001
1000
0000
,
1001
0000
1000
0000
,
0010
0000
0100
0000
,
0110
0000
1000
0010
,
0001
0000
1000
0000
,
1000
0100
0001
0000
,
1000
0000
0001
0000
,
0001
0100
1000
0000
,
0000
0100
0000
1000
,
0000
1000
0001
0100
,
0000
0010
0000
0001
,
0000
1000
0010
0001
,
0000
0100
0010
0001
,
0000
1000
0100
0010
,
0100
0000
0001
0000
,
1000
0000
0100
0000
,
0110
0000
1000
0000
,
0100
0010
0001
0000
,
0001
0000
1000
0000
,
1000
0010
0001
0000
,
0100
0000
0001
0000
,
0010
1000
0001
0000
,
0010
0000
0100
0000
,
1000
0001
0001
0000
;

//---------------dance-single - ----------------
#NOTEDATA:;
#CHARTNAME:;
#STEPSTYPE:dance-single;
#DESCRIPTION:;
#CHARTSTYLE:;
#DIFFICULTY:Medium;
#METER:7;
#RADARVALUES:0.260108,0.270283,0.066038,0.198113,0.000000,193.000000,186.000000,7.000000,21.000000,0.000000,0.000000,0.000000,0.000000,0.000000,0.260108,0.270283,0.066038,0.198113,0.000000,193.000000,186.000000,7.000000,21.000000,0.000000,0.000000,0.000000,0.000000,0.000000;
#CREDIT:;
#NOTES:
0000
0000
0000
0000
,
0000
0000
0000
0000
,
0000
0000
0000
0000
,
0000
0000
0000
0000
,
0010
0000
0010
0000
1000
0000
0001
0020
,
0000
0030
0000
0010
0100
0000
0001
0000
,
1000
0000
0001
0000
0100
0000
0010
2000
,
0000
3000
0000
1000
0100
0000
0001
0000
,
0100
0000
0010
0000
0001
0000
1000
0020
,
0000
0030
0000
0010
0100
0000
0001
0000
,
1000
0010
1000
0000
0001
0100
0001
0000
,
0100
0000
0010
0000
1000
0100
1000
0000
,
0010
0001
1000
0100
,
0002
0013
0001
0100
,
2000
3010
0001
1000
,
0200
0000
0301
0000
1000
0010
0100
0000
,
0020
1030
0001
0100
,
0002
0013
1000
0001
,
1001
0010
0100
1000
,
1100
0001
0100
0001
,
0010
1000
0200
0310
,
0001
0000
0010
0001
1000
0000
0200
0000
,
1300
0001
0100
0010
,
2000
0000
3010
0000
0100
0001
0100
0000
,
1000
0000
0100
0000
0010
0001
0100
0000
,
0002
0103
2000
3010
,
1000
0000
0001
0000
0100
0010
1000
0000
,
2000
3100
0002
0013
,
2000
0000
0000
3001
0000
0000
0010
0000
,
1000
0001
0010
1000
,
0002
0000
0000
1003
0000
0000
0010
0000
,
0001
1000
0100
0010
,
0010
0000
1000
0000
0010
0100
0001
0000
,
0100
0000
0001
0000
0100
0010
1000
0000
,
0100
0000
0010
0000
1000
0001
0100
0000
,
0010
0000
0100
0000
0001
1000
0010
0000
,
1000
1000
0001
0001
,
1000
0100
0010
0000
0100
0000
0001
0000
,
0200
0000
0320
0000
,
2030
0000
3002
0000
,
0013
1000
0110
0001
,
0100
1000
0001
1100
,
0010
0001
1010
0100
,
0001
0010
0100
1100
,
1000
0000
0100
0010
0000
0010
0001
0000
,
0001
0010
0100
1000
,
1000
0000
0010
0100
0000
0100
0001
0000
,
1000
0010
0001
0000
0100
0000
0110
0000
;

//---------------dance-single - ----------------
#NOTEDATA:;
#CHARTNAME:;
#STEPSTYPE:dance-single;
#DESCRIPTION:;
#CHARTSTYLE:;
#DIFFICULTY:Hard;
#METER:9;
#RADARVALUES:0.305930,0.316156,0.179245,0.150943,0.000000,227.000000,208.000000,19.000000,16.000000,0.000000,0.000000,0.000000,0.000000,0.000000,0.305930,0.316156,0.179245,0.150943,0.000000,227.000000,208.000000,19.000000,16.000000,0.000000,0.000000,0.000000,0.000000,0.000000;
#CREDIT:;
#NOTES:
0000
0000
0000
0000
,
0000
0000
0000
0000
,
0000
0000
0000
0000
,
0000
0000
0000
0000
,
1000
0000
1000
0100
0010
0000
0001
0010
,
0000
0010
0000
0100
1000
0000
0001
0001
,
0010
0000
1000
0000
0001
0000
0100
1000
,
0000
1000
0000
0010
0100
0000
0001
0010
,
0001
0000
0010
0000
1000
0000
0100
0010
,
0000
0010
0000
0010
0001
0000
0001
0100
,
0001
0000
1000
0001
1000
0100
0010
0002
,
0000
0100
0000
1000
1003
0000
0000
0000
,
0010
0001
1100
0110
,
0022
0000
0033
0000
0001
0010
0100
0000
,
1020
0000
0000
0130
0001
1000
0010
0000
,
0201
0000
0000
0310
1000
0010
0100
0000
,
0120
0000
0000
1030
0001
0100
0001
0000
,
2000
0000
0000
3010
0100
0001
0010
0000
,
0110
0000
0000
1000
0100
0010
0001
0000
,
1010
1000
0000
0000
0100
0001
1000
0000
,
0100
1000
0001
0000
0010
0000
1000
0000
,
0100
0010
0100
1000
0001
0000
0100
0000
,
1000
0001
0010
0000
1000
0001
0100
0000
,
1000
0010
0000
0100
0001
0000
1001
0000
,
1000
0000
0100
0020
0000
0000
1030
0000
,
0001
0010
0100
0000
0010
0000
1000
0010
,
1000
0000
0001
0200
0000
0000
0310
0000
,
1000
0100
0010
0000
0100
0000
0001
0000
,
1010
0000
0000
0201
0000
0000
0310
0000
,
1000
0000
0001
0000
0010
0100
1000
0000
,
0011
0000
0000
1200
0000
0000
0310
0000
,
0001
0000
0010
0100
1000
0000
0001
0001
,
0000
0100
0010
0000
1000
1000
0001
0000
,
0000
1000
0100
0000
0010
0010
0001
0000
,
0000
0100
0010
0000
0000
0001
1000
0000
,
0000
0010
0100
1000
0001
0000
0101
0000
,
0000
0010
0100
0000
0000
1000
0001
0000
,
0000
0100
0010
0001
1000
0000
1010
0000
,
0100
0001
1000
0010
,
0010
1000
0001
0001
,
0010
0100
1000
0000
1000
0000
0010
0000
,
0100
0010
1000
0001
0020
0000
0000
0030
,
0001
0010
0100
0000
1000
0010
0100
0001
,
0000
1000
0000
0100
0001
0000
0110
0000
,
2100
0000
0000
0010
0000
3010
0000
0000
,
0012
0000
0000
0100
0000
0103
0000
0100
,
2010
0000
0000
0001
0000
3001
0000
0000
,
0200
0000
0000
0010
0000
0010
0000
0310
;

//---------------dance-double - ----------------
#NOTEDATA:;
#CHARTNAME:;
#STEPSTYPE:dance-double;
#DESCRIPTION:;
#CHARTSTYLE:;
#DIFFICULTY:Easy;
#METER:3;
#RADARVALUES:0.145553,0.156840,0.028302,0.028302,0.000000,108.000000,105.000000,3.000000,3.000000,0.000000,0.000000,0.000000,0.000000,0.000000,0.145553,0.156840,0.028302,0.028302,0.000000,108.000000,105.000000,3.000000,3.000000,0.000000,0.000000,0.000000,0.000000,0.000000;
#CREDIT:;
#NOTES:
00000000
00000000
00000000
00000000
,
00000000
00000000
00000000
00000000
,
00000000
00000000
00000000
00000000
,
00000000
00000000
00000000
00000000
,
10000000
00000000
00100000
00000000
,
01000000
00001000
00010000
00000000
,
00001000
00000000
00010000
00000000
,
00000010
00000100
00000001
00000000
,
00000010
00001000
00000001
00000000
,
00000010
00000000
00000100
00000000
,
00000010
00010000
00001000
00000000
,
00010000
00000000
01000000
00000000
,
10000000
10000000
00000000
00000000
,
01000000
01000000
00000000
00100000
,
00010000
00010000
00000000
00000000
,
00002000
00003000
00000010
00000001
,
00001000
00000000
00001000
00000001
,
00000010
00000000
00001000
00000010
,
00010000
00000000
00001000
01000000
,
00010000
00000000
10000000
00100000
,
01000000
01000000
00000000
00000000
,
10000000
10000000
00000000
00100000
,
00001000
00001000
00000000
00000010
,
00000100
00000100
00000000
00000001
,
00000100
00000000
00000010
00001000
,
00000001
00000000
00000010
00000100
,
00001000
00000000
00010000
00000000
,
01100000
00000000
10000000
00100000
,
00010000
00000000
01000000
00000000
,
00001000
00000000
00010000
00000000
,
00011000
00000000
00010000
00000000
,
00000010
00000000
00000100
00000000
,
00001001
00000000
00000000
00001000
,
00000010
00000000
00000000
00000100
,
00010000
00000000
00000000
00100000
,
00010000
00000000
00000000
10000000
,
00100000
00000000
00000000
00010000
,
00000000
00001000
00000000
00000010
,
00002000
00000000
00003000
00000000
,
00020000
00000000
00030000
00000000
,
01000000
10000000
01000000
00000000
,
00010000
00000000
00010000
00000000
,
00001000
00010000
00001000
00000000
,
00000010
00000000
00000010
00000000
,
00000001
00000000
00000100
00000000
,
00010000
00001000
00010000
00000000
,
00100000
00000000
01000000
00000000
,
10000000
00000000
01000000
00000000
;

//---------------dance-double - ----------------
#NOTEDATA:;
#CHARTNAME:;
#STEPSTYPE:dance-double;
#DESCRIPTION:;
#CHARTSTYLE:;
#DIFFICULTY:Medium;
#METER:5;
#RADARVALUES:0.257412,0.268868,0.037736,0.075472,0.000000,191.000000,187.000000,4.000000,8.000000,0.000000,0.000000,0.000000,0.000000,0.000000,0.257412,0.268868,0.037736,0.075472,0.000000,191.000000,187.000000,4.000000,8.000000,0.000000,0.000000,0.000000,0.000000,0.000000;
#CREDIT:;
#NOTES:
00000000
00000000
00000000
00000000
,
00000000
00000000
00000000
00000000
,
00000000
00000000
00000000
00000000
,
00000000
00000000
00000000
00000000
,
10000000
00100000
01000000
00010000
,
00001000
00000000
00010000
00000000
00001000
00010000
00001000
00000000
,
00000010
00001000
00000100
00000001
,
00000010
00000000
00000001
00000000
00001000
00000100
00001000
00000000
,
00010000
00001000
01000000
00010000
,
00100000
00000000
10000000
00000000
00010000
01000000
00010000
00000000
,
10000000
01000000
00100000
00001000
,
00010000
00000000
00001000
00000000
00010000
00001000
00010000
00000000
,
00000100
00000000
00001000
00000000
00000010
00000001
00000100
00000000
,
00001000
00000000
00000001
00000000
00000100
00000010
00001000
00000000
,
00000100
00000000
00010000
00000000
00001000
00010000
00001000
00000000
,
00100000
00000000
00010000
00000000
10000000
01000000
00100000
00000000
,
01000000
00000000
00001000
00000000
00010000
00001000
00010000
00000000
,
00001000
00000000
00010000
00000000
00000010
00001000
00000001
00000000
,
00000100
00000010
00001000
00000100
,
00010000
00001000
00000000
00000000
00010000
00001000
00100000
00000000
,
01000000
00010000
00100000
00000000
10000000
00000000
00100000
00000000
,
00010000
01000000
10000000
00000000
01000000
00000000
00001000
00000000
,
00010000
00100000
00010000
00001000
,
00000010
00000001
00000100
00000000
00001000
00000000
00000100
00000000
,
00000001
00000010
00000100
00010000
,
00001000
00010000
00001000
00000000
00100000
00000000
01000000
00000000
,
01100000
10000000
01000000
00100000
,
01000000
00100000
00010000
00000000
00001000
00000000
00010000
00000000
,
00002000
00000000
00000000
00003010
00000000
00000000
00000001
00000000
,
00000100
00001000
00000100
00000000
00000010
00000000
00001000
00000000
,
00000020
00000000
00000000
00010030
00000000
00000000
00010000
00000000
,
00000100
00000000
00010000
00000000
00001000
00100000
00010000
00000000
,
00000000
10000000
01000000
00000000
00100000
01000000
00010000
00000000
,
00001000
00010000
00000100
00000010
,
00000000
00000001
00000010
00000000
00000100
00000010
00001000
00000000
,
00010000
00001000
01000000
00010000
,
00100000
10000000
01000000
00000000
00100000
00000000
00001000
00000000
,
00010000
00001000
00010000
00000000
00000010
00000000
00001000
00000000
,
00001001
00000000
00000000
00000000
,
00011000
00000000
00000000
00000000
,
00020000
10000000
00130000
00000000
,
00200000
00010000
00301000
00000000
,
00002000
00100000
00013000
00001000
,
00020000
00001000
00030100
00000000
,
00000100
00000000
00000001
00001000
00000000
00001000
00000010
00000000
,
00010000
00001000
00010000
00000000
00100000
00000000
00100000
00000000
,
01000000
00000000
00010000
10000000
00000000
10000000
00100000
00000000
,
02200000
00000000
03300000
00000000
;

//---------------dance-double - ----------------
#NOTEDATA:;
#CHARTNAME:;
#STEPSTYPE:dance-double;
#DESCRIPTION:;
#CHARTSTYLE:;
#DIFFICULTY:Hard;
#METER:7;
#RADARVALUES:0.400270,0.407547,0.443396,0.103774,0.028302,297.000000,250.000000,47.000000,11.000000,0.000000,0.000000,0.000000,0.000000,0.000000,0.400270,0.407547,0.443396,0.103774,0.028302,297.000000,250.000000,47.000000,11.000000,0.000000,0.000000,0.000000,0.000000,0.000000;
#CREDIT:;
#NOTES:
00000000
00000000
00000000
00000000
,
00000000
00000000
00000000
00000000
,
00000000
00000000
00000000
00000000
,
00000000
00000000
00000000
00000000
,
00100000
00000000
01000000
00010000
00100000
00000000
00001000
00010000
,
00000000
01000000
00000000
10000000
00100000
00000000
01000000
00010000
,
00100000
00000000
00101000
00000000
00010100
00000000
00001000
00000010
,
00000000
00000100
00000000
00000001
00001000
00000000
00000010
00001000
,
00000100
00000000
00010100
00000000
00101000
00000000
00010000
01000000
,
00000000
00100000
00000000
10000000
00010000
00000000
01000000
00010000
,
00100000
00000000
00001000
00010000
01000000
00010000
00001000
00000010
,
00000000
00000100
00000000
00001000
00000010
00000000
00000110
00000000
,
00002001
00000000
00000000
00003100
00000001
00000100
00000010
00000100
,
00002000
00000000
00000000
00003010
00000001
00000010
00000100
00000010
,
00001010
00000000
00000000
00000100
00010000
00001000
00000100
00001000
,
00010000
00000000
00000000
00100000
00010000
00001000
00000010
00001000
,
00011000
00000000
00000000
00010000
00000100
00010000
00001000
00010000
,
00000020
00000000
00000000
00000130
00001000
00010000
01000000
00010000
,
00011000
00000000
00000000
00100000
00001000
00010000
01000000
00100000
,
00010000
00010000
00000000
10000000
10000000
00100000
00100000
01000000
,
01010000
00000000
10100000
00000000
11000000
00000000
00100000
00010000
,
01000000
00010000
00100000
00001000
00010000
00000000
00000100
00001000
,
00001001
00000000
00000100
00000001
00000010
00001000
00000010
00000001
,
00000100
00001000
00010000
00001000
00000100
00000000
00000010
00000000
,
00000110
00000000
00000000
00000000
00000000
00000000
00001001
00000000
00000000
00000000
00001100
00000000
00000000
00000000
00010000
00001000
,
00010000
00000000
00000000
01010000
00000000
10010000
00000000
10000000
,
11000000
00000000
00000000
00000000
00000000
00000000
00110000
00000000
00000000
00000000
00101000
00000000
00000000
00000000
00010000
00001000
,
00010000
00000000
00000000
00010010
00000000
00001010
00000000
00000100
,
00000102
00000000
00000000
00000023
00000000
00000000
00000030
00000100
,
00000010
00000100
00010000
00001000
00000100
00001000
00010000
00100000
,
20000000
00000000
00000000
30020000
00000000
00000000
10030000
00000000
,
01000000
10000000
00100000
00000000
01000000
00010000
00100000
00001000
,
00012000
00000000
00003100
00000000
00000001
00000010
00000001
00000000
,
00000200
00000000
00001300
00000000
00010000
00100000
00010000
00001000
,
00000100
00001000
00021000
00000000
01030000
10000000
21000000
00000000
,
30100000
01000000
01100000
00000000
10010000
00000000
01100000
00000000
,
10000000
01000000
00010000
00000000
00001000
00010000
00011000
00000000
,
00001000
00000000
00000100
00000000
00000001
00000000
00000000
00000000
00001000
00000000
00000010
00000000
00001010
00000000
00000000
00010000
,
00001000
00000000
00100000
00000000
00010000
00000000
01000000
00000000
00001000
00000000
00100000
00000000
00010000
00000000
00000000
00010000
,
00100000
00001000
00010000
00000100
00001000
00000010
00010000
00001000
,
00101000
00000000
00110000
00000000
10010000
00000000
01000000
00010000
,
00100000
00010000
01000000
00001000
00010000
00000000
00000010
00001000
,
00001001
00000000
00000010
00000001
00000100
00001000
00000100
00000001
,
00000010
00001000
00010000
00001000
00000010
00000000
00000100
00000000
,
00000110
00000000
00000000
00000000
00000000
00000000
00001001
00000000
00000000
00000000
00001010
00000000
00000000
00000000
00010000
00001000
,
00010000
00000000
00000000
00110000
00000000
10010000
00000000
10000000
,
10100000
00000000
00000000
00000000
00000000
00000000
01010000
00000000
00000000
00000000
01001000
00000000
00000000
00000000
00010000
00001000
,
00010000
00000000
00000000
00010100
00000000
00001100
00000000
00000100
,
00000110
00000000
00000000
00000000
;

//---------------dance-single - ----------------
#NOTEDATA:;
#CHARTNAME:;
#STEPSTYPE:dance-single;
#DESCRIPTION:;
#CHARTSTYLE:;
#DIFFICULTY:Challenge;
#METER:13;
#RADARVALUES:0.469003,0.588679,0.216981,0.150943,0.231132,348.000000,325.000000,23.000000,16.000000,0.000000,0.000000,0.000000,0.000000,0.000000,0.469003,0.588679,0.216981,0.150943,0.231132,348.000000,325.000000,23.000000,16.000000,0.000000,0.000000,0.000000,0.000000,0.000000;
#CREDIT:;
#NOTES:
// measure 0
0000
0000
0000
0000
,  // measure 1
0000
0000
0000
0000
,  // measure 2
0000
0000
0000
0000
,  // measure 3
0000
0000
0000
0000
,  // measure 4
0100
0000
0000
0100
0010
0000
1000
0000
0001
0000
0000
1000
0001
0000
0010
0000
,  // measure 5
0000
0000
1010
0000
0000
0000
1000
0000
0001
0000
0000
0001
0100
0000
0010
0000
,  // measure 6
1000
0000
0000
0100
1000
0000
0000
0000
0101
0000
0000
0000
0010
0000
0100
0000
,  // measure 7
0000
0000
1100
0000
0000
0000
1000
0000
0010
0000
0000
0010
0100
0000
0001
0000
,  // measure 8
1000
0000
0000
1000
0010
0000
0000
0000
0110
0000
0000
0000
0001
0000
0100
0000
,  // measure 9
0000
0000
0101
0000
0000
0000
0010
0000
0001
0000
0000
0001
0010
0000
1000
0000
,  // measure 10
0100
0000
0000
0100
1000
0000
0010
0000
0100
0000
0001
0000
0100
0000
1000
0000
,  // measure 11
0010
0000
0100
0000
0000
0000
0100
0000
0001
0000
0010
0000
0100
1000
0100
0000
,  // measure 12
2000
0010
0000
3100
0010
0001
0010
1000
,  // measure 13
0200
0001
0000
1300
0010
0100
0001
0100
,  // measure 14
0020
0001
0000
0130
0010
1000
0100
0010
,  // measure 15
0002
0010
0000
0103
0010
0001
0100
0010
,  // measure 16
2000
0100
0000
3001
0010
0100
1000
0100
,  // measure 17
0020
0001
0000
1030
0010
0100
0001
0010
,  // measure 18
0002
0010
0000
0103
0010
1000
0100
0001
,  // measure 19
0200
0000
0010
0000
0000
0000
1300
0001
0100
0000
0010
0000
0001
0000
0010
0000
,  // measure 20
1000
0010
0110
0000
0101
0000
0001
0010
,  // measure 21
1000
0010
0100
0001
0011
0000
0100
0010
,  // measure 22
1000
0000
1000
0100
0010
0010
0100
0100
,  // measure 23
0001
0000
0001
0000
1000
0000
1000
0000
0010
0000
0100
0000
0001
0010
0001
0000
,  // measure 24
0010
0100
0000
0000
0000
0000
1100
0000
0000
0000
0101
0000
0000
0000
0100
0010
,  // measure 25
0200
0000
0000
0001
0000
0000
1300
0000
0000
0000
1010
0000
0000
0000
0010
0000
,  // measure 26
0001
0100
0000
0000
0000
0000
1100
0000
0000
0000
1010
0000
0000
0000
1000
0001
,  // measure 27
0200
0000
0000
0010
0000
0000
0301
0000
0000
0000
1010
0000
0000
0000
1000
0000
,  // measure 28
0020
0000
0000
0000
0000
0000
0000
0000
0030
0020
0000
0000
0000
0000
0000
0000
0000
0000
0000
0000
0000
0130
0000
0000
,  // measure 29
0100
0000
1000
0000
1000
0000
0001
0000
0001
0000
0010
0000
0010
0100
0010
0000
,  // measure 30
0200
0000
0000
0000
0000
0000
0000
0000
0300
0200
0000
0000
0000
0000
0000
0000
0000
0000
0000
0000
0000
0000
0000
0000
,  // measure 31
0310
0000
1000
0010
0100
0000
0001
0010
0100
0000
1000
0000
0001
0010
0100
0000
,  // measure 32
1000
0100
0010
0001
0100
0000
0010
0000
0001
0010
0100
1000
0010
0000
0100
0000
,  // measure 33
1000
0010
0100
0001
0010
0000
0100
0000
0001
0100
0010
1000
0100
0000
0010
0000
,  // measure 34
0010
0000
0001
0100
0010
0000
0001
0000
0001
0000
0100
1000
0001
0000
1000
0000
,  // measure 35
1000
0000
0010
0001
1000
0000
0100
0000
0100
0000
0001
1000
0100
0000
0010
0000
,  // measure 36
0001
0000
0100
0010
1000
0000
0010
0000
1000
0000
0100
0010
0001
0000
1000
0000
,  // measure 37
0010
0000
0001
0010
1000
0000
0010
1000
0001
0000
0010
0001
0100
0000
0010
1000
,  // measure 38
0100
0010
0100
0010
0001
1000
0001
1000
,  // measure 39
0001
0010
0100
0000
1000
0000
0010
0000
0100
0000
0001
0000
1000
0001
1000
0000
,  // measure 40
0001
0010
1010
0000
0011
0000
0001
0100
,  // measure 41
0010
1000
0100
0010
0011
0000
0001
0010
,  // measure 42
1000
0010
0100
0100
1000
1000
0010
0010
,  // measure 43
0001
0000
0001
0000
0100
0000
0100
0000
0010
0000
0010
0000
1000
0100
0010
0000
,  // measure 44
0100
0010
0000
0000
0000
0000
1010
0000
0000
0000
1100
0000
0000
0000
0001
1000
,  // measure 45
0020
0000
0000
1000
0000
0000
0031
0000
0000
0000
0101
0000
0000
0000
0100
0000
,  // measure 46
0010
1000
0000
0000
0000
0000
1010
0000
0000
0000
1001
0000
0000
0000
0001
1000
,  // measure 47
0020
0000
0000
0001
0000
0000
1030
0000
0000
0000
0110
0000
0000
0000
0001
0100
,  // measure 48
0010
0000
0000
0000
;
