#TITLE:When I Grow Up;
#SUBTITLE:;
#ARTIST:Pussycat Dolls;
#TITLETRANSLIT:;
#SUBTITLETRANSLIT:;
#ARTISTTRANSLIT:;
#GENRE:;
#CREDIT:;
#BANNER:When I Grow Up.png;
#BACKGROUND:When I Grow Up-bg.png;
#LYRICSPATH:;
#CDTITLE:;
#MUSIC:When I Grow Up.ogg;
#OFFSET:0.000000;
#SAMPLESTART:43.828999;
#SAMPLELENGTH:15.000000;
#SELECTABLE:YES;
#DISPLAYBPM:119.000000;
#BPMS:0.000000=118.300003
,4.000000=118.500000
;
#STOPS:
;
#BGCHANGES:0.000=When I Grow Up.avi=1.000=0=0=0=StretchNoLoop====,
99999=-nosongbg-=1.000=0=0=0 // don't automatically add -songbackground-
;
#KEYSOUNDS:;
#ATTACKS:;

//---------------dance-single - ----------------
#NOTES:
     dance-single:
     :
     Beginner:
     1:
     0.078551,0.157102,0.000000,0.000000,0.000000,49.000000,49.000000,0.000000,0.000000,0.000000,0.000000,0.078551,0.157102,0.000000,0.000000,0.000000,49.000000,49.000000,0.000000,0.000000,0.000000,0.000000:
0000
0000
0000
0000
,
0000
0000
0000
0000
,
0000
0000
0000
0000
,
0000
0000
0000
0000
,
0000
0000
0000
0000
,
0000
0000
0000
0000
,
0001
0000
0000
0000
,
0000
0000
0000
0000
,
1000
0000
0000
0000
,
0000
0000
0000
0000
,
0001
0000
0000
0000
,
1000
0000
0000
0000
,
0001
0000
0000
0000
,
1000
0000
0000
0000
,
0001
0000
0000
0000
,
0010
0000
0000
0000
,
1000
0000
0000
0000
,
0010
0000
0000
0000
,
0001
0000
0001
0000
,
1000
0000
1000
0000
,
0001
0000
0000
0000
,
0000
0000
0000
0000
,
0100
0000
0000
0000
,
1000
1000
0000
0000
,
0100
0000
0000
0000
,
0001
0001
0000
0000
,
0100
0000
0000
0000
,
1000
1000
0000
0000
,
0100
0000
0000
0000
,
0001
0001
0000
0000
,
1000
0000
1000
0000
,
0001
0000
0001
0000
,
1000
0000
1000
0000
,
0001
0000
0001
0000
,
1000
1000
1000
0000
,
0001
0001
0001
0000
,
1000
1000
1000
0000
,
0001
0001
0001
0000
,
1000
0000
0000
0000
,
0000
0000
0000
0000
,
0001
0000
0000
0000
;

//---------------dance-single - ----------------
#NOTES:
     dance-single:
     :
     Easy:
     3:
     0.115422,0.157102,0.011222,0.280540,0.000000,72.000000,71.000000,1.000000,25.000000,0.000000,0.000000,0.115422,0.157102,0.011222,0.280540,0.000000,72.000000,71.000000,1.000000,25.000000,0.000000,0.000000:
0000
0000
0000
0000
,
0000
0000
0000
0000
,
0000
0000
0000
0000
,
0000
0000
0000
0000
,
0000
0000
0000
0000
,
0000
0000
0000
0000
,
1000
0000
0001
0000
,
2000
0000
3000
0000
,
0001
0000
1000
0000
,
0002
0000
0003
0000
,
1000
0001
1000
0000
,
0020
0000
0030
0000
,
0001
0000
1000
0000
,
0002
0000
0003
0000
,
1000
0001
1000
0001
,
0200
0300
0001
0000
,
0200
0300
0001
0000
,
0100
0100
0010
0010
,
0200
0300
1000
0000
,
0200
0300
1000
0000
,
1001
0000
0000
0000
,
0000
0000
0000
0000
,
1000
0100
1000
0100
,
0010
0000
0100
0000
,
0001
0100
0001
0100
,
0010
0000
0100
0000
,
2000
0000
0000
3000
,
0020
0030
0200
0300
,
0002
0000
0000
0003
,
0020
0030
0200
0300
,
1000
0010
1000
0000
,
0002
0003
2000
3000
,
0002
0003
2000
3000
,
0002
0003
2000
3000
,
0001
0010
0001
0000
,
2000
3000
0002
0003
,
2000
3000
0002
0003
,
0010
0010
0100
0000
,
1000
0000
0001
0000
,
2000
0000
3000
0000
,
0001
0000
0000
0000
;

//---------------dance-single - ----------------
#NOTES:
     dance-single:
     :
     Medium:
     6:
     0.224432,0.314204,0.112216,0.235653,0.000000,140.000000,130.000000,10.000000,21.000000,0.000000,0.000000,0.224432,0.314204,0.112216,0.235653,0.000000,140.000000,130.000000,10.000000,21.000000,0.000000,0.000000:
0000
0000
0000
0000
,
0000
0000
0000
0000
,
0000
0000
0000
0000
,
0000
0000
0000
0000
,
0000
0000
0000
0000
,
0000
0000
0000
0000
,
1000
0100
0001
1000
,
0001
0200
0000
0301
,
0010
0100
1000
0001
,
1000
0200
0000
1300
,
0001
1000
0001
0000
0001
1000
0001
0000
,
1000
0020
0000
0130
,
0001
0100
1000
0010
,
0001
0200
0000
0301
,
0010
0010
0100
1000
,
2001
0000
3100
0010
,
1002
0000
0103
0001
,
1001
0110
1001
0110
,
2001
0000
3001
0010
,
1002
0000
0103
1000
,
1001
0000
0000
0010
0000
0010
0000
1000
,
0000
1000
0000
0001
0000
0001
0000
0000
,
1000
0000
0100
0010
0001
0000
0010
0000
,
0010
0000
0001
0000
0100
0010
0100
0000
,
0001
0000
0100
0010
1000
0000
0010
0000
,
0010
0000
1000
0000
0100
0010
0100
0000
,
2000
0000
0001
0001
,
0010
3100
1000
0100
,
0002
0000
1000
1000
,
0010
0103
1000
0110
,
0001
0000
1000
0000
0010
0000
0100
0001
,
0020
0030
0002
0103
,
0020
0030
2000
3100
,
0020
0030
0002
0103
,
1000
0000
0100
0000
0010
0000
0100
1000
,
0020
0030
2000
3001
,
0020
0030
0002
1003
,
0100
1000
0100
0000
1000
0001
1000
0000
,
0001
0100
1000
0001
,
1000
0200
0000
1300
,
0001
0000
0000
0000
;

//---------------dance-single - ----------------
#NOTES:
     dance-single:
     :
     Hard:
     8:
     0.319014,0.359091,0.123437,0.213210,0.000000,199.000000,188.000000,11.000000,19.000000,0.000000,0.000000,0.319014,0.359091,0.123437,0.213210,0.000000,199.000000,188.000000,11.000000,19.000000,0.000000,0.000000:
0000
0000
0000
0000
,
0000
0000
0000
0000
,
0000
0000
0000
0000
,
0000
0000
0000
0000
,
0000
0000
0000
0000
,
0000
0000
0000
0000
,
0010
0000
1000
0000
0001
0100
0001
0010
,
0100
0000
0020
0000
0100
0100
0130
0000
,
0010
0000
0001
0000
1000
0100
1000
0001
,
0100
0000
0020
0000
0100
0100
0130
0000
,
1000
0010
1000
0100
1000
0010
0100
0001
,
1000
0000
0002
0000
0100
0100
0103
0000
,
0010
0000
1000
0000
0001
1000
0001
0010
,
0100
0000
0020
0000
0100
0100
0130
0000
,
1000
0001
1100
0001
,
1010
0000
0100
0000
0001
0000
0100
0001
,
0011
0000
0100
0000
1000
0010
0100
1000
,
0010
1100
0011
0110
,
1010
0000
0100
0000
0001
0010
1000
0001
,
0011
0000
0100
0000
1000
0010
0001
1000
,
1001
0000
0000
1000
0100
1000
0000
0001
,
0010
0001
0000
0100
0010
0100
0010
0000
,
1000
0100
0010
0100
1000
0001
0010
0100
,
0010
0000
0001
0100
1000
0100
0010
0000
,
0001
0100
0010
0100
0001
1000
0010
1000
,
0010
0000
1000
0100
0001
0100
1000
0000
,
0020
0000
0001
0001
,
1000
0100
1030
1001
,
0020
0000
0000
0000
1000
1000
1000
0000
,
0001
0000
0100
0000
0031
1000
1001
0000
,
0010
0000
1000
0100
0010
0100
1000
0010
,
0100
0002
0000
1003
0200
0000
0310
0000
,
0100
2000
0000
3001
0200
0000
0310
0000
,
0100
0002
0000
1003
0200
0000
0310
0000
,
0100
0000
1000
0010
0100
0010
1000
0100
,
0010
0002
0000
1003
0020
0000
0130
0000
,
0010
2000
0000
3001
0020
0000
0130
0000
,
0010
0002
0000
1003
0020
0000
0130
0000
,
0010
0000
1000
0000
0001
0100
0001
0010
,
0100
0000
0020
0000
0100
0100
0130
0000
,
0010
0000
0000
0000
;

//---------------dance-double - ----------------
#NOTES:
     dance-double:
     :
     Easy:
     3:
     0.145881,0.179545,0.000000,0.145881,0.000000,91.000000,91.000000,0.000000,13.000000,0.000000,0.000000,0.145881,0.179545,0.000000,0.145881,0.000000,91.000000,91.000000,0.000000,13.000000,0.000000,0.000000:
00000000
00000000
00000000
00000000
,
00000000
00000000
00000000
00000000
,
00000000
00000000
00000000
00000000
,
00000000
00000000
00000000
00000000
,
00000000
00000000
00000000
00000000
,
00000000
00000000
00000000
00000000
,
00010000
00000000
01000000
00000000
,
00001000
00010000
00000010
00000000
,
00001000
00000000
00000100
00000000
,
00010000
00001000
00100000
00000000
,
00001000
00000000
00001000
00000000
,
00010000
00000000
00010000
00000000
,
00001000
00000000
00000100
00000000
,
00001000
00010000
00000010
00000000
,
00002000
00000000
00003010
00000000
,
00020000
00000000
00030100
00010000
,
00002000
00000000
01003000
00001000
,
00010000
00010000
00001000
00001000
,
00020000
00000000
00030100
00010000
,
00002000
00000000
01003000
00001000
,
00010000
00000000
00000010
00000000
,
00000100
00000000
00001000
00000000
,
00010000
00001000
00100000
00010000
,
01000000
00000000
01000000
00000000
,
00001000
00010000
00000010
00001000
,
00000100
00000000
00000100
00000000
,
00002000
00003000
00000200
00000300
,
00020000
00030000
00002000
00003000
,
00020000
00030000
02000000
03000000
,
00020000
00030000
00002000
00003000
,
00000100
00000100
00000010
00000000
,
00010000
00001000
00010000
00000000
,
00001000
00010000
00001000
00000000
,
00010000
00001000
00010000
00000000
,
01000000
01000000
00100000
00000000
,
00010000
00001000
00010000
00000000
,
00001000
00010000
00001000
00000000
,
00000100
00000001
00001000
00000000
,
00001000
00000000
00000100
00000000
,
00010000
00001000
00100000
00000000
,
01000000
00000000
00000000
00000000
;

//---------------dance-double - ----------------
#NOTES:
     dance-double:
     :
     Medium:
     6:
     0.237256,0.246875,0.067329,0.213210,0.000000,148.000000,142.000000,6.000000,19.000000,0.000000,0.000000,0.237256,0.246875,0.067329,0.213210,0.000000,148.000000,142.000000,6.000000,19.000000,0.000000,0.000000:
00000000
00000000
00000000
00000000
,
00000000
00000000
00000000
00000000
,
00000000
00000000
00000000
00000000
,
00000000
00000000
00000000
00000000
,
00000000
00000000
00000000
00000000
,
00000000
00000000
00000000
00000000
,
00000001
00001000
00000100
00000010
,
00000100
00010000
00001000
00100000
,
00010000
00000000
10000000
00000000
01000000
10000000
00100000
00000000
,
01000000
00001000
00010000
00000010
,
00001000
00000001
00000100
00000000
00000010
00010000
00001000
00000000
,
00100000
00001000
01000000
00100000
,
10000000
00000000
00010000
00000000
01000000
00010000
10000000
00000000
,
01000000
00001000
00010000
00000010
,
00002000
00000000
00000100
00003100
,
00012000
00000000
00000010
00013000
,
00021000
00000000
00100000
00031000
,
00000010
00000001
00000100
00001000
,
00012000
00000000
00000100
00013000
,
00021000
00000000
01000000
00031000
,
00011000
00000000
00000000
00100000
00000000
01000000
00000000
00001000
,
00000000
00010000
00000000
00000100
00000000
00000010
00000000
00000000
,
00000001
00000000
00000001
00000000
00000100
00001000
00010000
00000000
,
00001000
00010000
01000000
00000000
10000000
00000000
00010000
00000000
,
10000000
00000000
10000000
00000000
00100000
00010000
00001000
00000000
,
00010000
00001000
00000010
00000000
00000001
00000000
00001000
00000000
,
00000002
00000103
00000020
00001030
,
00000200
00010300
02000000
13000000
,
20000000
30010000
00200000
00310000
,
02000000
03001000
00000200
00000310
,
00000001
00000200
00000000
00000000
00000010
00000000
00000310
00000000
,
00010000
00000020
00000000
00000000
00001000
00000000
00001030
00000000
,
00010000
00000200
00000000
00000000
00001000
00000000
00001300
00000000
,
00000010
00000000
00010000
00000000
00001000
01000000
00010000
00000000
,
10000000
02000000
00000000
00000000
00100000
00000000
03100000
00000000
,
00001000
00200000
00000000
00000000
00010000
00000000
00310000
00000000
,
00001000
02000000
00000000
00000000
00010000
00000000
03010000
00000000
,
00100000
00001000
00000100
00001001
,
00000001
00001000
00000100
00000010
,
00000100
00000000
00010000
00000000
00001000
00010000
00001000
00010000
,
00001000
00000000
00000000
00000000
;

//---------------dance-double - ----------------
#NOTES:
     dance-double:
     :
     Hard:
     8:
     0.309395,0.359091,0.044886,0.392755,0.000000,193.000000,189.000000,4.000000,35.000000,0.000000,0.000000,0.309395,0.359091,0.044886,0.392755,0.000000,193.000000,189.000000,4.000000,35.000000,0.000000,0.000000:
00000000
00000000
00000000
00000000
,
00000000
00000000
00000000
00000000
,
00000000
00000000
00000000
00000000
,
00000000
00000000
00000000
00000000
,
00000000
00000000
00000000
00000000
,
00000000
00000000
00000000
00000000
,
10000000
00000000
00010000
00000000
00100000
01000000
00100000
00010000
,
01000000
00010000
00001000
00000010
,
00001000
00000000
00000001
00000000
00000010
00000100
00000010
00001000
,
00000100
00001000
00010000
00100000
,
01000000
00010000
10000000
00010000
00100000
00001000
00010000
00000010
,
00000100
00000001
00001000
00000100
,
00000001
00000000
00000000
00000000
00000010
00000100
00000010
00000001
,
00000100
00001000
00010000
00100000
,
10000000
00000000
00000000
00000000
00010000
01000000
00001000
00100000
,
00202000
00000000
00000000
00003000
00301000
00010000
00000100
00000010
,
00002020
00000000
00000000
00003000
00010030
00001000
01000000
00100000
,
00020000
00032000
00003020
00000130
,
00020020
00000000
00000000
00030000
00010030
00001000
01000000
00001000
,
00202000
00000000
00000000
00003000
00301000
00010000
00000100
00001000
,
00000020
00000000
00000000
00010030
00000200
00000000
00010300
00000020
,
00000000
00010030
00002000
00000000
01003000
00000000
00000000
00000000
,
00100000
10000000
00100000
01000000
00100000
00010000
00001000
00000100
,
00000001
00000010
00000001
00000100
00000010
00001000
00000100
00000000
,
00000010
00000001
00000010
00000100
00000001
00001000
00010000
01000000
,
10000000
00100000
10000000
00010000
00100000
00010000
01000000
00000000
,
00002000
00000000
01003000
00100000
00020000
00000000
00031000
00000010
,
00000200
00000000
00000310
00001000
00020000
00000000
00030010
00010000
,
00002000
00000000
01003000
00100000
00020000
00000000
00031000
00010000
,
00000200
00000000
00000310
00001000
00020000
00000000
00030010
00000000
,
00000000
00000100
00000001
00000200
00000000
00000310
00001000
00000020
,
00000000
00010030
00001000
00020000
00000000
01030000
00100000
02000000
,
00000000
03001000
00010000
00002000
00000000
00003100
00000010
00000200
,
00000000
00000310
00000000
00000001
00001000
00000010
00000100
00000000
,
00000000
00001000
00000001
00000200
00000000
00000310
00001000
00000020
,
00000000
00000031
00001000
00020000
00000000
01030000
00100000
02000000
,
00000000
03001000
00010000
00002000
00000000
00003001
00000010
00000200
,
00000000
00000310
00000000
00000001
00000100
00000010
00001000
00000000
,
00000001
00000000
00001000
00000000
00000010
00000100
00000010
00001000
,
00000100
00000000
00001000
00000000
00010000
00000000
00100000
00001000
,
01000000
00000000
00000000
00000000
;

//---------------dance-single - ----------------
#NOTES:
     dance-single:
     :
     Challenge:
     16:
     0.779098,0.965056,0.044886,0.426420,1.228763,486.000000,482.000000,4.000000,38.000000,0.000000,0.000000,0.779098,0.965056,0.044886,0.426420,1.228763,486.000000,482.000000,4.000000,38.000000,0.000000,0.000000:
// measure 0
0000
0000
0000
0000
,  // measure 1
0000
0000
0000
0000
,  // measure 2
0000
0000
0000
0000
,  // measure 3
0000
0000
0000
0000
,  // measure 4
0000
0000
0000
0000
,  // measure 5
0000
0000
0000
0000
,  // measure 6
0100
0000
0001
0100
1000
0000
0010
0000
1000
0010
0001
0000
0100
0000
0010
0000
,  // measure 7
1000
0000
0000
0010
0000
0000
0000
0000
0000
1000
0000
0000
0010
0000
0000
0000
0000
0000
2000
0000
0000
0000
0000
0000
3000
0000
0000
0000
0000
0000
0010
1000
0000
0000
0000
0000
0010
1000
0000
0000
0000
0000
0010
1000
0000
0000
0000
0000
,  // measure 8
0010
0000
0010
0001
0100
0000
0010
0000
1000
0100
0010
0000
0001
0000
0100
0000
,  // measure 9
0010
0000
0000
0100
0000
0000
0000
0000
0000
0010
0000
0000
0100
0000
0000
0000
0000
0000
0020
0000
0000
0000
0000
0000
0030
0000
0000
0000
0000
0000
0100
0010
0000
0000
0000
0000
0100
0010
0000
0000
0000
0000
0100
0010
0000
0000
0000
0000
,  // measure 10
0100
0000
0010
0000
1000
0001
0010
0000
0100
0000
1000
0010
0100
0000
0001
0000
,  // measure 11
0100
0000
0000
0001
0000
0000
0000
0000
0000
0100
0000
0000
0001
0000
0000
0000
0000
0000
0200
0000
0000
0000
0000
0000
0300
0000
0000
0000
0000
0000
0001
0100
0000
0000
0000
0000
0001
0100
0000
0000
0000
0000
0001
0100
0000
0000
0000
0000
,  // measure 12
0001
0000
0100
0000
0010
0100
1000
0000
0100
0000
0010
0001
0100
0000
0001
0000
,  // measure 13
1000
0000
0000
0001
0000
0000
0000
0000
0000
1000
0000
0000
0001
0000
0000
0000
0000
0000
0002
0000
0000
0000
0000
0000
0003
0000
0000
0000
0000
0000
1000
0001
0000
0000
0000
0000
1000
0001
0000
0000
0000
0000
1000
0001
0000
0000
0000
0000
,  // measure 14
1000
0000
0100
0010
1000
0000
0010
0100
0001
0010
0001
1000
0001
0010
0001
0000
,  // measure 15
0011
0000
0001
0100
0010
0000
1000
0010
0100
1000
0100
0001
0100
1000
0100
0000
,  // measure 16
0110
0000
0010
0001
0100
0000
0010
1000
0001
0010
0001
0000
0001
0100
0001
0000
,  // measure 17
1000
0001
0100
0000
0001
0100
1000
0000
0010
0100
0001
0100
0010
0100
1000
0100
,  // measure 18
0010
0000
1000
0010
0100
0000
0010
0001
1000
0010
1000
0001
1000
0010
1000
0000
,  // measure 19
1010
0000
1000
0100
0001
0000
0001
0100
0010
1000
0010
0001
0010
1000
0010
0000
,  // measure 20
0110
0000
0100
0000
1000
0000
0100
0010
0001
0000
0010
0000
1000
0100
0010
0000
,  // measure 21
0001
0000
0010
0000
0100
0000
1000
0000
0010
0000
0100
0000
0001
0000
0010
0000
0200
0000
0300
0000
1000
0010
1000
0000
0100
0000
0010
0000
0001
0000
0100
0000
,  // measure 22
0020
0000
0130
0000
1000
0000
0100
0000
0010
0001
0010
0000
0001
0000
0010
0000
0200
0000
0301
0000
0010
0000
0100
0000
1000
0010
1000
0000
0010
0000
0100
0000
,  // measure 23
0002
0000
0013
0000
0100
0000
0010
0000
1000
0100
1000
0000
0100
0000
0010
0000
0200
0000
0301
0000
0100
0000
1000
0000
0001
0100
0001
0000
0010
0000
0100
0000
,  // measure 24
2000
0000
3100
0000
0010
0000
0001
0000
0100
0001
0100
0000
0001
0000
0010
0000
0200
0000
1300
0000
0010
0000
0100
0000
0001
1000
0001
0000
1000
0000
0010
0000
,  // measure 25
0002
0000
0013
0000
0100
0000
1000
0000
0010
1000
0010
0000
1000
0000
0100
0000
0020
0000
0031
0000
0100
0000
0010
0000
1000
0001
1000
0000
0001
0000
0010
0000
,  // measure 26
2000
0000
3100
0000
0010
0000
0001
0000
0100
0010
0100
0000
0010
0000
1000
0000
0020
0000
0031
0000
0100
0000
0010
0000
1000
0001
1000
0000
0100
0000
0010
0000
,  // measure 27
0002
0000
0013
0000
0100
0000
1000
0000
0010
0100
0010
0000
0100
0000
0001
0000
0020
0000
0130
0000
0010
0000
0100
0000
1000
0001
1000
0001
1000
0000
0001
0000
,  // measure 28
0020
0000
0130
0000
1000
0000
0100
0000
0010
0001
0010
0000
0100
0000
1000
0000
0002
0000
0103
0000
0010
0000
0100
0000
1000
0010
1000
0000
0010
0001
0010
0000
,  // measure 29
0100
0000
0010
0000
0001
0000
0010
0000
1000
0000
0010
0000
0100
0000
0001
0000
0010
0100
0010
0000
0100
0000
0010
0000
1000
0001
1000
0000
0100
0000
0010
0000
,  // measure 30
0001
0010
0001
0000
0010
0001
0010
0000
0001
0010
0001
0000
0010
0001
0010
0000
0100
1000
0100
0000
1000
0100
1000
0000
0100
1000
0100
0000
1000
0100
1000
0000
,  // measure 31
0200
0000
0301
0010
0200
0000
0310
1000
0200
0000
1300
0001
0100
0001
1000
0001
,  // measure 32
0020
0000
1030
0001
0020
0000
0130
1000
0020
0000
0031
0100
0010
0100
1000
0100
,  // measure 33
0002
0000
0103
1000
0002
0000
0013
0100
0002
0000
0103
0010
0001
0010
1000
0010
,  // measure 34
0100
0010
0100
0000
0010
0100
0010
0000
0100
0010
0100
0000
0010
0100
0010
0000
1000
0001
1000
0000
0001
1000
0001
0000
1000
0001
1000
0000
0001
1000
0001
0000
,  // measure 35
2000
0000
3100
0010
0002
0000
0013
0100
2000
0000
3010
0100
0001
0010
1000
0010
,  // measure 36
0200
0000
0310
1000
0002
0000
0013
0100
2000
0000
3010
0100
0001
0010
0100
1000
,  // measure 37
0020
0000
0130
1000
0002
0000
0013
0100
2000
0000
3010
0100
0001
0010
0100
1000
,  // measure 38
0010
0001
0100
0000
1000
0000
0010
0001
0100
0000
0001
0000
0010
0000
1000
0000
,  // measure 39
1000
0000
0010
0000
0000
0000
0100
0000
0010
0000
0000
0000
0002
0000
0000
0000
0003
0000
0000
0000
1000
0001
0000
0000
1000
0001
0000
0000
1000
0001
0000
0000
,  // measure 40
1000
0000
0000
0000
;
