#TITLE:We've Got To Make It Tonight;
#SUBTITLE:;
#ARTIST:Babamars;
#TITLETRANSLIT:;
#SUBTITLETRANSLIT:;
#ARTISTTRANSLIT:;
#GENRE:;
#CREDIT:;
#BANNER:We've Got To Make It Tonight.png;
#BACKGROUND:We've Got To Make It Tonight-bg.png;
#LYRICSPATH:;
#CDTITLE:;
#MUSIC:We've Got To Make It Tonight.ogg;
#OFFSET:0.000000;
#SAMPLESTART:70.389999;
#SAMPLELENGTH:15.000000;
#SELECTABLE:YES;
#DISPLAYBPM:127.000000;
#BPMS:0.000000=127.208008
,4.000000=127.001999
;
#STOPS:
;
#BGCHANGES:;
#KEYSOUNDS:;
#ATTACKS:;

//---------------dance-single - ----------------
#NOTES:
     dance-single:
     :
     Beginner:
     2:
     0.087228,0.128962,0.000000,0.000000,0.000000,58.000000,58.000000,0.000000,0.000000,0.000000,0.000000,0.087228,0.128962,0.000000,0.000000,0.000000,58.000000,58.000000,0.000000,0.000000,0.000000,0.000000:
0000
0000
0000
0000
,
0000
0000
0000
0000
,
0000
0000
0000
0000
,
0001
0000
0000
0000
,
0000
0000
0000
0000
,
1000
0000
0000
0000
,
0000
0000
0000
0000
,
0001
0000
0000
0000
,
0001
0000
0000
0000
,
1000
0000
0000
0000
,
1000
0000
0000
0000
,
0010
0000
0000
0000
,
0010
0000
0000
0000
,
0100
0000
0000
0000
,
0100
0000
0000
0000
,
0001
0000
0000
0000
,
1000
0000
0000
0000
,
0001
0000
0000
0000
,
1000
0000
0000
0000
,
0010
0010
0000
0000
,
0000
0000
0000
0000
,
0100
0100
0000
0000
,
0000
0000
0000
0000
,
0000
0000
0000
0000
,
0001
0000
0000
0000
,
0010
0000
0010
0000
,
1000
0000
0000
0000
,
0010
0000
0010
0000
,
0001
0000
0000
0000
,
0100
0000
0100
0000
,
1000
0000
0000
0000
,
0100
0000
0100
0000
,
0001
0000
0000
0000
,
1000
0000
0001
0000
,
1000
0000
0000
0000
,
0001
0000
1000
0000
,
0001
0000
0000
0000
,
0100
0000
0000
0000
,
1000
0000
0000
0000
,
0010
0000
0000
0000
,
0001
0000
0000
0000
,
1000
0000
0010
0000
,
1000
0000
0010
0000
,
1000
0000
0010
0000
,
1000
0000
1000
0000
,
0001
0000
0100
0000
,
0001
0000
0100
0000
,
0001
0000
0100
0000
,
0001
0000
0100
0000
,
0001
0000
0000
0000
,
0000
0000
0000
0000
;

//---------------dance-single - ----------------
#NOTES:
     dance-single:
     :
     Easy:
     4:
     0.201527,0.257925,0.031583,0.168441,0.000000,134.000000,131.000000,3.000000,16.000000,0.000000,0.000000,0.201527,0.257925,0.031583,0.168441,0.000000,134.000000,131.000000,3.000000,16.000000,0.000000,0.000000:
0000
0000
0000
0000
,
0000
0000
0000
0000
,
0000
0000
0000
0000
,
1000
0001
0020
0030
,
0001
1000
0020
0030
,
1000
0001
0020
0030
,
0001
0000
1000
0000
,
0001
1000
0200
0300
,
1000
0001
0200
0300
,
0001
1000
0200
0300
,
1000
0000
0001
0000
,
0000
0010
0001
0000
,
0000
1000
0001
0000
,
0000
0010
0001
0010
,
1000
1000
0100
0100
,
0000
0010
1000
0000
,
0000
0001
1000
0000
,
0000
0010
1000
0010
,
0001
0001
0100
0100
,
0010
0000
1000
0000
,
0010
1000
0001
0000
,
0001
0000
1000
0000
,
0010
0010
0010
1001
,
0020
0000
0200
0330
,
0001
0000
1000
0000
,
0100
0001
0010
0000
,
0010
0000
0100
0000
,
0001
0100
1000
0001
,
1000
0000
0001
0000
,
0100
1000
0010
0000
,
0010
0000
0100
0000
,
1000
0100
0001
1000
,
0200
0000
0020
0330
,
0001
0010
0001
0000
,
1000
0010
1000
0000
,
0001
0010
0001
0000
,
0100
0000
0100
0000
,
0002
0003
0200
0300
,
2000
3000
0020
0030
,
0002
0003
0200
0300
,
0010
0001
0010
1000
,
0010
1000
0001
0001
,
0010
0001
1000
1000
,
0001
0000
1000
0000
,
0010
0010
0010
1001
,
0010
0001
1000
1000
,
0001
0010
1000
0000
,
0001
0100
1000
0000
,
0001
1000
0001
1000
,
1001
0000
0000
0000
,
0000
0000
0000
0000
;

//---------------dance-single - ----------------
#NOTES:
     dance-single:
     :
     Medium:
     8:
     0.317330,0.335302,0.052638,0.168441,0.000000,211.000000,206.000000,5.000000,16.000000,0.000000,0.000000,0.317330,0.335302,0.052638,0.168441,0.000000,211.000000,206.000000,5.000000,16.000000,0.000000,0.000000:
0000
0000
0000
0000
,
0000
0000
0000
0000
,
0000
0000
0000
0000
,
1000
0100
0001
0000
0200
0000
1300
0000
,
1000
0100
0001
0000
0200
0000
1300
0000
,
1000
0100
0001
0000
0200
0000
1300
0000
,
0001
0010
1000
0010
,
0001
0100
1000
0000
0200
0000
0301
0000
,
0001
0100
1000
0000
0200
0000
0301
0000
,
0001
0100
1000
0000
0200
0000
0301
0000
,
1000
1000
0001
0001
,
0000
0100
0001
1000
,
0000
1000
0001
0010
,
1000
0100
0001
0100
,
1000
0100
1000
0100
0010
0001
0010
0000
,
0000
0100
1000
0001
,
0000
0001
1000
0010
,
0001
0100
1000
0100
,
0001
0100
0001
0100
0010
1000
0010
0000
,
0100
0000
0001
0000
1000
0100
0100
0000
,
0100
0000
1000
0000
0001
0100
0100
0000
,
0001
0001
1000
1000
,
0100
0001
0100
1000
0100
0000
1001
0000
,
0200
0000
0020
0330
,
0001
0010
1000
0000
,
0010
0001
0100
0000
,
0100
0001
0010
1000
,
0001
0010
0001
0010
0100
1000
0001
0000
,
1000
0010
0001
0000
,
0010
1000
0100
0000
,
0100
1000
0010
0001
,
1000
0010
1000
0010
0100
0001
1000
0000
,
0020
0000
0200
0330
,
0001
0100
0001
0000
0010
0000
0100
0000
,
1000
0100
1000
0000
0010
0000
0100
0000
,
0001
0100
1000
0100
,
0010
1001
0010
1001
,
0002
0013
0020
1030
,
2000
3100
0200
0301
,
0002
0013
0020
1030
,
0100
0010
0001
0000
0100
0010
1000
0000
,
0100
0000
1000
0000
0001
0100
0001
0000
,
0100
0000
0001
0000
1000
0100
1000
0000
,
0001
0001
1000
1000
,
0100
0001
0100
1000
0100
0000
1001
0000
,
0100
0000
0001
0000
1000
0100
1000
0000
,
0001
0100
1000
0100
,
0001
0010
1000
0010
,
0001
0100
1000
0100
0001
0000
0010
0000
,
1001
0000
0000
0000
,
0000
0000
0000
0000
;

//---------------dance-single - ----------------
#NOTES:
     dance-single:
     :
     Hard:
     9:
     0.428621,0.464264,0.231606,0.221078,0.000000,285.000000,263.000000,22.000000,21.000000,0.000000,0.000000,0.428621,0.464264,0.231606,0.221078,0.000000,285.000000,263.000000,22.000000,21.000000,0.000000,0.000000:
0000
0000
0000
0000
,
0000
0000
0000
0000
,
0000
0000
0000
0000
,
0001
0100
1000
0100
0002
0000
0013
0000
,
1000
0100
0001
0100
2000
0000
3010
0000
,
0001
0100
1000
0100
0002
0000
0013
0000
,
1100
0100
0100
0000
0101
0100
0100
0000
,
0010
0100
0001
0100
0020
0000
1030
0000
,
0010
0100
1000
0100
0020
0000
0031
0000
,
0010
0100
0001
0100
0020
0000
1030
0000
,
0001
0101
1000
1100
,
0001
0000
0010
0000
1000
0100
0001
0000
,
0010
0000
0001
0000
1000
0010
0100
0000
,
0002
0010
0013
0000
2000
0010
3010
0000
,
0001
0010
0100
1000
0010
0100
0001
0000
,
1000
0000
0010
0000
0001
0100
1000
0000
,
0010
0000
1000
0000
0001
0010
0100
0000
,
2000
0010
3010
0000
0002
0010
0013
0000
,
1000
0010
0100
0001
0010
0100
1000
0000
,
0010
0000
1000
0000
0011
0100
1000
0000
,
0010
0000
0001
0000
1010
0100
0001
0000
,
1000
1000
1000
0000
0001
0001
0001
0000
,
0100
1000
0010
0001
0010
0000
1001
0000
,
0010
0010
0100
0100
,
1000
0000
0100
0000
0001
0010
1000
0000
,
0200
1000
0010
0301
,
0010
1000
0100
0000
0010
0001
0100
0000
,
1000
0100
0100
0001
0100
0010
1000
0000
,
0001
0000
0100
0000
1000
0010
0001
0000
,
0200
0001
0010
1300
,
0010
0001
0100
0000
0010
1000
0100
0000
,
0001
0100
0100
1000
0100
0010
0001
0000
,
0100
0100
0010
0010
,
1000
0010
1000
0010
2000
0100
3100
0000
,
0001
0010
0001
0010
0002
0100
0103
0000
,
1000
0010
1000
0010
2000
0100
3100
0000
,
0110
1001
0110
1001
,
2000
0100
3100
0000
0200
0001
0301
0000
,
0002
0010
0013
0000
0020
1000
1030
0000
,
2000
0100
3100
0000
0200
0001
0301
0000
,
0010
0100
1000
0010
0100
0001
1000
0000
,
0010
0000
0001
0000
1010
0100
0001
0000
,
0010
0000
1000
0000
0011
0100
1000
0000
,
0101
0001
0001
0000
1100
1000
1000
0000
,
0100
0001
0010
1000
0010
0000
1001
0000
,
0010
0000
1000
0000
0011
0100
1000
0000
,
1010
0010
0010
0000
0011
0010
0010
0000
,
1100
1000
1000
0000
0101
0001
0001
0000
,
0100
1000
0010
0001
0010
1000
0100
0000
,
1001
0000
0000
0000
,
0000
0000
0000
0000
;

//---------------dance-double - ----------------
#NOTES:
     dance-double:
     :
     Easy:
     5:
     0.181976,0.206340,0.010528,0.000000,0.000000,121.000000,120.000000,1.000000,0.000000,0.000000,0.000000,0.181976,0.206340,0.010528,0.000000,0.000000,121.000000,120.000000,1.000000,0.000000,0.000000,0.000000:
00000000
00000000
00000000
00000000
,
00000000
00000000
00000000
00000000
,
00000000
00000000
00000000
00000000
,
00100000
10000000
01000000
00000000
,
00010000
00000000
00001000
00000000
,
00000010
00000001
00000100
00000000
,
00001000
00001000
00010000
00010000
,
01000000
10000000
00100000
00000000
,
00010000
00000000
00001000
00000000
,
00000100
00000001
00000010
00000000
,
00001000
00001000
00010000
00010000
,
00100000
00000000
10000000
00000000
,
00010000
00000000
01000000
00000000
,
00100000
00000000
00010000
00000000
,
00001000
00010000
00001000
00010000
,
00000010
00000000
00000001
00000000
,
00001000
00000000
00000100
00000000
,
00000010
00000000
00001000
00000000
,
00010000
00001000
00010000
00001000
,
00010000
01000000
10000000
00000000
,
00001000
00000000
00010000
00000000
,
00001000
00000100
00000001
00000000
,
00010000
00000000
00001000
00000000
,
00010000
00000000
00001000
00000000
,
01000000
00000000
00000000
00000000
,
00010000
10000000
00100000
00000000
,
01000000
00000000
00010000
00000000
,
00001000
00001000
00010000
00010000
,
00000100
00000000
00000000
00000000
,
00001000
00000001
00000010
00000000
,
00000100
00000000
00001000
00000000
,
00010000
00010000
00001000
00001000
,
00010000
00000000
00001000
00000000
,
00100000
10000000
01000000
00000000
,
00010000
00000000
00001000
00000000
,
00000010
00000001
00000100
00000000
,
00001000
00001000
00010000
00010000
,
00001000
00000000
00010000
00000000
,
10000000
00000000
00010000
00000000
,
00010000
00000000
00001000
00000000
,
00000001
00000000
00001000
00000000
,
00001000
00000100
00000001
00000000
,
00010000
00000000
00001000
00000000
,
00010000
01000000
10000000
00000000
,
00001000
00001000
00010000
00010000
,
00001000
00000100
00000001
00000000
,
00010000
00000000
00001000
00000000
,
00100000
00000000
00010000
00000000
,
10000000
00000000
00100000
00000000
,
10010000
00000000
00000000
00000000
,
00000000
00000000
00000000
00000000
;

//---------------dance-double - ----------------
#NOTES:
     dance-double:
     :
     Medium:
     7:
     0.299283,0.309510,0.073693,0.063165,0.000000,199.000000,192.000000,7.000000,6.000000,0.000000,0.000000,0.299283,0.309510,0.073693,0.063165,0.000000,199.000000,192.000000,7.000000,6.000000,0.000000,0.000000:
00000000
00000000
00000000
00000000
,
00000000
00000000
00000000
00000000
,
00000000
00000000
00000000
00000000
,
00000100
00000001
00000010
00000000
00001000
00000000
00010000
00000000
,
01000000
10000000
00100000
00000000
00010000
00000000
00001000
00000000
,
00000010
00000001
00000100
00000000
00001000
00000000
00010000
00000000
,
00100000
10000000
01000000
00010000
,
00000010
00000001
00000100
00000000
00001000
00000000
00010000
00000000
,
00100000
10000000
01000000
00000000
00010000
00000000
00001000
00000000
,
00000100
00000001
00000010
00000000
00001000
00000000
00010000
00000000
,
01000000
10000000
00100000
00010000
,
00001000
00000001
00000100
00000000
,
00000010
00000100
00001000
00000010
,
00000100
00001000
00010000
00000000
,
00001000
00010000
00100000
00000000
00100000
10000000
01000000
00000000
,
00010000
10000000
01000000
00000000
,
00100000
01000000
00010000
00100000
,
01000000
00010000
00001000
00000000
,
00010000
00001000
00000010
00000000
00000010
00000001
00000100
00000000
,
00001000
00000000
00000010
00000000
00000001
00000100
00001000
00000000
,
00010000
00000010
00001000
00010000
,
00010000
00000000
00100000
00000000
10000000
01000000
00010000
00000000
,
00001000
00100000
00010000
00001000
,
00020000
00000000
00002000
00033000
,
00000010
00001000
00001001
00000000
,
00001000
00000001
00000110
00000000
,
00000010
00001000
00010000
00100000
,
10000000
00000000
10000000
00000000
00100000
00001000
01000000
00000000
,
00100000
00010000
10010000
00000000
,
00010000
10000000
01100000
00000000
,
00100000
00010000
00001000
00000010
,
00000001
00000000
00000001
00000000
00000010
00010000
00000100
00000000
,
00002000
00000000
00020000
00033000
,
00010000
01000000
10000000
00000000
01000000
00000000
00010000
00000000
,
00001000
00000100
00000001
00000000
00000100
00000000
00001000
00000000
,
00010000
00100000
10000000
01000000
,
00001000
00001000
00010000
00010000
,
00001000
00000001
00001000
00011000
,
00010000
10000000
00010000
00011000
,
00000010
00000001
00000100
00001000
,
00020000
00000000
00002000
00033000
,
00100000
00000000
10000000
00000000
01000000
00010000
00001000
00000000
,
00000010
00000000
00000001
00000000
00000100
00001000
00010000
00000000
,
00100000
00000000
10000000
00000000
01000000
00010000
00001000
00000000
,
00010000
00010000
00001000
00001000
,
00000100
00000000
00000001
00000000
00000010
00001000
00010000
00000000
,
01000000
01000000
10000000
10000000
,
00100000
00100000
00010000
00010000
,
00001000
00000000
00000100
00000000
00000001
00000010
00000100
00000000
,
00001001
00000000
00000000
00000000
,
00000000
00000000
00000000
00000000
;

//---------------dance-double - ----------------
#NOTES:
     dance-double:
     :
     Hard:
     9:
     0.427117,0.464264,0.231606,0.063165,0.000000,284.000000,262.000000,22.000000,6.000000,0.000000,0.000000,0.427117,0.464264,0.231606,0.063165,0.000000,284.000000,262.000000,22.000000,6.000000,0.000000,0.000000:
00000000
00000000
00000000
00000000
,
00000000
00000000
00000000
00000000
,
00000000
00000000
00000000
00000000
,
00000010
00000001
00000100
00001000
00020000
00000000
00031000
00000000
,
00100000
10000000
01000000
00010000
00002000
00000000
00013000
00000000
,
00000100
00000001
00000010
00001000
00020000
00000000
00031000
00000000
,
00010010
01001000
00110000
11000000
,
00100000
10000000
01000000
00010000
00002000
00000000
00013000
00000000
,
00000010
00000001
00000100
00001000
00020000
00000000
00031000
00000000
,
01000000
10000000
00100000
00010000
00002000
00000000
00013000
00000000
,
00101000
00010100
00001010
00000101
,
00001000
00000000
00000010
00000000
00000001
00000100
00001000
00000000
,
00010000
01000000
10000000
00000000
00010000
00000000
00100000
00000000
,
00001000
00010000
00100000
00000000
01000000
00010000
00100000
00000000
,
01000000
00010000
00001000
00010000
00001000
00000100
00000001
00000000
,
00001000
00000000
00000100
00000000
00000001
00000010
00001000
00000000
,
00010000
00100000
10000000
00000000
00010000
00000000
01000000
00000000
,
00001000
00010000
01000000
00000000
00100000
00010000
01000000
00000000
,
00100000
00010000
00001000
00010000
00001000
00000010
00000001
00000000
,
00001000
00000000
00000010
00000000
00011000
00100000
00010000
00000000
,
10000000
00000000
00100000
00000000
01100000
10000000
00010000
00000000
,
00100000
00010000
00100000
00000000
01000000
10000000
01000000
00000000
,
00100000
01000000
00001000
00010000
00000100
00000010
00000001
00000000
,
00000010
00000010
00000100
00000100
,
00001000
00000000
00000010
00000000
00000100
00001000
00010000
00000000
,
00000010
00001000
00010000
00000000
01000000
00000000
10000000
00000000
,
00100000
00001000
01000000
00000000
00010000
10000000
00100000
00000000
,
01000000
00010000
00001000
00010000
00000010
00000100
00000001
00000000
,
00001000
00000000
00000100
00000000
00000010
00001000
00010000
00000000
,
00000100
00001000
00010000
00000000
00100000
00000000
10000000
00000000
,
01000000
00001000
00100000
00000000
00010000
10000000
01000000
00000000
,
00100000
00010000
00001000
00010000
00000100
00000010
00000001
00000000
,
00000100
00000100
00000010
00000010
,
00001000
00000010
00000001
00000010
00001000
00000000
00010000
00000000
,
00010000
00100000
10000000
00100000
00010000
00000000
00001000
00000000
,
00001000
00000100
00000001
00000100
00001000
00000000
00000100
00000000
,
00000110
00011000
01100000
10010000
,
00100000
10000000
00100000
00000000
01000000
00001000
01000000
00000000
,
00010000
00000010
00010000
00000000
00000100
00001000
00000100
00000000
,
00000010
00000001
00000100
00000000
00000010
00001000
00000100
00000000
,
00010000
00001000
00000100
00001000
00010000
00100000
10000000
00000000
,
00010000
00000000
00100000
00000000
00011000
00000010
00001000
00000000
,
00000001
00000000
00000010
00000000
00000110
00000001
00001000
00000000
,
00000010
00001000
00000010
00000000
00000100
00000001
00000100
00000000
,
00000010
00000100
00010000
00001000
01000000
00100000
10000000
00000000
,
00010000
00000000
00100000
00000000
00011000
00000010
00001000
00000000
,
00000011
00000010
00000010
00000000
00001010
00000010
00000010
00000000
,
00010100
00000100
00000100
00000000
00101000
00100000
00100000
00000000
,
00010000
00100000
10000000
01000000
00100000
00001000
00010000
00000000
,
00011000
00000000
00000000
00000000
,
00000000
00000000
00000000
00000000
;

//---------------dance-single - ----------------
#NOTES:
     dance-single:
     :
     Challenge:
     15:
     0.824156,0.855494,0.347409,0.252661,0.968533,548.000000,515.000000,33.000000,24.000000,136.000000,0.000000,0.824156,0.855494,0.347409,0.252661,0.968533,548.000000,515.000000,33.000000,24.000000,136.000000,0.000000:
// measure 0
0000
0000
0000
0000
,  // measure 1
0000
0000
0000
0000
,  // measure 2
0000
0000
0000
0000
,  // measure 3
1000
0100
0010
0100
1000
0100
0010
0100
1000
0100
0010
0100
1000
0000
MMMM
0000
,  // measure 4
0001
0010
0100
0010
0001
0010
0100
0010
0001
0010
0100
0010
0001
0000
MMMM
0000
,  // measure 5
0100
0010
1000
0010
0100
0010
1000
0010
0100
0010
1000
0010
0100
0000
MMMM
0000
,  // measure 6
0001
0100
0010
0100
0001
0100
0010
0100
0001
0000
0010
0100
0000
0110
0000
0000
,  // measure 7
1000
0100
0010
0001
1000
0100
0010
0001
1000
0010
0100
0001
1000
0000
MMMM
0000
,  // measure 8
0001
0100
0010
1000
0001
0100
0010
1000
0001
0010
0100
1000
0010
0000
MMMM
0000
,  // measure 9
0100
0001
1000
0010
0001
0100
0010
1000
0001
0010
0100
1000
0010
0000
MMMM
0000
,  // measure 10
0010
2000
0000
0000
0000
0000
3100
0020
0000
0000
0000
0000
0031
0200
0000
0000
0000
0000
0310
0000
0000
0002
0000
0000
,  // measure 11
1003
0000
0100
0000
0010
0001
1000
0010
0001
0100
0010
1000
0100
0000
MMMM
0000
,  // measure 12
1010
0000
0010
0000
1000
0010
0001
0100
0010
1000
0100
0010
0001
0000
MMMM
0000
,  // measure 13
0101
0000
0100
0000
0010
1000
0001
0010
0100
1000
0010
0100
0001
0000
MMMM
0000
,  // measure 14
1000
0100
0010
0000
1000
0100
0001
0000
1000
0010
0100
0000
1000
0010
0001
0100
,  // measure 15
1000
0010
0100
0001
1000
0100
0010
0001
0100
0010
1000
0001
0010
0000
MMMM
0000
,  // measure 16
0001
0010
0100
1000
0010
0100
0001
1000
0100
0010
0001
1000
0010
0000
MMMM
0000
,  // measure 17
0010
0100
0001
1000
0100
0010
0001
0100
0010
1000
0001
0010
0100
0000
MMMM
0000
,  // measure 18
1100
0000
1010
0000
0110
0000
0100
0001
0010
0000
0110
0000
1001
0000
MMMM
0000
,  // measure 19
0010
0001
0100
1000
0100
0001
0010
1000
0100
0010
0001
0100
0010
0000
MMMM
0000
,  // measure 20
1000
0010
0100
0001
1000
0100
0010
0001
0100
1000
0010
0100
0001
0000
MMMM
0000
,  // measure 21
0001
0010
0100
1000
0001
0100
0010
1000
0010
0001
0100
0010
1000
0000
MMMM
0000
,  // measure 22
0100
0010
1000
0001
0010
0000
1000
0000
0100
0000
1000
0000
0010
0100
1000
0100
,  // measure 23
0001
0010
0100
1000
0010
0000
0001
0000
0100
0000
0010
0000
1000
0010
0100
0001
,  // measure 24
2000
0000
0010
0000
0100
0000
0001
0000
0100
0000
3100
0000
MMMM
0000
1000
0010
,  // measure 25
0200
0000
0010
0000
1000
0000
0001
0000
0010
0000
0310
0000
MMMM
0000
0100
0001
,  // measure 26
0020
0000
0001
0000
0100
0000
1000
0000
0001
0000
0031
0000
MMMM
0000
1000
0010
,  // measure 27
0002
0000
0100
0000
1000
0000
0010
0000
1000
0000
1003
0000
MMMM
0000
0010
0100
,  // measure 28
0002
0000
0023
0000
0230
0000
2300
0000
3020
0000
0130
0000
MMMM
0000
1000
0100
,  // measure 29
0020
0000
0032
0000
0203
0000
0320
0000
2030
0000
3001
0000
MMMM
0000
0001
0100
,  // measure 30
0010
0000
1010
0000
1001
0000
0011
0000
0110
0000
0101
0000
MMMM
0000
1000
0001
,  // measure 31
0010
0000
0011
0000
1001
0000
1010
0000
1100
0000
0110
0000
MMMM
0000
0100
0001
,  // measure 32
1000
0000
1001
0000
0011
0000
0110
0000
1100
0000
1010
0000
MMMM
0000
0010
0100
,  // measure 33
0001
0010
0100
0010
0001
0010
0100
0010
0001
0010
0100
0010
0001
0000
MMMM
0000
,  // measure 34
1000
0010
0100
0010
1000
0010
0100
0010
1000
0010
0100
0010
1000
0000
MMMM
0000
,  // measure 35
0100
1000
0100
0001
0100
1000
0100
0001
0100
1000
0100
0001
0100
0000
MMMM
0000
,  // measure 36
1000
0010
0001
0100
1000
0100
0001
0010
1000
0010
0001
0100
1000
0000
0010
0000
,  // measure 37
0001
0000
0100
0010
1000
0000
0100
0000
0010
0000
1000
0100
0010
0000
0001
0000
,  // measure 38
1000
0000
0010
1000
0100
0000
0010
0000
0001
0000
1000
0100
0010
0000
0001
0000
,  // measure 39
0100
0000
0001
0010
1000
0000
0100
0000
0010
0000
1000
0010
0001
0000
0100
0000
,  // measure 40
0010
0000
1000
0001
0010
0001
0100
0000
0101
0000
1100
0000
MMMM
0000
1010
0000
,  // measure 41
0010
1000
0100
0010
0001
0000
0010
0000
MMMM
0000
0120
0000
1030
0000
0010
0100
,  // measure 42
0001
1000
0100
0010
0001
0000
0100
0000
MMMM
0000
0210
0000
0301
0000
0010
0001
,  // measure 43
0100
0010
1000
0100
0010
0000
0001
0000
MMMM
0000
2001
0000
3010
0000
1000
0010
,  // measure 44
0100
0000
1000
0000
0001
0010
0100
1000
0010
0000
0100
0000
1000
0100
0010
0001
,  // measure 45
0100
0010
1000
0001
0010
0000
0100
0000
MMMM
0000
0012
0000
0103
0000
1000
0001
,  // measure 46
0010
0001
0100
0010
1000
0000
1010
0000
1001
0000
0011
0000
0001
0010
0100
1000
,  // measure 47
0010
0100
0001
0100
0010
0100
0001
0100
0010
0100
1000
0100
0010
0100
1000
0100
,  // measure 48
0001
1000
0100
1000
0001
1000
0100
1000
0100
0001
0010
0100
1000
0010
0100
0002
,  // measure 49
2000
0000
0000
3003
MMMM
0000
0000
0000
0000
0000
0000
0000
0000
0000
0000
0000
;
