#TITLE:WE'RE ALL IN THIS TOGETHER;
#SUBTITLE:;
#ARTIST:HIGH SCHOOL MUSICAL;
#TITLETRANSLIT:;
#SUBTITLETRANSLIT:;
#ARTISTTRANSLIT:;
#GENRE:;
#CREDIT:;
#BANNER:WE'RE ALL IN THIS TOGETHER.png;
#BACKGROUND:WE'RE ALL IN THIS TOGETHER-bg.png;
#LYRICSPATH:;
#CDTITLE:;
#MUSIC:WE'RE ALL IN THIS TOGETHER.mp3;
#OFFSET:-0.191000;
#SAMPLESTART:58.296001;
#SAMPLELENGTH:15.000000;
#SELECTABLE:YES;
#DISPLAYBPM:115.000000:116.000000;
#BPMS:0.000000=117.000000
,4.000000=116.000000
;
#STOPS:
;
#BGCHANGES:0.000=WE'RE ALL IN THIS TOGETHER.avi=1.000=0=0=0=StretchNoLoop====,
99999=-nosongbg-=1.000=0=0=0 // don't automatically add -songbackground-
;
#KEYSOUNDS:;
#ATTACKS:;

//---------------dance-single - ----------------
#NOTES:
     dance-single:
     :
     Beginner:
     2:
     0.111142,0.141812,0.019696,0.000000,0.000000,79.000000,77.000000,2.000000,0.000000,0.000000,0.000000,0.111142,0.141812,0.019696,0.000000,0.000000,79.000000,77.000000,2.000000,0.000000,0.000000,0.000000:
0000
0000
0000
0000
,
0000
0000
0000
0000
,
0000
0000
0000
0000
,
0000
1000
0000
0001
,
0000
0010
0000
0010
,
0000
0010
0010
0010
,
0000
0100
0000
0100
,
0000
0100
0100
0100
,
0000
1000
0000
0001
,
0000
1000
1000
1000
,
0000
0010
0000
0001
,
0000
0100
0100
0100
,
0000
0010
0000
0000
,
0000
1000
0000
0000
,
0000
0001
0000
0000
,
0000
1001
0000
0000
,
0000
1000
0000
0000
,
0000
0010
0000
0000
,
0000
0001
0000
0000
,
0000
0100
0000
0100
,
0100
0100
0000
0000
,
0000
0010
0000
0000
,
0000
1000
0000
0001
,
0000
1000
0000
1000
,
1000
1000
0000
0010
,
0000
0001
0000
0010
,
0000
1000
0000
0100
,
0000
0010
0000
0000
,
0000
0001
0000
0000
,
0000
1000
0000
0000
,
0000
0010
0000
0100
,
0000
0010
0000
0100
,
0000
1000
0000
0000
,
0000
0001
0000
0000
,
0000
0100
0000
0010
,
0000
0001
0000
1000
,
0000
0010
0000
0000
,
0000
0100
0000
0000
,
0000
1000
0000
0001
,
0000
0100
0000
1000
,
0000
0010
0000
0000
,
0000
0100
0000
0000
,
0000
0001
0000
0010
,
0000
0100
0100
0100
,
0000
1000
0000
0000
,
0000
0001
0000
0000
,
0000
0010
0000
0100
,
0000
0010
0000
0000
,
0110
0000
0000
0000
;

//---------------dance-single - ----------------
#NOTES:
     dance-single:
     :
     Easy:
     4:
     0.203995,0.212718,0.019696,0.000000,0.000000,145.000000,143.000000,2.000000,0.000000,0.000000,0.000000,0.203995,0.212718,0.019696,0.000000,0.000000,145.000000,143.000000,2.000000,0.000000,0.000000,0.000000:
0000
0000
0000
0000
,
0000
0000
0000
0000
,
0000
0001
0000
1000
,
0000
0100
0100
0010
,
0010
0001
0000
1000
,
0100
1000
0000
0010
,
0100
0001
0000
1000
,
0100
1000
0000
0010
,
0100
1000
0000
0001
,
0100
0001
0000
1000
,
0010
0100
0000
0001
,
0000
0010
0000
0100
,
1000
0001
0001
0100
,
0000
0010
0100
0010
,
1000
0100
0010
0100
,
0001
0000
1000
0001
,
1000
0010
0100
0001
,
1001
0000
0100
0000
,
0010
1000
0100
1000
,
0001
0100
0000
0100
,
0100
0010
0100
0001
,
1000
0000
0100
1000
,
0010
0001
0000
0100
,
1000
0001
0000
1000
,
0001
1000
0100
0010
,
0110
0000
1000
0000
,
0001
0100
0010
1000
,
0100
0001
0000
1000
,
0000
0001
0001
1000
,
0100
0000
1000
0000
,
0001
0000
0010
0000
,
0100
1000
0100
0010
,
0001
1000
1000
0100
,
0001
0000
0010
0000
,
0100
0000
0010
0000
,
1000
0100
0001
0100
,
1000
0010
0010
0100
,
0010
0000
1000
0000
,
0100
0000
0001
0000
,
1000
0010
0100
0001
,
0010
0100
0100
1000
,
0001
0000
0100
0000
,
0010
0000
1000
0000
,
0001
0100
1000
0010
,
0100
0001
0001
1000
,
0000
0100
0100
0010
,
0000
0001
0001
0100
,
1000
1000
0100
0001
,
0001
0000
0000
0000
;

//---------------dance-single - ----------------
#NOTES:
     dance-single:
     :
     Medium:
     7:
     0.271525,0.308059,0.098480,0.128025,0.000000,193.000000,183.000000,10.000000,13.000000,0.000000,0.000000,0.271525,0.308059,0.098480,0.128025,0.000000,193.000000,183.000000,10.000000,13.000000,0.000000,0.000000:
0000
0000
0000
0000
,
0000
0000
0000
0000
,
0000
0000
0000
0000
,
0000
1001
0000
0110
,
1001
0100
0010
1000
,
0000
0000
0001
0000
1000
0000
0010
0100
,
0010
1000
0100
0001
,
0000
0000
1000
0000
0001
0000
0100
1000
,
0100
0010
1000
0001
,
0000
0000
0010
0000
0100
0000
0010
0001
,
0010
1000
0010
0100
,
0000
0000
0001
0000
1000
0000
0001
1000
,
0001
0000
1001
0000
0100
1000
0010
0000
,
0110
0001
0010
0100
,
1000
0000
0001
0000
0100
0001
0010
0000
,
0110
0000
1000
0000
0001
0000
1000
0001
,
1000
0010
0100
1000
,
1001
0000
1000
0100
0010
0000
0100
0000
,
1000
0001
1000
0100
,
0010
0000
0001
0000
1000
0000
0100
0010
,
0001
1000
0001
0100
,
0110
1000
0001
0010
,
0100
1000
0010
1000
,
0100
0020
0030
0100
,
0010
1000
0001
0010
,
0110
0001
1000
0010
,
0100
0000
0010
0000
1000
0000
0001
1000
,
0100
0020
0000
0030
,
0000
1000
1000
0002
,
0000
1003
0001
2000
,
3100
0100
1000
0010
,
0100
0001
2000
3001
,
0000
0001
0001
2000
,
0000
3001
1000
0002
,
0103
0100
0001
1000
,
0100
0010
0002
1003
,
0000
2000
3010
0002
,
0103
0010
1000
0100
,
0010
0000
0001
1000
0100
0000
0010
0000
,
0010
0000
0100
0000
1000
0000
0010
0100
,
0010
1000
1000
0002
,
0000
1003
0001
2000
,
3100
0000
0010
0000
0100
0000
0010
0001
,
0010
0000
0100
0000
1000
0000
0010
0100
,
0010
0000
1001
0000
0100
0000
0010
1000
,
0010
0100
0001
0020
,
0130
1000
0001
1000
,
0100
0100
0010
0000
0001
0000
0100
0000
,
0010
0100
0000
0000
0000
0000
0000
0000
;

//---------------dance-single - ----------------
#NOTES:
     dance-single:
     :
     Hard:
     10:
     0.422059,0.402847,0.206809,0.196961,0.024620,300.000000,279.000000,21.000000,20.000000,0.000000,0.000000,0.422059,0.402847,0.206809,0.196961,0.024620,300.000000,279.000000,21.000000,20.000000,0.000000,0.000000:
0000
0000
0000
0000
,
0000
0000
0000
0000
,
0000
0000
0000
0000
,
0000
0001
0001
0000
0000
1000
1000
0100
,
0010
0000
0000
1000
0100
1000
0000
0001
,
0100
0001
0000
0010
0100
0010
0001
1000
,
0001
0000
0000
1000
0010
1000
0000
0001
,
0100
0001
0000
0010
0001
0010
0100
1000
,
0100
1000
1001
0100
0010
0100
0000
0010
,
1000
0010
0000
0001
0100
0001
0010
0010
,
0100
1000
1001
0100
0001
0100
0000
0100
,
0010
0100
0000
0010
1000
0010
0100
0100
,
0001
1000
0200
0000
1000
1300
0010
0100
,
0001
0000
1001
0000
0100
0010
0000
0010
,
1000
0100
1001
0000
0100
1000
0010
0100
,
0002
0000
0010
0000
0103
0000
0100
0001
,
0010
0100
1001
0000
0010
1000
0100
0000
,
0110
0000
1001
0000
1000
0100
0000
0100
,
1000
0001
0110
0000
0010
0001
0010
0100
,
2000
0000
0000
0000
0010
0000
0000
0000
3100
0000
1000
0000
0001
0000
1000
0001
,
0000
0010
0100
0000
1000
0001
2000
0000
,
3010
0000
0110
0000
0001
1000
0000
1000
,
0100
0010
0000
0000
1001
0000
0010
0000
0001
0000
0010
0000
0100
0000
1000
0000
,
0001
0200
1000
0010
,
0310
0100
1001
0000
0010
0001
0100
0010
,
1000
0000
0110
0000
1000
0001
0000
0001
,
0100
0001
0000
0000
0110
0000
0010
0000
1000
0000
0100
0000
0010
0000
0100
0000
,
1000
0001
0200
0000
0320
0000
2030
0000
,
3001
1000
1002
0000
0103
0020
0000
0000
,
1030
0100
1000
0010
0100
0010
0000
1002
,
0000
1003
0000
0100
1000
0010
0000
0100
,
0001
0010
0000
0100
1000
0100
0010
0001
,
0100
0100
0020
0000
1030
0002
0000
0000
,
1003
0100
0010
0001
0100
0010
0000
2001
,
0000
3010
0000
0100
0001
1000
0000
0100
,
1000
0001
0000
0100
0010
1000
0001
0010
,
0100
0100
2001
0000
3010
0200
0000
0000
,
0301
0010
0001
0100
0010
0100
0000
2001
,
0000
3001
0000
0010
0001
0100
0000
0010
,
1000
0100
0000
0010
0001
0010
0100
1000
,
0010
0010
0200
0000
0301
2000
0000
0000
,
3001
0010
0100
1000
0010
0100
0000
1002
,
0000
0103
0000
0010
1000
0001
0000
0010
,
0001
1000
0000
0010
0100
0001
1000
0100
,
0010
0000
0010
0000
1001
0000
0000
0000
0110
0000
0000
0000
0010
0000
0000
1000
,
0100
0000
0000
0000
0001
0000
0100
0000
0010
0000
1000
0000
0010
0000
1000
0001
,
0000
0000
0100
0010
1000
0100
0010
0100
,
1000
0001
0100
0010
1000
0001
0100
0010
,
1000
0001
0000
0000
0000
0000
0000
0000
;

//---------------dance-double - ----------------
#NOTES:
     dance-double:
     :
     Easy:
     3:
     0.203995,0.212718,0.019696,0.000000,0.000000,145.000000,143.000000,2.000000,0.000000,0.000000,0.000000,0.203995,0.212718,0.019696,0.000000,0.000000,145.000000,143.000000,2.000000,0.000000,0.000000,0.000000:
00000000
00000000
00000000
00000000
,
00000000
00000000
00000000
00000000
,
00000000
00001000
00000000
00000100
,
00000000
00000001
00000001
00000100
,
00000100
00000010
00000000
00010000
,
00001000
00010000
00000000
00001000
,
01000000
00100000
00000000
10000000
,
00010000
10000000
00000000
00100000
,
00010000
01000000
00000000
00001000
,
00010000
00001000
00000000
00010000
,
00000100
00000010
00000000
00000001
,
00000000
00000010
00000000
00000100
,
00001000
00000010
00000010
00000100
,
00000000
00000001
00000010
00000001
,
00000100
00000010
00000100
00001000
,
00010000
00000000
00001000
00010000
,
00001000
00100000
00010000
01000000
,
01100000
00000000
10000000
00000000
,
00010000
00100000
01000000
00100000
,
00001000
00010000
00000000
00000100
,
00000100
00001000
00000010
00000100
,
00000001
00000000
00001000
00000100
,
00000010
00000001
00000000
00001000
,
00000100
00010000
00000000
00001000
,
00010000
00001000
00100000
01000000
,
01100000
00000000
00010000
00000000
,
10000000
00100000
01000000
00010000
,
00100000
00001000
00000000
00010000
,
00000000
00000100
00000100
00000010
,
00000001
00000000
00001000
00000000
,
00000010
00000000
00000100
00000000
,
00010000
01000000
00100000
10000000
,
01000000
10000000
10000000
00010000
,
01000000
00000000
00001000
00000000
,
00010000
00000000
00000010
00000000
,
00000100
00000010
00001000
00000100
,
00000001
00000100
00000100
00000010
,
00000001
00000000
00000010
00000000
,
00001000
00000000
00010000
00000000
,
01000000
10000000
00100000
10000000
,
00010000
00100000
00100000
01000000
,
00010000
00000000
00100000
00000000
,
00001000
00000000
00010000
00000000
,
00000100
00001000
00000001
00001000
,
00000010
00000100
00000100
00000001
,
00000000
00001000
00001000
00000100
,
00000000
00010000
00010000
00001000
,
00100000
00100000
00010000
01000000
,
01000000
00000000
00000000
00000000
;

//---------------dance-double - ----------------
#NOTES:
     dance-double:
     :
     Medium:
     4:
     0.270118,0.308059,0.098480,0.128025,0.000000,192.000000,182.000000,10.000000,13.000000,0.000000,0.000000,0.270118,0.308059,0.098480,0.128025,0.000000,192.000000,182.000000,10.000000,13.000000,0.000000,0.000000:
00000000
00000000
00000000
00000000
,
00000000
00000000
00000000
00000000
,
00000000
00000000
00000000
00000000
,
00000000
00001100
00000000
00011000
,
00001100
00000000
00000010
00000100
,
00000000
00000000
00010000
00000000
00001000
00000000
01000000
00100000
,
01000000
00010000
01000000
10000000
,
00000000
00000000
01000000
00000000
00100000
00000000
10000000
01000000
,
10000000
01000000
00100000
00010000
,
00000000
00000000
00001000
00000000
00000100
00000000
00000010
00000001
,
00000010
00000100
00001000
00000010
,
00000000
00000000
00000100
00000000
00000001
00000000
00001000
00000100
,
00001000
00000000
00001100
00000000
00010000
00001000
00010000
00000000
,
00011000
00001000
01000000
00100000
,
01000000
00000000
00010000
00000000
00100000
01000000
10000000
00000000
,
10010000
00000000
01000000
00000000
00100000
00000000
00001000
00010000
,
00001000
00000100
00000010
00000100
,
00000110
00000000
00001000
00000100
00000010
00000000
00000001
00000000
,
00001000
00000010
00001000
00000100
,
00010000
00000000
00001000
00000000
00100000
00000000
00010000
10000000
,
01000000
10000000
00100000
01000000
,
01010000
00100000
00001000
00010000
,
00001000
00000100
00000010
00001000
,
00000100
00000020
00000030
00000001
,
00001000
00000001
00000100
00000010
,
00000110
00000001
00000100
00000010
,
00010000
00000000
00001000
00000000
00010000
00000000
01000000
00100000
,
00010000
02000000
00000000
03000000
,
00000000
00100000
00100000
20000000
,
00000000
31000000
00100000
00020000
,
01030000
01000000
00001000
00010000
,
00000100
00010000
00002000
00003100
,
00000000
00000010
00000010
00002000
,
00000000
00003001
00000010
00000200
,
00001300
00000010
00000100
00000001
,
00000100
00001000
00020000
00130000
,
00000000
20000000
30010000
20000000
,
31000000
00100000
00010000
01000000
,
00001000
00000000
00100000
00001000
00010000
00000000
00000100
00000000
,
00000100
00000000
00000010
00000000
00000001
00000000
00001000
00000100
,
00001000
00000010
00000010
00000200
,
00000000
00000310
00001000
00000200
,
00010300
00000000
00001000
00000000
00010000
00000000
01000000
00100000
,
01000000
00000000
10000000
00000000
00100000
00000000
01000000
00010000
,
01000000
00000000
00110000
00000000
00001000
00000000
00010000
00001000
,
00010000
00000100
00000010
00000200
,
00001300
00000001
00001000
00000010
,
00000100
00000100
00000001
00000000
00000010
00000000
00000100
00000000
,
00010000
00001000
00000000
00000000
00000000
00000000
00000000
00000000
;

//---------------dance-double - ----------------
#NOTES:
     dance-double:
     :
     Hard:
     7:
     0.420652,0.402847,0.196961,0.196961,0.024620,299.000000,279.000000,20.000000,20.000000,0.000000,0.000000,0.420652,0.402847,0.196961,0.196961,0.024620,299.000000,279.000000,20.000000,20.000000,0.000000,0.000000:
00000000
00000000
00000000
00000000
,
00000000
00000000
00000000
00000000
,
00000000
00000000
00000000
00000000
,
00000000
00000100
00000100
00000000
00000000
00000010
00000010
00001000
,
00000100
00000000
00000000
00010000
00001000
00000100
00000000
00001000
,
00010000
01000000
00000000
00100000
00010000
00100000
01000000
10000000
,
00100000
00000000
00000000
01000000
00010000
01000000
00000000
00100000
,
00001000
00100000
00000000
00001000
00010000
00001000
00000100
00000010
,
00000100
00000001
00001001
00000010
00000100
00000010
00000000
00000100
,
00001000
00000100
00000000
00010000
00001000
00010000
00001000
00001000
,
00000100
00001000
00011000
00010000
01000000
00010000
00000000
01000000
,
00100000
01000000
00000000
10000000
00100000
10000000
00010000
00010000
,
00100000
00001000
00020000
00000000
00001000
00031000
00000100
00000010
,
00001000
00000000
00001001
00000000
00000010
00000100
00000000
00000100
,
00001000
00000010
00001001
00000000
00000100
00010000
00001000
01000000
,
00200000
00000000
01000000
00000000
10300000
00000000
10000000
00100000
,
01000000
00010000
01100000
00000000
10000000
01000000
00010000
00000000
,
00011000
00000000
00000110
00000000
00000001
00000100
00000000
00000100
,
00000001
00000010
00001001
00000000
00000100
00001000
00010000
00100000
,
20000000
00000000
00000000
00000000
00010000
00000000
00000000
00000000
30100000
00000000
01000000
00000000
00010000
00000000
01000000
00100000
,
00000000
10000000
01000000
00000000
00100000
00001000
00020000
00000000
,
00031000
00000000
00011000
00000000
00001000
00000100
00000000
00000100
,
00000010
00001000
00000000
00000000
00001010
00000000
00000100
00000000
00000001
00000000
00000010
00000000
00000001
00000000
00000100
00000000
,
00000010
00002000
00000010
00010000
,
00013000
01000000
01100000
00000000
00100000
10000000
00010000
01000000
,
00100000
00000000
10010000
00000000
01000000
00010000
00000000
00010000
,
00100000
00001000
00000000
00000000
00010000
00000000
00000100
00000000
00000010
00000000
00000001
00000000
00000100
00000000
00000001
00000000
,
00000010
00000001
00000200
00000000
00000320
00000000
00002030
00000000
,
00003001
00001000
00001002
00000000
00000103
00000020
00000000
00000000
,
00000130
00001000
00010000
00100000
01000000
10000000
00000000
10020000
,
00000000
00130000
00000000
01000000
10000000
00010000
00000000
00010000
,
00100000
01000000
00000000
01000000
00100000
00001000
00010000
00001000
,
00000100
00000100
00002000
00000000
00003010
00000200
00000000
00000000
,
00000301
00000100
00000010
00001000
00010000
01000000
00000000
02100000
,
00000000
03010000
00000000
10000000
01000000
00100000
00000000
00010000
,
01000000
00100000
00000000
01000000
00010000
00100000
00001000
00010000
,
00001000
00001000
00012000
00000000
00003100
00020000
00000000
00000000
,
00031000
00010000
00001000
00000100
00000010
00000100
00000000
00001002
,
00000000
00000103
00000000
00000010
00001000
00000100
00000000
00000010
,
00000001
00000100
00000000
00000010
00010000
00001000
00100000
01000000
,
10000000
10000000
00200000
00000000
01300000
00020000
00000000
00000000
,
10030000
00100000
01000000
00010000
00100000
00001000
00000000
00021000
,
00000000
01030000
00000000
00001000
00000100
00000010
00000000
00001000
,
00000001
00000100
00000000
00000010
00000100
00010000
00001000
00000100
,
00000010
00000000
00000010
00000000
00001001
00000000
00000000
00000000
00000110
00000000
00000000
00000000
00000010
00000000
00000000
00000001
,
00001000
00000000
00000000
00000000
00000001
00000000
00000100
00000000
00001000
00000000
00010000
00000000
01000000
00000000
10000000
00010000
,
00000000
00000000
00100000
00010000
01000000
10000000
01000000
00010000
,
00100000
00001000
00000100
00000010
00001000
00000100
00000010
00000001
,
00001000
00000001
00000000
00000000
00000000
00000000
00000000
00000000
;

//---------------dance-single - ----------------
#NOTES:
     dance-single:
     :
     Challenge:
     14:
     0.582442,0.668682,0.344682,0.354530,0.433314,414.000000,379.000000,35.000000,36.000000,0.000000,0.000000,0.582442,0.668682,0.344682,0.354530,0.433314,414.000000,379.000000,35.000000,36.000000,0.000000,0.000000:
// measure 0
0000
0000
0000
0000
,  // measure 1
0000
0000
0000
0000
,  // measure 2
0000
0000
0000
0000
,  // measure 3
0000
0000
0010
0000
0010
0000
0000
0000
0000
0000
0100
0000
0100
0000
0010
1000
,  // measure 4
0001
0000
0000
0001
1000
0000
0010
0100
0000
0000
0110
0000
0000
0000
0100
0000
,  // measure 5
0000
0100
0001
0000
1001
0000
0100
0010
0000
0000
0110
0000
1000
0000
0100
0000
,  // measure 6
0010
0001
0000
0001
0010
0000
1000
0010
0000
0000
1010
0000
0000
0000
1000
0000
,  // measure 7
0000
1000
0001
0000
0101
0000
0010
1000
0000
0000
1010
0000
0100
0000
0010
0000
,  // measure 8
0001
0010
0000
0010
0100
0000
1000
0100
0000
0000
1100
0000
0000
0000
0010
0000
,  // measure 9
0000
0010
0001
0000
0011
0000
1000
0001
0000
0000
1001
0000
0001
0000
0100
0000
,  // measure 10
1000
0100
0000
0100
0001
0000
0100
0001
0000
0000
0101
0000
0000
0000
0010
0000
,  // measure 11
0000
0010
1000
0000
1100
0000
1000
0001
0000
0000
1001
0000
1000
0000
0010
0000
,  // measure 12
0001
0000
0100
0000
0020
0000
0000
0000
1030
0100
1000
0000
0100
0000
0010
0000
,  // measure 13
0002
0000
0000
0103
0001
0000
0100
0010
0000
0010
0001
0010
2000
0000
0000
3001
,  // measure 14
0000
0000
1000
0000
1001
0000
1000
0100
0001
0000
0010
0000
0200
0000
1000
0000
,  // measure 15
1300
0000
0001
0100
0020
0000
0000
0000
1000
0000
0000
0000
0130
0000
0010
0000
,  // measure 16
0100
0000
0001
1000
0001
0000
0010
0000
0100
0000
1000
0000
0020
0000
0001
0000
,  // measure 17
0031
0000
0010
0100
1000
0000
0100
0010
0000
0010
0001
0000
0200
0000
0000
0301
,  // measure 18
0000
0000
0010
0000
0110
0000
0010
1000
0100
0000
0010
0000
0002
0000
1000
0000
,  // measure 19
1003
0000
0001
0010
2000
0000
0000
0000
0100
0000
0000
0000
3010
0000
0000
0010
,  // measure 20
0100
0001
1000
0100
0010
0100
1000
0010
,  // measure 21
0100
0000
0010
0001
0100
0000
0010
1000
0000
1000
0100
0000
0010
0000
0001
0010
,  // measure 22
0001
0100
0010
1000
0010
0001
0100
0010
,  // measure 23
1000
0000
0100
0000
0010
0000
0000
0010
1000
0000
0001
1000
0001
0000
0000
0010
,  // measure 24
0000
0000
0100
0000
1001
0000
1000
0010
0100
0000
0010
0000
0001
0010
0001
0000
,  // measure 25
0100
0000
0010
1000
0010
0000
0100
0010
0000
0010
0001
0000
0100
0000
0010
1000
,  // measure 26
0010
0100
0001
0010
0100
1000
0010
0100
,  // measure 27
1000
0010
0200
0000
0320
0000
0032
0000
,  // measure 28
0103
0010
1000
0000
0200
0000
0300
0001
0200
0000
2300
0000
3000
0001
1000
0000
,  // measure 29
0100
0000
0020
0000
0000
0000
0031
0000
0010
0000
0100
0000
0010
0000
1000
0100
,  // measure 30
1000
0000
0100
0000
0010
0000
0001
0010
0100
0000
2000
0000
3000
0000
1001
0000
,  // measure 31
0100
0000
0020
0000
0030
0000
0101
0000
0010
0000
1000
0010
0100
0000
0001
0000
,  // measure 32
1000
0001
0100
0010
2000
0000
3000
0100
0020
0000
0032
0000
0003
0010
0200
0000
,  // measure 33
1300
0000
0020
0000
0000
0000
1030
0000
0100
0000
0001
0000
0010
0000
0001
1000
,  // measure 34
0001
0000
0100
0000
0010
0000
1000
0010
0100
0000
0020
0000
0030
0000
0110
0000
,  // measure 35
1000
0000
0200
0000
0300
0000
0011
0000
0100
0000
0010
0000
0000
1010
0000
0000
,  // measure 36
1001
0000
1000
0100
2000
0000
0000
3100
0020
0000
0032
0000
0000
0103
0020
0000
,  // measure 37
1030
0000
0020
0000
0000
0000
0031
0000
0100
0000
0010
0000
1000
0000
0010
0100
,  // measure 38
0001
0000
0010
0000
1000
0000
0100
1000
0100
0000
0002
0000
0003
0000
0101
0000
,  // measure 39
0010
0200
0300
1010
0100
2000
3000
1001
,  // measure 40
0100
0000
0010
0000
0001
0000
0000
0001
0100
0000
0010
0000
0000
0010
1000
0000
,  // measure 41
0100
0110
0000
0101
0001
1001
0000
1100
,  // measure 42
0000
0000
1010
0000
0010
0000
1000
0100
0010
0000
0001
0010
0100
0000
1000
0000
,  // measure 43
0010
0000
1000
0100
0010
0000
0001
0100
1000
0000
0200
0000
0000
0000
0310
0000
,  // measure 44
0000
0000
0100
0010
0110
0000
0010
0000
0101
0000
0001
1000
1100
0000
0100
0001
,  // measure 45
0000
0100
0010
1000
0100
0000
0010
0000
1000
0000
0100
0000
0001
0000
1000
0001
,  // measure 46
0000
1000
0001
0000
0011
0000
0001
0000
0101
0000
0100
0000
0110
0000
0010
1000
,  // measure 47
0010
1000
0010
0000
0100
0001
0010
0100
1000
0010
0100
0001
1000
0010
0100
0001
,  // measure 48
0020
0200
0000
0000
0330
0000
0000
0000
;
