#TITLE:We Come Alive;
#SUBTITLE:;
#ARTIST:Alien Six;
#TITLETRANSLIT:;
#SUBTITLETRANSLIT:;
#ARTISTTRANSLIT:;
#GENRE:;
#CREDIT:;
#BANNER:We Come Alive.png;
#BACKGROUND:We Come Alive-bg.png;
#LYRICSPATH:;
#CDTITLE:;
#MUSIC:We Come Alive.ogg;
#OFFSET:0.000000;
#SAMPLESTART:28.570000;
#SAMPLELENGTH:15.000000;
#SELECTABLE:YES;
#DISPLAYBPM:126.000000;
#BPMS:0.000000=126.316010
,4.000000=125.999992
;
#STOPS:
;
#BGCHANGES:;
#KEYSOUNDS:;
#ATTACKS:;

//---------------dance-single - ----------------
#NOTES:
     dance-single:
     :
     Beginner:
     2:
     0.087795,0.124502,0.010596,0.000000,0.000000,58.000000,57.000000,1.000000,0.000000,0.000000,0.000000,0.087795,0.124502,0.010596,0.000000,0.000000,58.000000,57.000000,1.000000,0.000000,0.000000,0.000000:
0000
0000
0000
0000
,
0000
0000
0000
0000
,
0000
0000
0000
0000
,
1000
0000
1000
0000
,
0000
0000
0000
0000
,
0001
0000
0001
0000
,
0000
0000
0000
0000
,
0010
0000
0010
0000
,
0000
0000
0000
0000
,
0100
0000
0100
0000
,
0000
0000
0000
0000
,
0001
0000
0000
0000
,
1000
0000
0000
0000
,
0001
0000
0000
0000
,
1000
0000
0000
0000
,
0010
0000
0000
0000
,
1000
0000
1000
0000
,
0001
0000
0000
0000
,
1000
0000
1000
0000
,
0010
0000
0000
0000
,
0001
0000
0001
0000
,
0100
0000
0000
0000
,
0001
0000
0001
0000
,
1000
0000
0000
0000
,
0100
0000
0000
0000
,
0001
0000
0000
0000
,
0010
0000
0000
0000
,
1000
0000
0000
0000
,
0001
0000
0100
0000
,
0001
0000
0000
0000
,
1000
0000
0100
0000
,
1000
0000
0000
0000
,
0001
0000
0010
0000
,
0001
0000
0000
0000
,
1000
0000
0010
0000
,
1000
0000
0000
0000
,
0001
0000
0000
0000
,
1000
0000
0000
0000
,
0001
0000
0000
0000
,
1000
0000
0010
0000
,
0001
0000
0000
0000
,
0001
0000
0010
0000
,
1000
0000
0000
0000
,
1000
0000
0100
0000
,
0001
0000
0000
0000
,
1000
0000
0010
0000
,
0001
0000
0000
0000
,
1001
0000
0000
0000
,
0000
0000
0000
0000
;

//---------------dance-single - ----------------
#NOTES:
     dance-single:
     :
     Easy:
     4:
     0.137747,0.174303,0.031788,0.052980,0.000000,91.000000,88.000000,3.000000,5.000000,0.000000,0.000000,0.137747,0.174303,0.031788,0.052980,0.000000,91.000000,88.000000,3.000000,5.000000,0.000000,0.000000:
0000
0000
0000
0000
,
0000
0000
0000
0000
,
0000
0000
0000
0000
,
1000
0100
1000
0000
,
0000
0000
0000
0000
,
0001
0100
0001
0000
,
0000
0000
0000
0000
,
1000
1000
0100
0010
,
0000
0000
0000
0000
,
0001
0001
0100
0010
,
0000
0000
0000
0000
,
2000
0000
0000
3000
,
0001
0010
0100
1000
,
0002
0000
0000
0003
,
1000
0010
0100
0001
,
1000
0000
0000
0000
,
1000
0001
1000
0001
,
1000
0000
0000
0000
,
0001
1000
0001
1000
,
0010
0000
0010
0000
,
0100
0000
0100
0000
,
0001
0000
1000
0000
,
1001
0000
0000
0000
,
1000
0000
1000
0000
,
0100
0000
0100
0000
,
0001
0000
0001
0000
,
0010
0000
0010
0000
,
0001
0100
0001
0000
,
0000
0000
0000
0000
,
1000
0100
1000
0000
,
0000
0000
0000
0000
,
0001
0001
0100
0010
,
0000
0000
0000
0000
,
1000
1000
0100
0010
,
0000
0000
0000
0000
,
0002
0000
0000
0003
,
1000
0010
0100
0001
,
2000
0000
0000
3000
,
0002
0000
0000
0003
,
0001
0000
0000
0000
,
0001
1000
0001
1000
,
0001
0000
0000
0000
,
1000
0001
1000
0001
,
0010
0000
0010
0000
,
0100
0000
0100
0000
,
1000
0000
0001
0000
,
1001
0000
0000
0000
,
1001
0000
0000
0000
,
0000
0000
0000
0000
;

//---------------dance-single - ----------------
#NOTES:
     dance-single:
     :
     Medium:
     7:
     0.322419,0.323705,0.095363,0.169535,0.031788,213.000000,204.000000,9.000000,16.000000,0.000000,0.000000,0.322419,0.323705,0.095363,0.169535,0.031788,213.000000,204.000000,9.000000,16.000000,0.000000,0.000000:
0000
0000
0000
0000
,
0000
0000
0000
0000
,
0000
0000
0000
0000
,
0002
0103
2000
3100
,
0020
0000
0130
0000
0001
1000
0100
0000
,
2000
3100
0002
0103
,
0020
0000
0000
0000
0130
0100
0010
0000
,
0001
0000
0011
0000
0100
1000
0100
0000
,
1000
0000
1010
0000
0100
0001
0100
0000
,
0010
0001
0100
1000
,
0001
0000
1000
0001
1000
0000
1001
0000
,
0010
0000
0010
0000
0001
0001
0100
0000
,
1000
0000
1000
0000
0010
0010
0001
0000
,
0100
0000
0100
0000
1000
1000
0010
0000
,
0001
0000
0001
0000
0100
0100
1000
0000
,
0020
0000
0000
0000
0100
0100
0130
0000
,
0100
0000
0001
0000
0010
1000
0100
0000
,
0020
0000
0000
0000
1000
1000
1030
0000
,
1000
0000
0001
0000
0010
0100
0100
0000
,
0010
0000
0001
0000
0010
0100
1000
0000
,
0010
0000
1000
0000
0010
0100
0001
0000
,
0100
1000
0010
0001
,
1100
0000
0000
0000
0001
1000
0010
0000
,
0001
0000
0000
0001
0100
0000
0000
0000
1000
0000
0000
1000
0100
0000
0000
0000
,
0001
0000
0000
0001
0100
0000
0000
0000
1000
0000
0000
1000
0100
0000
0000
0000
,
0001
0000
0000
0001
0010
0000
0000
0000
1000
0000
0000
1000
0010
0000
0000
0000
,
0001
0000
1000
0000
0010
0100
0100
0000
,
2000
3100
0002
0103
,
0020
0000
0130
0000
1000
0001
0100
0000
,
0002
0103
2000
3100
,
0020
0000
0000
0000
0130
0100
0010
0000
,
1000
0000
1010
0000
0100
0001
0100
0000
,
0001
0000
0011
0000
0100
1000
0100
0000
,
0010
1000
0100
0001
,
1000
0000
0001
1000
0001
0000
1001
0000
,
0010
0000
0010
0000
1000
1000
0100
0000
,
0001
0000
0001
0000
0010
0010
1000
0000
,
0100
0000
0001
0000
,
0010
0000
0000
0000
0100
0100
0001
0000
,
0020
0000
0000
0000
0100
0100
0130
0000
,
0100
0000
1000
0000
0010
0001
0100
0000
,
0020
0000
0000
0000
0001
0001
0031
0000
,
0001
0000
1000
0000
0010
0100
0100
0000
,
0010
0000
1000
0000
0010
0100
0001
0000
,
0010
0000
0001
0000
0010
0100
1000
0000
,
0100
0001
0010
1000
,
0101
0000
0000
0000
1000
0001
0010
0000
,
1100
0000
0000
0000
,
0000
0000
0000
0000
;

//---------------dance-single - ----------------
#NOTES:
     dance-single:
     :
     Hard:
     10:
     0.470761,0.423307,0.211918,0.158939,0.042384,311.000000,291.000000,20.000000,15.000000,0.000000,0.000000,0.470761,0.423307,0.211918,0.158939,0.042384,311.000000,291.000000,20.000000,15.000000,0.000000,0.000000:
0000
0000
0000
0000
,
0000
0000
0000
0000
,
0000
0000
0000
0000
,
0010
1000
0100
0001
0100
1000
0010
0000
,
0011
0010
0001
0000
1100
0100
1000
0000
,
0001
0010
1000
0100
1000
0010
0001
0000
,
0100
0200
0010
0320
0130
0010
0110
0000
,
1000
0010
0001
0100
0001
0010
1000
0100
,
0001
0100
1000
0000
0001
0010
1000
0000
,
0100
1000
0010
0001
0100
0001
0010
1000
,
0100
0100
0010
0010
0001
1000
1001
0000
,
0010
1000
0100
0010
0001
0100
0010
1000
,
0100
0010
0001
0100
1000
0100
0001
0000
,
0010
0100
0001
0010
0100
1000
0010
0100
,
0001
0010
0100
1000
0001
0100
1000
0000
,
0002
0000
0013
0000
1100
0100
0100
0000
,
0100
0001
0010
1000
0010
0001
0100
0000
,
0020
0000
1030
0000
0101
0001
0001
0000
,
0001
0010
1000
0100
1000
1001
1001
0000
,
0010
0000
1100
0000
0010
0100
0002
0000
,
0013
0100
0020
0000
0031
0100
1000
0000
,
0100
0001
0010
1000
,
0001
0010
0100
1000
0100
0010
0001
0000
,
1000
0000
0000
1000
0100
0000
0010
0000
0001
0000
0000
0001
0100
0000
0010
0000
,
1000
0000
0000
1000
0100
0000
0010
0000
0001
0000
0000
0001
0100
0000
0010
0000
,
1000
0000
0000
1000
0100
0000
1000
0000
0001
0000
0000
0001
0100
0000
0001
0000
,
1000
0000
0000
1000
0010
0000
1000
0000
0001
0000
0000
0001
0010
0000
0001
0000
,
0100
0001
0010
1000
0010
0001
0100
0000
,
1100
0100
1000
0000
0011
0010
0001
0000
,
1000
0100
0001
0010
0001
0100
1000
0000
,
0010
0020
0100
0230
0310
0100
0110
0000
,
0001
0100
1000
0010
1000
0100
0001
0010
,
1000
0010
0001
0000
1000
0100
0001
0000
,
0010
0001
0100
1000
0010
1000
0100
0001
,
0010
0010
0100
0100
1000
0001
1001
0000
,
0100
0001
0010
0100
1000
0010
0100
0001
,
0010
0100
1000
0010
0001
0010
1000
0000
,
0002
0103
2000
3100
,
0110
0000
2000
0000
0001
0001
3001
0000
,
2000
0000
3100
0000
0011
0010
0010
0000
,
0010
1000
0100
0001
0100
1000
0010
0000
,
0200
0000
0301
0000
1010
1000
1000
0000
,
1000
0100
0001
0010
0001
1001
1001
0000
,
0010
0000
0011
0000
0100
0010
2000
0000
,
3100
0010
0200
0000
1300
0010
0001
0000
,
0010
1000
0100
0001
,
1000
0100
0010
0001
0010
0100
1000
0000
,
0101
0000
0000
0000
,
0000
0000
0000
0000
;

//---------------dance-double - ----------------
#NOTES:
     dance-double:
     :
     Easy:
     5:
     0.237651,0.249004,0.095363,0.000000,0.000000,157.000000,148.000000,9.000000,0.000000,0.000000,0.000000,0.237651,0.249004,0.095363,0.000000,0.000000,157.000000,148.000000,9.000000,0.000000,0.000000,0.000000:
00000000
00000000
00000000
00000000
,
00000000
00000000
00000000
00000000
,
00000000
00000000
00000000
00000000
,
00100000
00100000
01000000
01000000
,
10010000
00000000
00010000
00001000
,
00000010
00000010
00000100
00000100
,
00001001
00000000
00001000
00010000
,
00100000
00100000
01000000
01000000
,
10010000
00000000
00010000
00001000
,
00000010
00000010
00000100
00000100
,
00001001
00000000
00000100
00000000
,
00000001
00000100
00001000
00000000
,
00010000
01000000
10000000
00000000
,
10000000
00100000
00010000
00000000
,
00001000
00000010
00000001
00000000
,
00000000
00001000
00000100
00010000
,
00001000
00001000
00010000
00010000
,
00000000
00100000
10000000
01000000
,
00010000
00010000
01000000
01000000
,
00000000
00100000
00001000
00010000
,
00000010
00000010
00000100
00000100
,
00000000
00000001
00001000
00000100
,
00000010
00000010
00001000
00001000
,
00000001
00000001
00001000
00001000
,
00010000
00010000
10000000
10000000
,
00010000
10000000
01000000
10000000
,
00010000
00001000
00010000
00000000
,
00000010
00000010
00000100
00000100
,
00001001
00000000
00001000
00010000
,
00100000
00100000
01000000
01000000
,
10010000
00000000
00010000
00001000
,
00000010
00000010
00000100
00000100
,
00001001
00000000
00001000
00010000
,
00100000
00100000
01000000
01000000
,
10010000
00000000
01000000
00000000
,
10000000
01000000
00010000
00000000
,
00001000
00000100
00000001
00000000
,
00000001
00000000
00001000
00000000
,
00010000
00000000
10000000
00000000
,
00000000
00010000
01000000
00001000
,
00010000
00010000
00001000
00001000
,
00000000
00000010
00000001
00000100
,
00001000
00001000
00000100
00000100
,
00000000
00000010
00010000
00001000
,
00100000
00100000
01000000
01000000
,
00000000
10000000
00010000
01000000
,
00100000
00100000
00010000
00010000
,
10010000
00000000
00000000
00000000
,
00000000
00000000
00000000
00000000
;

//---------------dance-double - ----------------
#NOTES:
     dance-double:
     :
     Medium:
     7:
     0.304254,0.323705,0.116555,0.148343,0.000000,201.000000,190.000000,11.000000,14.000000,0.000000,0.000000,0.304254,0.323705,0.116555,0.148343,0.000000,201.000000,190.000000,11.000000,14.000000,0.000000,0.000000:
00000000
00000000
00000000
00000000
,
00000000
00000000
00000000
00000000
,
00000000
00000000
00000000
00000000
,
00000010
00000001
00000100
00001000
,
00020000
00000000
00000000
00000000
00000010
00001000
00031000
00000000
,
00100000
10000000
01000000
00010000
,
00002000
00000000
00000000
00000000
00100000
00010000
00013000
00000000
,
00001000
00000100
00000001
00000010
,
00000200
00000000
00000000
00000000
00001000
00000010
00000310
00000000
,
00010000
01000000
10000000
00100000
,
02000000
00000000
00000000
00000000
00010000
00100000
03100000
00000000
,
10000000
00010000
00001000
00000001
,
00000010
00000000
00000001
00000000
00000100
00000010
00000100
00000000
,
00000001
00001000
00010000
10000000
,
00100000
00000000
10000000
00000000
01000000
00100000
01000000
00000000
,
00100000
11000000
00100000
11000000
,
00010000
00000000
00001000
00000000
00000100
00000001
00000100
00000000
,
00000010
00000101
00000010
00000101
,
00001001
00000000
00000000
00000000
00000010
00000100
00000100
00000000
,
00002000
00000001
00000100
00003010
,
00020000
10000000
01000000
00130000
,
00100000
01000000
10000000
00000000
00100000
01000000
00010000
00000000
,
00001000
00000000
00000100
00000000
00000001
00000010
00000010
00000000
,
00002000
00010000
00000100
00013000
,
00100000
01000000
01000000
00000000
01000000
00100000
00100000
00000000
,
10000000
01000000
00001000
00000100
,
00000010
00000000
00000000
00000000
00000001
00000100
00001000
00000000
,
00100000
10000000
01000000
00010000
,
00002000
00000000
00000000
00000000
00100000
00010000
00013000
00000000
,
00000010
00000001
00000100
00001000
,
00020000
00000000
00000000
00000000
00000010
00001000
00031000
00000000
,
00010000
01000000
10000000
00100000
,
02000000
00000000
00000000
00000000
00010000
00100000
03100000
00000000
,
00001000
00000100
00000001
00000010
,
00000200
00000000
00000000
00000000
00001000
00000010
00000310
00000000
,
00000001
00001000
00010000
10000000
,
00100000
00000000
10000000
00000000
01000000
00100000
01000000
00000000
,
10000000
00010000
00001000
00000001
,
00000020
00000000
00000000
00000000
00000130
00000010
00000100
00000000
,
00000010
00000101
00000010
00000101
,
00001000
00000000
00010000
00000000
01000000
10000000
01000000
00000000
,
00100000
11000000
00100000
11000000
,
10010000
00000000
00000000
00000000
00100000
01000000
01000000
00000000
,
00020000
10000000
01000000
00130000
,
00002000
00000001
00000100
00003010
,
00000010
00000100
00000001
00000000
00000010
00000100
00001000
00000000
,
00010000
00000000
01000000
00000000
10000000
00100000
00100000
00000000
,
10010000
00000000
00000000
00000000
,
00000000
00000000
00000000
00000000
;

//---------------dance-double - ----------------
#NOTES:
     dance-double:
     :
     Hard:
     11:
     0.472275,0.448207,0.307282,0.063575,0.074171,312.000000,283.000000,29.000000,6.000000,0.000000,0.000000,0.472275,0.448207,0.307282,0.063575,0.074171,312.000000,283.000000,29.000000,6.000000,0.000000,0.000000:
00000000
00000000
00000000
00000000
,
00000000
00000000
00000000
00000000
,
00000000
00000000
00000000
00000000
,
00100000
10000000
01000000
00010000
00001000
00000100
00000001
00000000
,
00000010
00010000
00000100
00000000
00000001
00000100
00001000
00000000
,
00000010
00000001
00000100
00001000
00010000
01000000
10000000
00000000
,
02200000
00000000
03300000
00000000
10000000
01000000
00010000
00000000
,
00000000
00100000
00001000
00010000
00000010
00001000
00000001
00000100
,
00000010
00010000
00000100
00000000
00001000
00000001
00000100
00000000
,
00000000
00000010
00010000
00001000
00100000
00010000
10000000
01000000
,
00100000
00001000
01000000
00010000
10000000
00100000
01000000
00000000
,
10000000
00000000
00000000
00010000
00000000
00000000
01000000
00000000
00000000
01010000
00000000
00000000
10000000
00000000
01000000
00000000
,
00010000
00000000
00000000
00001000
00000000
00000000
00010000
00000000
00000000
01010000
00000000
00000000
00001000
00000000
00000100
00000000
,
00000010
00000000
00000000
00000001
00000000
00000000
00001000
00000000
00000000
00000011
00000000
00000000
00000100
00000000
00000010
00000000
,
00010000
00000000
00000000
00001000
00000000
00000000
00100000
00000000
00000000
00101000
00000000
00000000
00010000
00000000
01000000
00000000
,
10000000
00100000
01010000
00000000
11000000
00000000
00110000
00000000
,
00001000
00000010
00000100
00000001
00000010
00000100
00001000
00000000
,
00000001
00001000
00000110
00000000
00011000
00000000
01100000
00000000
,
00100000
10000000
01000000
00010000
01000000
11000000
11000000
00000000
,
00010000
01000000
00001000
00010000
00000100
00000010
00000001
00000100
,
00001000
00000100
00000001
00000000
00001000
00000100
00000001
00000000
,
00000010
00000001
00001000
00000010
00010000
00100000
10000000
01000000
,
00100000
01000000
10000000
00100000
01000000
00010000
10010000
00000000
,
00100000
10000000
00100000
00000000
00001000
00010000
00001000
00000000
,
00000010
00000001
00000100
00001000
00010000
00100000
10000000
01000000
,
00100000
01000000
00100000
00000000
00001000
00010000
00001000
00000000
,
00000100
00000001
00000010
00000100
00001000
00000000
00000110
00000000
,
00000010
00000001
00000100
00001000
00010000
01000000
10000000
00000000
,
00100000
00001000
01000000
00000000
10000000
01000000
00010000
00000000
,
00100000
10000000
01000000
00010000
00001000
00000100
00000001
00000000
,
00000220
00000000
00000330
00000000
00000001
00000100
00001000
00000000
,
00000000
00000010
00010000
00001000
00100000
00010000
10000000
01000000
,
00100000
00001000
01000000
00000000
00010000
10000000
01000000
00000000
,
00000000
00100000
00001000
00010000
00000010
00001000
00000001
00000100
,
00000010
00010000
00000100
00001000
00000001
00000010
00000100
00000000
,
00000001
00000000
00000000
00001000
00000000
00000000
00000100
00000000
00000000
00001100
00000000
00000000
00000001
00000000
00000100
00000000
,
00001000
00000000
00000000
00010000
00000000
00000000
00001000
00000000
00000000
00010100
00000000
00000000
00010000
00000000
01000000
00000000
,
00100000
00000000
00000000
10000000
00000000
00000000
00010000
00000000
00000000
10100000
00000000
00000000
01000000
00000000
00100000
00000000
,
00022000
00000000
00033000
00000000
00000010
00010000
00001000
00000100
,
00000001
00000010
00001100
00000000
00000101
00000000
00001010
00000000
,
00010000
00100000
01000000
10000000
00100000
01000000
00010000
00000000
,
10000000
00010000
01100000
00000000
00011000
00000000
00000110
00000000
,
00000010
00000001
00000100
00001000
00000100
00000101
00000101
00000000
,
00001000
00000100
00010000
00001000
01000000
00100000
10000000
01000000
,
00010000
01000000
10000000
00000000
00010000
01000000
10000000
00000000
,
00100000
10000000
00010000
00100000
00001000
00000010
00000001
00000100
,
00000010
00000100
00000001
00000010
00000100
00001000
00010000
00001000
,
00011000
00000000
00000000
00000000
,
00000000
00000000
00000000
00000000
;

//---------------dance-single - ----------------
#NOTES:
     dance-single:
     :
     Challenge:
     15:
     0.823454,0.839196,0.116555,0.042384,1.234424,544.000000,533.000000,11.000000,4.000000,140.000000,0.000000,0.823454,0.839196,0.116555,0.042384,1.234424,544.000000,533.000000,11.000000,4.000000,140.000000,0.000000:
// measure 0
0000
0000
0000
0000
,  // measure 1
0000
0000
0000
0000
,  // measure 2
0000
0000
0000
0000
,  // measure 3
0010
1000
0100
1000
0010
1000
0100
1000
0010
0001
0100
0001
0010
0001
0100
0001
,  // measure 4
0010
0001
MMMM
0000
0100
0001
MMMM
0000
,  // measure 5
1000
0010
0100
0001
1000
0100
0010
0001
1000
0010
0100
0001
1000
0100
0010
0001
,  // measure 6
0100
0010
MMMM
0000
0010
0100
MMMM
0000
,  // measure 7
1000
0010
0001
0100
1000
0100
0010
0001
0100
0010
1000
0001
0010
0100
1000
0001
,  // measure 8
0100
1000
MMMM
0000
0001
0100
MMMM
0000
,  // measure 9
1000
0010
0100
0001
1000
0100
0010
0001
0100
0010
1000
0001
0010
0100
1000
0010
,  // measure 10
0100
0000
0001
0000
1000
0000
0100
0010
0001
0000
0100
0000
0010
0000
1000
0000
,  // measure 11
0001
0000
0010
0100
MMMM
0100
1000
0000
0100
1000
MMMM
1000
0010
0000
0101
0000
,  // measure 12
1000
0100
0010
0100
1000
0000
MMMM
0000
0001
0010
0100
0010
0001
0000
MMMM
0000
,  // measure 13
0100
0001
0010
0001
0100
0010
1000
0010
0001
0100
0010
1000
0001
0010
0100
1000
,  // measure 14
0100
0000
MMMM
1000
0100
0000
0110
0000
0010
0001
1000
0100
0010
0001
0100
0010
,  // measure 15
1000
0000
MMMM
0010
1000
0000
MMMM
0100
1000
0000
MMMM
0100
0010
0000
0001
0000
,  // measure 16
0100
0010
1000
0010
0001
0100
0010
1000
0100
0010
0001
1000
0010
0100
0001
0010
,  // measure 17
0100
0000
MMMM
1000
0100
0000
MMMM
1000
0010
0000
MMMM
1000
0001
0000
0010
0000
,  // measure 18
0100
1000
0010
0001
0100
1000
0010
0001
1000
0100
1000
0100
1100
0000
MMMM
0000
,  // measure 19
1000
0010
0100
0001
1000
0100
0010
0001
0100
0010
1000
0001
0010
0100
1000
0001
,  // measure 20
0100
0000
0010
0000
1000
0000
MMMM
0000
0100
0000
0010
1000
0001
0000
0010
0000
,  // measure 21
0100
0010
1000
0100
0010
0001
0100
0010
1000
0001
0010
0100
1000
0010
0001
0100
,  // measure 22
0010
0100
MMMM
0000
1000
0100
MMMM
0000
,  // measure 23
1000
0010
0100
0001
1000
0100
0010
0001
0100
0010
1000
0001
0010
0100
1000
0001
,  // measure 24
0100
0010
1000
0100
0010
0001
0100
0010
1000
0001
0010
0100
1000
0001
0100
0010
,  // measure 25
1000
0010
0001
0100
0010
1000
0001
0010
0100
1000
0100
0010
0001
1000
0010
0100
,  // measure 26
0001
0010
0100
1000
0010
0100
0001
1000
0100
0010
0001
1000
0010
0100
0001
0010
,  // measure 27
0100
1000
0010
0100
0001
0010
0100
1000
0100
0010
0100
0001
1000
0100
0010
0001
,  // measure 28
1000
0100
0010
0000
MMMM
0000
0000
0000
0001
0010
0100
0000
MMMM
0000
0000
0000
,  // measure 29
1000
0100
1000
0100
0010
0001
0010
0001
1000
0010
0001
0100
1000
0100
0010
0001
,  // measure 30
0100
0010
1000
0000
MMMM
0000
0000
0000
0010
0100
0001
0000
MMMM
0000
0000
0000
,  // measure 31
1000
0010
0100
0001
1000
0100
0010
0001
0010
1000
0100
0010
0001
0100
0010
1000
,  // measure 32
0001
0010
1000
0000
MMMM
0000
0000
0000
1000
0010
0001
0000
MMMM
0000
0000
0000
,  // measure 33
0001
0010
0100
1000
0010
0001
0100
0010
1000
0100
0010
0001
0100
0010
1000
0001
,  // measure 34
0010
0100
1000
0001
0100
0010
2000
0000
0000
0000
3020
0000
0000
0000
1030
0100
,  // measure 35
1000
0100
MMMM
0100
1000
0000
0010
0100
MMMM
0100
0001
0000
1000
0100
0010
0001
,  // measure 36
0100
0000
MMMM
0000
0101
0000
0000
0000
0001
0010
1000
0000
1000
0010
0100
0001
,  // measure 37
1000
0100
0010
0100
1000
0010
0100
0001
1000
0100
0010
0001
0100
0010
1000
0001
,  // measure 38
0010
0000
MMMM
0100
0010
0000
0000
0000
1001
0000
0110
0000
1000
0010
0100
0001
,  // measure 39
0010
0000
MMMM
0001
0100
0000
MMMM
0001
0010
0000
MMMM
0001
0010
0000
0100
0000
,  // measure 40
1000
0010
0001
0100
0010
1000
0100
0010
0001
0100
0010
0100
1000
0000
1100
0000
,  // measure 41
1000
0010
0100
0001
0010
0100
1000
0001
0100
0010
1000
0100
0010
0001
0100
0010
,  // measure 42
1000
0000
1010
0000
1001
0000
0001
0010
0100
0000
1100
0000
0101
0000
MMMM
0000
,  // measure 43
1000
0010
0100
0001
0010
0100
0001
0010
1000
0100
0010
1000
0001
0010
0100
1000
,  // measure 44
0001
0100
0010
1000
0001
0010
1000
0100
0010
0000
1000
0010
0100
0001
0010
0000
,  // measure 45
0001
0010
0001
0010
0001
0010
0001
0010
0100
0010
0001
0010
1000
0010
0001
0010
,  // measure 46
0100
1000
0100
1000
0100
1000
0100
1000
0010
1000
0100
1000
0001
1000
0020
1000
,  // measure 47
0200
0000
0000
0000
,  // measure 48
0330
0000
0000
0000
;
