#TITLE:Waiting 4 u;
#SUBTITLE:;
#ARTIST:DDT;
#TITLETRANSLIT:;
#SUBTITLETRANSLIT:;
#ARTISTTRANSLIT:;
#GENRE:;
#CREDIT:;
#BANNER:Waiting 4 u.png;
#BACKGROUND:Waiting 4 u-bg.png;
#LYRICSPATH:;
#CDTITLE:;
#MUSIC:Waiting 4 u.ogg;
#OFFSET:0.000000;
#SAMPLESTART:46.630001;
#SAMPLELENGTH:15.000000;
#SELECTABLE:YES;
#DISPLAYBPM:175.000000;
#BPMS:0.000000=175.610001
,4.000000=174.996994
;
#STOPS:
;
#BGCHANGES:;
#KEYSOUNDS:;
#ATTACKS:;

//---------------dance-single - ----------------
#NOTES:
     dance-single:
     :
     Beginner:
     4:
     0.180424,0.307460,0.093170,0.000000,0.000000,122.000000,113.000000,9.000000,0.000000,0.000000,0.000000,0.180424,0.307460,0.093170,0.000000,0.000000,122.000000,113.000000,9.000000,0.000000,0.000000,0.000000:
0000
0000
0000
0000
,
0000
0000
0000
0000
,
0000
0000
0000
0000
,
0000
0000
0000
0000
,
0000
0000
0000
0000
,
0000
0000
0000
0000
,
1000
0000
1000
0000
,
0001
0000
0001
0000
,
1000
0000
0001
0000
,
1000
0000
1001
0000
,
0010
0010
0010
0000
,
0001
0000
0001
0000
,
0010
0010
0010
0000
,
1000
0000
1000
0000
,
0010
0010
0010
0000
,
0001
0000
0001
0000
,
0010
0010
0010
0000
,
1001
0000
0000
0000
,
0100
0000
0000
0000
,
0100
0000
0000
0000
,
0001
0000
1000
0000
,
0010
0000
0100
0000
,
0010
0000
0000
0000
,
0010
0000
0000
0000
,
0001
0000
0100
0000
,
1000
0000
0010
0000
,
0001
0001
0000
0000
,
1000
1000
0000
0000
,
0010
0000
1000
0000
,
0001
0000
0010
0000
,
0010
0010
0000
0000
,
0100
0100
0000
0000
,
1000
0000
0001
0000
,
1001
0000
0000
0000
,
0001
0000
0100
0000
,
1000
0000
0100
0000
,
0001
0000
0000
0000
,
0100
0000
0100
0000
,
0010
0000
0001
0000
,
0100
0000
0001
0000
,
1000
0000
0000
0000
,
0001
0000
0001
0000
,
0010
0000
1000
0000
,
0001
0000
1000
0000
,
0100
0000
0000
0000
,
0010
0000
1000
0000
,
1000
0000
0010
0000
,
0001
0000
0100
0000
,
1000
0000
0000
0000
,
1001
0000
0000
0000
,
0010
0010
0000
0000
,
1000
1000
0000
0000
,
0001
0001
0000
0000
,
0100
0000
0010
0000
,
0100
0100
0000
0000
,
0001
0001
0000
0000
,
1000
1000
0000
0000
,
0010
0000
0100
0000
,
1000
0000
0001
0000
,
0001
0000
1000
0000
,
0100
0000
0001
0000
,
1000
0000
0001
0000
,
1001
0000
0000
0000
,
1001
0000
0000
0000
,
1001
0000
1001
0000
,
0010
0010
0010
0000
,
1001
0000
0000
0000
,
0000
0000
0000
0000
;

//---------------dance-single - ----------------
#NOTES:
     dance-single:
     :
     Easy:
     6:
     0.312044,0.427028,0.155283,0.103522,0.000000,211.000000,196.000000,15.000000,10.000000,0.000000,0.000000,0.312044,0.427028,0.155283,0.103522,0.000000,211.000000,196.000000,15.000000,10.000000,0.000000,0.000000:
0000
0000
0000
0000
,
0000
0000
0000
0000
,
0000
0000
0000
0000
,
0000
0000
0000
0000
,
0000
0000
0000
0000
,
0000
0000
0000
0000
,
0001
1000
0010
0000
,
1000
0001
0010
0000
,
0100
0000
0001
0000
,
0010
0001
2002
3003
,
0100
0001
0100
1000
,
0100
0000
0100
0000
,
0100
1000
0100
0001
,
0010
0000
0010
0000
,
0100
0001
0100
1000
,
0100
0000
0100
0000
,
0100
1000
0100
0001
,
1000
0100
2002
3003
,
0010
0100
0000
0100
,
0010
1000
0000
0001
,
1000
0001
0000
0010
,
0100
0100
0010
0010
,
0100
1000
0000
0010
,
0001
0100
0000
0001
,
0100
0010
0000
0001
,
1000
0100
0101
0101
,
1000
0001
0000
0010
,
0001
1000
0000
0010
,
0100
0001
0000
0100
,
1000
1000
0001
0001
,
0100
0010
0000
1000
,
0010
0100
0000
0001
,
0010
0100
0000
0001
,
0220
0000
0000
0330
,
1000
0100
0010
0010
,
0001
1000
0010
0001
,
0010
1000
0100
0000
,
0010
1000
0010
0010
,
0100
0001
1000
1000
,
0010
1000
0001
0010
,
1000
0100
0010
0000
,
1000
0010
0101
0101
,
0100
1000
0001
0010
,
1000
0100
0001
0100
,
0010
0001
0010
0000
,
0100
1000
0001
0100
,
0001
0010
0100
0001
,
1000
0100
0010
1000
,
0001
0100
1000
0000
,
2002
0000
0000
3003
,
0100
0010
0000
0010
,
0100
0001
0000
1000
,
0001
1000
0000
0100
,
0010
0010
0100
0100
,
0010
0001
0000
0100
,
1000
0010
0000
1000
,
0010
0100
0000
1000
,
0001
0010
1010
1010
,
0001
1000
0000
0100
,
1000
0001
0000
0100
,
0010
1000
0000
0010
,
0001
0001
1000
1000
,
0110
1000
0000
1000
,
0110
0001
0000
0001
,
0110
1000
0110
0001
,
0010
0001
0100
1000
,
0220
0000
0000
0000
,
0000
0000
0000
0000
,
0000
0000
0000
0330
,
0000
0000
0000
0000
;

//---------------dance-single - ----------------
#NOTES:
     dance-single:
     :
     Medium:
     8:
     0.430355,0.569370,0.196691,0.165635,0.000000,291.000000,272.000000,19.000000,16.000000,0.000000,0.000000,0.430355,0.569370,0.196691,0.165635,0.000000,291.000000,272.000000,19.000000,16.000000,0.000000,0.000000:
0000
0000
0000
0000
,
0000
0000
0000
0000
,
0000
0000
0000
0000
,
0000
0000
0000
0000
,
0000
0000
0000
0000
,
0000
0000
0000
0000
,
1000
0100
0001
0000
0010
0000
0010
0000
,
0001
0100
1000
0000
0010
0000
0010
0000
,
0100
0001
0010
0000
1000
0000
1000
0000
,
0010
1000
2002
3003
,
0100
0010
1000
0000
0100
1000
0001
0000
,
0100
0010
1000
0100
,
0100
1000
0010
0000
0010
1000
0100
0000
,
0001
0100
0010
0000
,
0010
1000
0010
0000
0100
0001
0100
0000
,
0010
1000
0100
0010
,
0100
0010
0001
0000
0100
0010
1000
0000
,
0001
0100
2002
3003
,
0010
0000
0100
0001
0000
1000
0000
0100
,
0010
0000
0001
0100
0000
0010
0000
0100
,
0001
0000
1000
0002
0000
0010
0000
0010
,
0000
0100
0000
0100
0000
1003
0010
0000
,
0100
0000
0001
0100
0000
0010
0000
1000
,
0010
0000
1000
0100
0000
1000
0000
0001
,
0100
0000
0010
2000
0000
0001
0000
0001
,
0000
0100
0000
3100
1100
0000
1100
0000
,
0001
0000
1000
0010
0000
0010
0000
0010
,
1000
0000
0001
0010
0000
0010
0000
0010
,
0100
0000
1000
0020
0000
0100
0000
0100
,
0000
0001
0000
0001
0000
1030
0001
0000
,
0100
0000
0010
0001
0000
0001
0000
0001
,
0010
0000
0100
1000
0000
1000
0000
1000
,
0010
0000
0100
0010
0000
1000
0000
0001
,
0220
0000
0000
0330
,
0001
0000
0100
0000
0010
0001
0010
0000
,
1000
0000
0001
0000
0010
0100
1000
0000
,
0010
0001
0100
1000
,
0010
0000
0001
0000
0010
1000
0010
0000
,
0100
0000
1000
0000
0001
0010
0100
0000
,
0010
0000
0001
0000
1000
0010
1000
0000
,
0001
0100
0010
1000
,
0001
0100
1100
1100
,
0100
0000
0001
1000
0000
0100
0010
0000
,
0001
0000
0100
0001
0000
1000
0100
0000
,
0010
1000
0010
0001
,
0100
0000
0001
0000
1000
0001
0100
0000
,
1000
0000
0010
0100
0000
0010
1000
0000
,
0001
0000
0100
0010
0000
0100
0001
0000
,
1000
0100
0001
1000
,
2002
0000
0000
3003
,
0100
0000
0010
1000
0000
0001
0000
0010
,
0100
0000
1000
0010
0000
0100
0000
0010
,
1000
0000
0001
2000
0000
0100
0000
0100
,
0000
0010
0000
0010
0000
3001
0100
0000
,
0010
0000
1000
0010
0000
0100
0000
0001
,
0100
0000
0001
0010
0000
0001
0000
1000
,
0010
0000
0100
0002
0000
1000
0000
1000
,
0000
0010
0000
0013
0011
0000
0011
0000
,
1000
0000
0001
0100
0000
0100
0000
0100
,
0001
0000
1000
0100
0000
0100
0000
0100
,
0010
0000
0001
0200
0000
0010
0000
0010
,
0000
1000
0000
1000
0000
0301
1000
0000
,
0110
0001
0000
0001
,
0110
1000
0000
1000
,
0110
0001
0110
1000
,
0110
1001
0110
1001
,
0220
0000
0000
0000
,
0000
0000
0000
0000
,
0000
0000
0000
0330
,
0000
0000
0000
0000
;

//---------------dance-single - ----------------
#NOTES:
     dance-single:
     :
     Hard:
     11:
     0.548666,0.604956,0.434792,0.207044,0.056937,371.000000,329.000000,42.000000,20.000000,0.000000,0.000000,0.548666,0.604956,0.434792,0.207044,0.056937,371.000000,329.000000,42.000000,20.000000,0.000000,0.000000:
0000
0000
0000
0000
,
0000
0000
0000
0000
,
0000
0000
0000
0000
,
0000
0000
0000
0000
,
0000
0000
0000
0000
,
0000
0000
0000
0000
,
0001
0000
0000
0001
0010
0000
0000
0000
0001
0000
0000
0001
1000
0000
0010
0000
,
0100
0000
0000
0100
0001
0000
0000
0000
1000
0000
0000
1000
0100
0000
0001
0000
,
0100
0000
0000
0100
1000
0000
0000
0000
0001
0000
0000
0001
0100
0000
0010
0000
,
0100
0000
0000
0100
0001
0000
0000
0000
2002
0000
0000
0000
3003
0000
0000
0000
,
0010
0100
0001
0010
0100
1000
0001
0100
,
0010
0000
0000
0010
0100
0000
0000
0000
0001
0000
0000
0001
0010
0000
0100
0000
,
0010
0001
0100
1000
0100
0001
0010
0001
,
1000
0010
0100
0000
,
0100
0001
0100
1000
0010
0100
0001
1000
,
0100
0000
0000
0100
0010
0000
0000
0000
0100
0000
0000
0100
1000
0000
0001
0000
,
0010
0100
1000
0010
0100
0001
0010
0001
,
1000
0010
2002
3003
,
0100
1000
0010
1000
0000
0001
1000
0100
,
0010
0001
1000
0010
0000
0100
0001
0010
,
0001
0100
0001
1000
0000
0110
0000
1001
,
0000
1010
0000
0101
0000
1000
0100
0000
,
0010
0100
1000
0010
0000
0100
0001
1000
,
0100
0001
0100
1000
0000
0001
0010
1000
,
0010
0001
0100
1000
0000
0101
0000
1100
,
0000
1010
0000
0001
0011
0000
0011
0000
,
1000
0100
0001
0100
0000
0100
0010
0100
,
0001
0100
1000
0100
0000
0010
0001
0100
,
0010
1000
0001
0100
0000
1010
0000
0110
,
0000
0101
0000
1001
0000
0100
1000
0000
,
0010
1000
0100
1000
0000
1000
0001
1000
,
0100
1000
0010
1000
0000
0001
0100
0010
,
0100
0001
0010
0100
0000
1000
0000
0001
,
0220
0000
0000
0330
,
1001
0000
0110
0000
1000
0001
0100
0000
,
0011
0000
1100
0000
0010
0001
0100
0000
,
1000
0100
0001
0000
1000
0010
0001
0000
,
0100
0010
1000
0100
0010
0100
1000
0000
,
1001
0000
0110
0000
0001
1000
0100
0000
,
1010
0000
0101
0000
0010
1000
0100
0000
,
0001
0100
1000
0000
0001
0010
1000
0000
,
0100
0010
0001
0100
0101
0000
0101
0000
,
0010
0000
1000
0002
0000
0020
0003
0130
,
1000
0000
0010
2000
0000
0002
3000
0013
,
0100
0000
0001
0200
0000
1000
0000
0010
,
0000
1000
0000
0001
0000
1000
0000
0310
,
0001
0000
0100
0020
0000
0200
0030
0301
,
1000
0000
0010
0200
0000
0020
0300
1030
,
0001
0000
1000
0200
0000
0001
0300
0100
,
2002
0000
0000
3003
,
0010
0001
0100
0001
,
0010
0000
1000
0000
0100
1000
0100
0000
,
0010
1000
0100
1000
,
1010
0101
0011
1100
,
0001
0001
0010
0010
,
1000
1000
0010
0010
,
0100
0001
0001
0000
0100
0010
0010
0000
,
0001
1000
1100
1100
,
0001
0010
1000
0010
0000
0010
0100
0010
,
1000
0010
0001
0010
0000
0100
1000
0010
,
0100
0001
1000
0010
0000
0101
0000
0110
,
0000
1010
0000
1001
0000
0010
0001
0000
,
0110
0000
1000
0000
0000
0000
1000
0001
,
0110
0000
1000
0000
0000
0000
1000
0001
,
0110
1000
0110
0001
,
0010
0100
0001
1000
0100
0010
0001
0000
,
0220
0000
0000
0000
,
0000
0000
0000
0000
,
0000
0000
0000
0330
,
0000
0000
0000
0000
;

//---------------dance-single - ----------------
#NOTES:
     dance-single:
     :
     Challenge:
     11:
     0.502820,0.604956,0.414087,0.186339,0.056937,340.000000,300.000000,40.000000,18.000000,128.000000,0.000000,0.502820,0.604956,0.414087,0.186339,0.056937,340.000000,300.000000,40.000000,18.000000,128.000000,0.000000:
0000
0000
0000
0000
,
0000
0000
0000
0000
,
0000
0000
0000
0000
,
0000
0000
0000
0000
,
0000
0000
0000
0000
,
0000
0000
0000
0000
,
0001
0000
0000
0001
0010
0000
0000
0000
0001
0000
0000
0001
1000
0000
0010
0000
,
0100
0000
0000
0100
0001
0000
0000
0000
1000
0000
0000
1000
0100
0000
0001
0000
,
0100
0000
0000
0100
1000
0000
0000
0000
0001
0000
0000
0001
0100
0000
0010
0000
,
0100
0000
0000
0100
0001
0000
0000
0000
1001
0000
0000
0000
MMMM
0000
0000
0000
,
0010
0100
MMMM
0010
0100
1000
MMMM
0100
,
0010
0000
0000
0010
0100
0000
0000
0000
0001
0000
0000
0001
0010
0000
0100
0000
,
0010
0001
MMMM
1000
0100
0001
MMMM
0001
,
1000
0010
0100
0000
,
0100
1000
MMMM
1000
0010
0100
MMMM
1000
,
0100
0000
0000
0100
0010
0000
0000
0000
0100
0000
0000
0100
1000
0000
0001
0000
,
0010
0100
MMMM
0010
0100
0001
MMMM
0001
,
1000
0010
2002
3003
,
0100
1000
0010
1000
0000
0001
1000
0100
,
0010
0001
1000
0010
0000
0100
0001
0010
,
0001
0100
0001
1000
0000
0110
0000
1001
,
0000
1010
0000
0101
0000
1000
0100
0000
,
0010
0100
1000
0010
0000
0100
0001
1000
,
0100
0001
0100
1000
0000
0001
0010
1000
,
0010
0001
0100
1000
0000
0101
0000
1100
,
0000
1010
0000
0001
0011
0000
0011
0000
,
MMMM
0100
0001
0100
0000
0100
0010
0100
,
MMMM
0100
1000
0100
0000
0010
0001
0100
,
MMMM
1000
0001
0100
0000
1010
0000
0110
,
0000
0101
0000
1001
0000
0100
1000
0000
,
MMMM
1000
0100
1000
0000
1000
0001
1000
,
MMMM
1000
0010
1000
0000
0001
0100
0010
,
MMMM
0001
0010
0100
0000
1000
0000
0001
,
0220
0000
0000
0330
,
1001
0000
0110
0000
1000
0001
0100
0000
,
0011
0000
1100
0000
0010
0001
0100
0000
,
1000
0100
MMMM
0000
1000
0010
MMMM
0000
,
0100
0010
1000
0100
0010
0100
1000
0000
,
1001
0000
0110
0000
0001
1000
0100
0000
,
1010
0000
0101
0000
0010
1000
0100
0000
,
0001
0100
MMMM
0000
0001
0010
MMMM
0000
,
0100
0010
0001
0100
0101
0000
0101
0000
,
0010
0000
MMMM
0002
0000
0020
0003
0130
,
1000
0000
MMMM
2000
0000
0002
3000
0013
,
0100
0000
MMMM
0200
0000
1000
0000
0010
,
0000
1000
0000
0001
0000
1000
0000
0310
,
0001
0000
MMMM
0020
0000
0200
0030
0301
,
1000
0000
MMMM
0200
0000
0020
0300
1030
,
0001
0000
MMMM
0200
0000
0001
0300
0100
,
2002
0000
0000
3003
,
0010
0001
0100
0001
,
0010
0000
1000
0000
0100
1000
0100
0000
,
0010
1000
0100
1000
,
MMMM
0101
MMMM
1100
,
0001
0001
0010
0010
,
1000
1000
0010
0010
,
0100
0001
0001
0000
0100
0010
0010
0000
,
0001
1000
1100
1100
,
MMMM
0010
1000
0010
0000
0010
0100
0010
,
MMMM
0010
0001
0010
0000
0100
1000
0010
,
MMMM
0001
1000
0010
0000
0101
0000
0110
,
0000
1010
0000
1001
0000
0010
0001
0000
,
0110
0000
1000
0000
MMMM
0000
1000
0001
,
0110
0000
1000
0000
MMMM
0000
1000
0001
,
0110
1000
0110
0001
,
0010
0100
0001
1000
0100
0010
0001
0000
,
0220
0000
0000
0000
,
0000
0000
0000
0000
,
0000
0000
0000
0330
,
0000
0000
0000
0000
;

//---------------dance-double - ----------------
#NOTES:
     dance-double:
     :
     Easy:
     6:
     0.332749,0.427028,0.165635,0.103522,0.000000,225.000000,209.000000,16.000000,10.000000,0.000000,0.000000,0.332749,0.427028,0.165635,0.103522,0.000000,225.000000,209.000000,16.000000,10.000000,0.000000,0.000000:
00000000
00000000
00000000
00000000
,
00000000
00000000
00000000
00000000
,
00000000
00000000
00000000
00000000
,
00000000
00000000
00000000
00000000
,
00000000
00000000
00000000
00000000
,
00000000
00000000
00000000
00000000
,
10000000
00100000
00010000
00000000
,
00001000
00000010
00000001
00000000
,
00000100
00010000
00001000
01000000
,
00100000
01000000
20020000
30030000
,
01000000
00100000
10000000
01000000
,
00010000
00000000
00001000
00000000
,
00000010
00000001
00001000
00000010
,
00000100
00000001
00001001
00000000
,
00000100
00001000
00010000
00100000
,
10000000
00000000
00010000
00000000
,
00100000
00001000
00010000
01000000
,
00100000
00000000
00022000
00033000
,
00000010
00000100
00000000
00000100
,
00000001
00001000
00000000
00000001
,
00000100
00001000
00000000
00010000
,
00100000
00100000
01000000
01000000
,
00100000
10000000
00000000
00100000
,
01000000
10000000
00000000
00010000
,
00001000
00000010
00000000
00000001
,
00000100
00001000
00011000
00011000
,
00100000
10000000
01000000
10000000
,
00100000
00001000
00010000
00000100
,
00000001
00000010
00000100
00000100
,
00001000
00000000
00000010
00000000
,
00000100
00001000
00010000
00100000
,
01000000
00010000
00100000
00001000
,
00010000
00001000
00000000
00000010
,
00002002
00000000
00000000
00003003
,
00000010
00000100
00000001
00000001
,
00001000
00010000
00001000
00001000
,
00010000
00100000
10000000
00100000
,
01000000
00001000
00010000
00100000
,
01000000
00001000
00010000
00010000
,
00000100
00001000
00000001
00000001
,
00000010
00000001
00000100
00000001
,
00001000
00000010
00011000
00011000
,
00100000
01000000
00010000
00010000
,
10000000
01000000
00100000
00100000
,
00010000
00001000
00010000
00001000
,
00001000
00000100
00000001
00000010
,
00001000
00100000
00010000
01000000
,
00001000
00100000
00010000
01000000
,
00001000
00010000
00000010
00000100
,
00002002
00000000
00000000
00003003
,
00000100
00000010
00000000
00000001
,
00000100
00001000
00000000
00010000
,
01000000
10000000
00000000
00010000
,
00100000
00010000
00100000
10000000
,
01000000
00010000
00000000
00001000
,
00000100
00000010
00000000
00000100
,
00000001
00000010
00001000
00000010
,
00010000
00001000
00011000
00011000
,
00100000
00010000
00100000
01000000
,
10000000
00010000
01000000
00001000
,
00010000
00000010
00001000
00000001
,
00000100
00001000
00000100
00000001
,
00001001
00000100
00000000
00000100
,
00011000
00100000
00000000
00100000
,
10010000
01000000
10010000
01000000
,
00010000
00001000
00010000
00001000
,
00022000
00000000
00000000
00000000
,
00000000
00000000
00000000
00000000
,
00000000
00000000
00000000
00033000
,
00000000
00000000
00000000
00000000
;

//---------------dance-double - ----------------
#NOTES:
     dance-double:
     :
     Medium:
     8:
     0.446623,0.498199,0.258805,0.103522,0.000000,302.000000,277.000000,25.000000,10.000000,0.000000,0.000000,0.446623,0.498199,0.258805,0.103522,0.000000,302.000000,277.000000,25.000000,10.000000,0.000000,0.000000:
00000000
00000000
00000000
00000000
,
00000000
00000000
00000000
00000000
,
00000000
00000000
00000000
00000000
,
00000000
00000000
00000000
00000000
,
00000000
00000000
00000000
00000000
,
00000000
00000000
00000000
00000000
,
00000001
00000100
00000010
00000000
00001000
00000000
00010000
00000000
,
00100000
01000000
10000000
00000000
00100000
01000000
00010000
00000000
,
10000000
01000000
00010000
00000000
00001000
00000000
00000100
00000000
,
00000010
00000100
00002002
00003003
,
00000100
00000010
00000001
00000000
00001000
00000100
00010000
00000000
,
00100000
10000000
01000000
00100000
,
01000000
10000000
00100000
00000000
00010000
00001000
00000100
00000000
,
00000001
00001000
00001001
00000000
,
00000001
00001000
00000100
00000000
00000010
00001000
00010000
00000000
,
01000000
00010000
00100000
00010000
,
10000000
00100000
01000000
00000000
00010000
00100000
01000000
00000000
,
00001000
00010000
00022000
00033000
,
00000010
00000000
00000100
00000000
00000010
00001000
00000100
00000000
,
00010000
00000000
00001000
00000000
00000010
00000100
00001000
00000000
,
00010000
00000000
00100000
00000000
01000000
10000000
01000000
00000000
,
00100000
10000000
00100000
00000000
00010000
00001000
00010000
00000000
,
00000100
00000000
00000010
00000000
00000001
00000010
00000100
00000000
,
00001000
00000000
00000001
00000000
00000100
00001000
00010000
00000000
,
00100000
00000000
10000000
00000000
00010000
01000000
00010000
00000000
,
00100000
00001000
00011000
00011000
,
00000010
00000000
00000001
00000000
00000100
00000001
00000010
00000000
,
00001000
00000000
00010000
00000000
01000000
00100000
00010000
00000000
,
10000000
00100000
01000000
01001000
,
00010000
00001010
00000100
00000011
,
00000100
00000000
00010000
00000000
00000010
00001000
00000001
00000000
,
00000100
00000000
00001000
00000000
00010000
00100000
10000000
00000000
,
00010000
00100000
01000000
10000000
,
20020000
00000000
00000000
30030000
,
00100000
00000000
01000000
10000000
00000000
10000000
01000000
00000000
,
00010000
00000000
00001000
00010000
00000000
00010000
00001000
00000000
,
00000010
00000001
00000100
00001000
,
00000110
00000000
00001001
00000000
00000010
00001000
00010000
00000000
,
01000000
00000000
00100000
01000000
00000000
00010000
10000000
00000000
,
01000000
00000000
10000000
00100000
00000000
10000000
01000000
00000000
,
00100000
00001000
00010000
00000100
,
00000011
00001100
00000101
00000101
,
00000010
00000000
00000100
00000000
00001000
00010000
00001000
00000000
,
00100000
00010000
01000000
00000000
00100000
10000000
01000000
00000000
,
00100000
01000000
10000000
00100000
,
00010000
00001000
00010000
00011000
,
00000100
00000000
00010000
00000000
00000010
00001000
00000100
00000000
,
00000010
00000100
00001000
00000000
00000010
00000100
00000001
00000000
,
00000010
00001000
00010000
00100000
,
20020000
00000000
00000000
30030000
,
01000000
00000000
00100000
10000000
00000000
00010000
00100000
00000000
,
01000000
00000000
00010000
00001000
00000000
00000100
00000010
00000000
,
00000100
00000001
00000010
00001000
,
00000110
00000000
00001001
00000000
00000010
00000001
00000100
00000000
,
00000010
00000000
00010000
00001000
00000000
00100000
00010000
00000000
,
01000000
00000000
00100000
01000000
00000000
00010000
01000000
00000000
,
10000000
01000000
00010000
00100000
,
00001000
00000100
00000110
00000110
,
00000001
00000000
00001000
00000000
00000010
00001000
00000010
00000000
,
00000100
00000000
00001000
00000000
00100000
00010000
00100000
00000000
,
01000000
10000000
00100000
00000000
01000000
00100000
10000000
00000000
,
01000000
00010000
00001000
00000010
,
00001001
00000000
00000100
00000000
00000000
00000000
00000100
00010000
,
00001000
00000000
01000000
00000000
00000000
00000000
01000000
00100000
,
01000000
10010000
01000000
10010000
,
01000000
00000000
00010000
00000000
00001000
00000010
00000100
00000000
,
00002002
00000000
00000000
00000000
,
00000000
00000000
00000000
00000000
,
00000000
00000000
00000000
00003003
,
00000000
00000000
00000000
00000000
;

//---------------dance-double - ----------------
#NOTES:
     dance-double:
     :
     Hard:
     12:
     0.604863,0.604956,0.652187,0.103522,0.113874,409.000000,346.000000,63.000000,10.000000,0.000000,0.000000,0.604863,0.604956,0.652187,0.103522,0.113874,409.000000,346.000000,63.000000,10.000000,0.000000,0.000000:
00000000
00000000
00000000
00000000
,
00000000
00000000
00000000
00000000
,
00000000
00000000
00000000
00000000
,
00000000
00000000
00000000
00000000
,
00000000
00000000
00000000
00000000
,
00000000
00000000
00000000
00000000
,
10000000
00000000
00000000
10000000
00100000
00000000
00000000
00000000
01000000
00000000
00000000
01000000
00001000
00000000
00010000
00000000
,
00000100
00000000
00000000
00000100
00000001
00000000
00000000
00000000
00000100
00000000
00000000
00000100
00001000
00000000
00000001
00000000
,
00000100
00000000
00000000
00000100
00000010
00000000
00000000
00000000
00001000
00000000
00000000
00001000
00100000
00000000
01000000
00000000
,
00100000
00000000
00000000
00100000
10000000
00000000
00000000
00000000
20020000
00000000
00000000
00000000
30030000
00000000
00000000
00000000
,
00100000
01000000
10000000
01000000
00010000
00001000
00000100
00000001
,
00000010
00000000
00000000
00000010
00000100
00000000
00000000
00000000
00001000
00000000
00000000
00001000
00000010
00000000
00000100
00000000
,
00000010
00001000
00000001
00000010
00001000
00010000
00100000
10000000
,
00010000
00000000
00000000
00010000
00100000
00000000
00000000
00000000
11000000
00000000
00000000
00000000
00000000
00000000
00000000
00000000
,
10000000
00100000
01000000
00001000
00010000
00000100
00000010
00000001
,
00000100
00000000
00000000
00000100
00000010
00000000
00000000
00000000
00000100
00000000
00000000
00000100
00000001
00000000
00001000
00000000
,
00000100
00000010
00001000
00010000
01000000
10000000
00100000
10000000
,
00010000
00100000
20020000
30030000
,
01000000
00010000
00100000
00010000
01000000
00000000
00001000
00000000
,
00010000
00000010
00001000
00000100
00010000
00000000
00001000
00000000
,
00000010
00000001
00001000
00000000
00000110
00000000
00001100
00000000
,
00011000
00110000
11000000
01010000
,
00100000
01000000
00010000
00100000
01000000
00000000
00010000
00000000
,
00001000
00000100
00000001
00000100
00001000
00000000
00000010
00000000
,
00000100
00000001
00000010
00000000
00001100
00000000
00011000
00000000
,
00010010
01001000
00110000
00110000
,
00010000
01000000
10000000
01000000
00100000
10000000
01000000
00010000
,
00001000
00000010
00000001
00000010
00000001
00001000
00000010
00000100
,
00001000
00010000
00100000
00000000
10100000
00000000
01010000
00000000
,
00011000
00110000
01100000
11000000
,
00100000
00010000
01000000
00001000
00100000
00010000
10000000
00100000
,
00010000
00000100
00001000
00000001
00000010
00000100
00010000
00000010
,
00001000
00000001
00000100
00000000
00000010
00001000
00000010
00000000
,
00022000
00000000
00000000
00033000
,
00010000
00000000
00000000
00010000
00100000
00000000
00000000
00100000
01000000
00000000
00010000
00000000
00100000
00000000
00000000
00000000
,
10000000
00000000
00000000
10000000
00010000
00000000
00000000
00010000
01000000
00000000
10000000
00000000
00010000
00000000
00000000
00000000
,
01000000
00000000
00000000
01000000
00100000
00000000
00000000
00000000
10010000
00000000
00000000
00000000
01010000
00000000
00000000
00000000
,
00011000
00001010
00000011
00001100
,
00000010
00000000
00000000
00000010
00000100
00000000
00000000
00000100
00010000
00000000
00000010
00000000
00001000
00000000
00000000
00000000
,
00000001
00000000
00000000
00000001
00000100
00000000
00000000
00000100
00001000
00000000
00010000
00000000
00100000
00000000
00000000
00000000
,
01000000
00000000
00000000
01000000
00010000
00000000
00000000
00000000
11000000
00000000
00000000
00000000
00110000
00000000
00000000
00000000
,
00010010
00101000
00011000
00011000
,
00000100
00000001
00001000
00000100
00000000
00000010
00001000
00010000
,
00100000
10000000
00010000
00100000
00000000
01000000
10000000
00010000
,
01000000
00100000
01000000
00010000
00000000
00010000
00001000
00010000
,
00000000
00000100
00001000
00000100
00000000
00000001
00000100
00000000
,
00000010
00001000
00000100
00000010
00000000
00001000
00010000
00001000
,
00000100
00000001
00001000
00000100
00000000
00010000
00001000
00100000
,
00010000
10000000
00010000
01000000
00000000
00010000
00100000
01000000
,
20020000
00000000
00000000
30030000
,
10100000
00000000
01010000
00000000
00100000
00001000
01000000
00000000
,
00011000
00000000
00001010
00000000
00000100
00001000
00000010
00000000
,
00000101
00001100
00011000
01010000
,
10100000
00000000
11000000
00000000
00100000
00010000
01000000
00000000
,
01001000
00000000
00110000
00000000
01000000
10000000
00010000
00000000
,
01010000
00000000
00011000
00000000
00000100
00000010
00001000
00000000
,
00000011
00001100
00101000
00010100
,
00010010
01001000
10010000
10010000
,
10000000
01000000
00010000
01000000
10000000
00010000
01000000
00001000
,
00010000
00000010
00001000
00000010
00000100
00000001
00000010
00000100
,
00001000
00000001
00000100
00000000
00001000
00010000
00100000
00000000
,
10000000
00010000
00100000
00000000
01000000
00000000
11000000
00000000
,
01010000
00000000
00100000
00000000
00000000
00000000
00100000
00001000
,
00011000
00000000
00000010
00000000
00000000
00000000
00000010
00000100
,
00000110
00000001
00000110
00001000
,
00000001
00001000
00000100
00010000
00001000
01000000
00100000
00000000
,
20020000
00000000
00000000
00000000
,
00000000
00000000
00000000
00000000
,
00000000
00000000
00000000
30030000
,
00000000
00000000
00000000
00000000
;

//---------------dance-double - ----------------
#NOTES:
     dance-double:
     :
     Challenge:
     12:
     0.539792,0.604956,0.517609,0.082817,0.087994,365.000000,315.000000,50.000000,8.000000,224.000000,0.000000,0.539792,0.604956,0.517609,0.082817,0.087994,365.000000,315.000000,50.000000,8.000000,224.000000,0.000000:
00000000
00000000
00000000
00000000
,
00000000
00000000
00000000
00000000
,
00000000
00000000
00000000
00000000
,
00000000
00000000
00000000
00000000
,
00000000
00000000
00000000
00000000
,
00000000
00000000
00000000
00000000
,
10000000
00000000
00000000
10000000
00100000
00000000
00000000
00000000
01000000
00000000
00000000
01000000
00001000
00000000
00010000
00000000
,
00000100
00000000
00000000
00000100
00000001
00000000
00000000
00000000
00000100
00000000
00000000
00000100
00001000
00000000
00000001
00000000
,
00000100
00000000
00000000
00000100
00000010
00000000
00000000
00000000
00001000
00000000
00000000
00001000
00100000
00000000
01000000
00000000
,
00100000
00000000
00000000
00100000
10000000
00000000
00000000
00000000
10010000
00000000
00000000
00000000
MMMMMMMM
00000000
00000000
00000000
,
00100000
01000000
10000000
01000000
00010000
00001000
00000100
00000001
,
00000010
MMMMMMMM
00001000
MMMMMMMM
,
00000010
00001000
00000001
00000010
00001000
00010000
00100000
10000000
,
00010000
MMMMMMMM
11000000
MMMMMMMM
,
10000000
00100000
01000000
00001000
00010000
00000100
00000010
00000001
,
00000100
MMMMMMMM
00001000
MMMMMMMM
,
00000100
00000010
00001000
00010000
01000000
10000000
00100000
10000000
,
00010000
00100000
20020000
30030000
,
01000000
00010000
00100000
00010000
01000000
00000000
00001000
00000000
,
00010000
00000010
00001000
00000100
00010000
00000000
00001000
00000000
,
00000010
00000001
00001000
00000000
00000110
00000000
00001100
00000000
,
MMMMMMMM
00110000
MMMMMMMM
01010000
,
00100000
01000000
00010000
00100000
01000000
00000000
00010000
00000000
,
00001000
00000100
00000001
00000100
00001000
00000000
00000010
00000000
,
00000100
00000001
00000010
00000000
00001100
00000000
00011000
00000000
,
MMMMMMMM
01001000
00110000
00110000
,
00010000
01000000
10000000
01000000
00100000
10000000
01000000
00010000
,
00001000
00000010
00000001
00000010
00000001
00001000
00000010
00000100
,
00001000
00010000
00100000
00000000
10100000
00000000
01010000
00000000
,
MMMMMMMM
00011000
MMMMMMMM
11000000
,
00100000
00010000
01000000
00001000
00100000
00010000
10000000
00100000
,
00010000
00000100
00001000
00000001
00000010
00000100
00010000
00000010
,
00001000
00000001
00000100
00000000
00000010
00001000
00000010
00000000
,
00022000
00000000
00000000
00033000
,
00010000
00000000
00000000
00010000
00100000
00000000
00000000
00100000
01000000
00000000
00010000
00000000
00100000
00000000
00000000
00000000
,
10000000
00000000
00000000
10000000
00010000
00000000
00000000
00010000
01000000
00000000
10000000
00000000
00010000
00000000
00000000
00000000
,
01000000
00000000
00000000
01000000
00100000
00000000
00000000
00000000
10010000
00000000
00000000
00000000
01010000
00000000
00000000
00000000
,
MMMMMMMM
00001010
MMMMMMMM
00001100
,
00000010
00000000
00000000
00000010
00000100
00000000
00000000
00000100
00010000
00000000
00000010
00000000
00001000
00000000
00000000
00000000
,
00000001
00000000
00000000
00000001
00000100
00000000
00000000
00000100
00001000
00000000
00010000
00000000
00100000
00000000
00000000
00000000
,
01000000
00000000
00000000
01000000
00010000
00000000
00000000
00000000
11000000
00000000
00000000
00000000
00110000
00000000
00000000
00000000
,
MMMMMMMM
00010010
00011000
00011000
,
00000100
00000001
MMMMMMMM
00000100
00000000
00000010
00001000
00010000
,
00100000
10000000
MMMMMMMM
00100000
00000000
01000000
10000000
00010000
,
01000000
00100000
MMMMMMMM
00010000
00000000
00010000
00001000
00010000
,
00000000
00000100
00001000
00000100
00000000
00000001
00000100
00000000
,
00000010
00001000
MMMMMMMM
00000010
00000000
00001000
00010000
00001000
,
00000100
00000001
MMMMMMMM
00000100
00000000
00010000
00001000
00100000
,
00010000
10000000
MMMMMMMM
01000000
00000000
00010000
00100000
01000000
,
20020000
00000000
00000000
30030000
,
10100000
00000000
01010000
00000000
00100000
00001000
01000000
00000000
,
00011000
00000000
00001010
00000000
00000100
00001000
00000010
00000000
,
00000101
00001100
00011000
01010000
,
MMMMMMMM
00000000
11000000
00000000
00100000
00010000
01000000
00000000
,
01001000
00000000
00110000
00000000
01000000
10000000
00010000
00000000
,
01010000
00000000
00011000
00000000
00000100
00000010
00001000
00000000
,
MMMMMMMM
00001100
MMMMMMMM
00010100
,
MMMMMMMM
01001000
10010000
10010000
,
10000000
01000000
00010000
01000000
10000000
00010000
01000000
00001000
,
00010000
00000010
00001000
00000010
00000100
00000001
00000010
00000100
,
00001000
00000001
00000100
00000000
00001000
00010000
00100000
00000000
,
10000000
00010000
00100000
00000000
01000000
00000000
MMMMMMMM
00000000
,
01010000
00000000
00100000
00000000
MMMMMMMM
00000000
00100000
00001000
,
00011000
00000000
00000010
00000000
MMMMMMMM
00000000
00000010
00000100
,
00000110
00000001
00000110
00001000
,
00000001
00001000
00000100
00010000
00001000
01000000
00100000
00000000
,
20020000
00000000
00000000
00000000
,
00000000
00000000
00000000
00000000
,
00000000
00000000
00000000
30030000
,
00000000
00000000
00000000
00000000
;

//---------------dance-single - Edit----------------
#NOTES:
     dance-single:
     :
     Edit:
     18:
     1.094373,1.178596,0.093170,0.207044,1.573532,740.000000,731.000000,9.000000,20.000000,0.000000,0.000000,1.094373,1.178596,0.093170,0.207044,1.573532,740.000000,731.000000,9.000000,20.000000,0.000000,0.000000:
// measure 0
0000
0000
0000
0000
,  // measure 1
0000
0000
0000
0000
,  // measure 2
0000
0000
0000
0000
,  // measure 3
0000
0000
0000
0000
,  // measure 4
0000
0000
0000
0000
,  // measure 5
0000
0000
0000
0000
,  // measure 6
1000
0000
0000
1000
0100
0000
0010
0100
0001
0000
0000
0001
0100
0000
0010
1000
,  // measure 7
0100
0000
0000
0100
1000
0000
0010
0100
0001
0000
0000
0001
0010
0000
0100
0010
,  // measure 8
1000
0000
0000
1000
0100
0000
0010
1000
0100
0000
0000
0100
0010
0000
0001
1000
,  // measure 9
0010
0000
0000
0010
0100
0000
0001
1000
0020
0000
0000
0000
0030
0000
0000
0000
,  // measure 10
1000
0010
0001
0100
1000
0100
0001
0010
,  // measure 11
0200
0001
1300
0000
,  // measure 12
0001
0100
1000
0010
0001
0010
1000
0100
,  // measure 13
0020
1000
0031
0000
,  // measure 14
0010
0100
0001
1000
0100
0010
0100
1000
,  // measure 15
0002
0010
0103
0000
,  // measure 16
1000
0010
0001
0100
1000
0010
0100
0010
,  // measure 17
2010
0100
0002
3003
,  // measure 18
1000
0100
0010
0100
1000
0000
0001
0010
0100
0010
0001
0000
1000
0100
0010
0001
,  // measure 19
0100
0000
0010
1000
0100
0000
0110
0000
0000
0000
0011
0000
0001
0010
0100
0000
,  // measure 20
1100
0000
1000
0010
0100
0000
0001
0010
0100
0000
0010
1000
0100
0000
0010
0001
,  // measure 21
1000
0000
0100
0010
1000
0000
0010
0100
0001
1000
0100
0000
0110
0000
0000
0000
,  // measure 22
0001
0010
1000
0010
0001
0000
1000
0100
0001
0100
1000
0000
0010
0100
0001
1000
,  // measure 23
0100
0000
0010
0100
0001
0000
1001
0000
0000
0000
1100
0000
1000
0010
0100
0000
,  // measure 24
0101
0000
0001
0010
0100
0000
0010
0100
1000
0000
1000
0100
0010
0000
0100
0010
,  // measure 25
0001
0000
1000
0010
0001
0000
0001
0100
1000
0000
0000
0000
1001
0000
0000
0000
,  // measure 26
1000
0010
0100
0010
1000
0010
0100
0010
1000
0010
0100
0010
1000
0010
0100
0010
,  // measure 27
0001
0010
0100
0010
0001
0010
0100
0010
0001
0010
0100
0010
0001
0010
0100
0010
,  // measure 28
0001
0010
1000
0010
0001
0010
1000
0010
1000
0010
0001
0010
1000
0010
0001
0010
,  // measure 29
1000
0000
0010
0001
0100
0000
0010
1000
0100
0000
0010
0100
0010
0100
0010
0000
,  // measure 30
1000
0100
0010
0100
1000
0100
0010
0100
1000
0100
0010
0100
1000
0100
0010
0100
,  // measure 31
0001
0100
0010
0100
0001
0100
0010
0100
0001
0100
0010
0100
0001
0100
0010
0100
,  // measure 32
1000
0100
0001
0100
1000
0100
0001
0100
0001
0100
1000
0100
0001
0100
1000
0100
,  // measure 33
0002
0100
2000
3003
,  // measure 34
0010
0001
0100
0001
0010
0000
0100
1000
0010
1000
0100
0000
0100
0001
1000
0100
,  // measure 35
0010
0001
0100
0001
0010
0000
1000
0100
0010
0100
1000
0000
0010
0100
1000
0100
,  // measure 36
0010
0000
0100
0001
0010
0000
1000
0100
0010
0000
0001
0100
0010
0000
1000
0001
,  // measure 37
0020
0000
1030
0020
0000
0000
0031
0020
0000
0000
1030
0020
0000
0000
0130
1000
,  // measure 38
0001
0010
0100
1000
0010
0000
1000
0100
0010
0001
0100
0000
0001
0010
1000
0100
,  // measure 39
0001
0010
0100
1000
0010
0000
1000
0010
0001
0100
1000
0000
0010
0100
0001
1000
,  // measure 40
0100
0000
0001
0100
0010
0000
1000
0100
0010
0000
1000
0010
0100
0001
1000
0001
,  // measure 41
0020
0000
0000
0000
0000
0000
0000
0000
1000
0000
0000
0000
0000
0000
0000
0000
0031
0100
0010
0000
0000
0000
0000
0000
0001
0100
0010
0000
0000
0000
0000
0000
,  // measure 42
1000
0100
0010
0100
1000
0000
0001
0010
1000
0100
0010
0000
1000
0010
0100
0001
,  // measure 43
0010
1000
0100
0001
0010
0000
0001
0100
1000
0010
0100
0000
0010
1000
0001
0010
,  // measure 44
0100
0000
0010
1000
0100
0000
0010
1000
0001
0000
0010
0001
0100
0000
1000
0001
,  // measure 45
0200
0000
0301
0200
0000
0000
0310
0200
0000
0000
1300
0200
0000
0000
0310
0001
,  // measure 46
1000
0100
0001
0010
0100
0000
0010
1000
0100
0010
0001
0000
0100
0010
1000
0001
,  // measure 47
0010
0100
1000
0010
0100
0000
0001
1000
0100
0010
0001
0000
0100
0010
1000
0001
,  // measure 48
0010
0000
0100
0010
0001
0000
1000
0100
0010
0000
1000
0001
0010
0000
1000
0100
,  // measure 49
0020
0000
0000
0000
0000
0000
0000
0000
0001
0000
0000
0000
0000
0000
0000
0000
1030
0010
0100
0000
0000
0000
0000
0000
1000
0010
0100
0000
0000
0000
0000
0000
,  // measure 50
1000
0100
0010
0100
1000
0100
0010
0100
1000
0100
0010
0100
1000
0100
0010
0100
,  // measure 51
1000
0001
1000
0001
1000
0001
1000
0001
1000
0001
1000
0001
1000
0001
1000
0001
,  // measure 52
1000
0010
0100
0010
1000
0010
0100
0010
1000
0010
0100
0010
1000
0010
0100
0010
,  // measure 53
1000
0001
1000
0001
1000
0001
1000
0001
1000
0001
1000
0001
1000
0001
1000
0001
,  // measure 54
1000
0100
0001
0100
1000
0100
0001
0100
1000
0100
0001
0100
1000
0100
0001
0100
,  // measure 55
1000
0001
1000
0001
1000
0001
1000
0001
1000
0001
1000
0001
1000
0001
1000
0001
,  // measure 56
1000
0010
0001
0010
1000
0010
0001
0010
1000
0010
0001
0010
1000
0010
0001
0010
,  // measure 57
1000
0001
1000
0001
1000
0001
1000
0001
1000
0001
1000
0001
1000
0001
1000
0100
,  // measure 58
0001
0010
0100
0010
0001
0010
0100
0010
0001
0010
0100
0010
0001
0010
0100
0010
,  // measure 59
0001
1000
0001
1000
0001
1000
0001
1000
0001
1000
0001
1000
0001
1000
0001
1000
,  // measure 60
0001
0100
0010
0100
0001
0100
0010
0100
0001
0100
0010
0100
0001
0100
0010
0100
,  // measure 61
0001
1000
0001
1000
0001
1000
0001
1000
0001
1000
0001
1000
0001
1000
0001
1000
,  // measure 62
0001
0010
1000
0010
0001
0010
1000
0010
0001
0010
1000
0010
0001
0010
1000
0010
,  // measure 63
0001
1000
0001
1000
0001
1000
0001
1000
0001
1000
0001
1000
0001
1000
0001
1000
,  // measure 64
0001
0100
1000
0100
0001
0100
1000
0100
0001
0100
1000
0100
0001
0100
1000
0100
,  // measure 65
0001
1000
0001
1000
0001
1000
0001
1000
0001
1000
0001
1000
0001
1000
0001
2000
,  // measure 66
0002
0000
0000
0000
,  // measure 67
0000
0000
0000
0000
,  // measure 68
0000
0000
0000
0000
,  // measure 69
3003
0000
0000
0000
;
