#VERSION:0.83;
#TITLE:WHAT A WONDERFUL WORLD;
#SUBTITLE:;
#ARTIST:BEATBOX vs DJ MIKO;
#TITLETRANSLIT:;
#SUBTITLETRANSLIT:;
#ARTISTTRANSLIT:;
#GENRE:;
#ORIGIN:;
#CREDIT:;
#BANNER:WHAT A WONDERFUL WORLD.png;
#BACKGROUND:WHAT A WONDERFUL WORLD-bg.png;
#PREVIEWVID:;
#JACKET:WHAT A WONDERFUL WORLD-jacket.png;
#CDIMAGE:;
#DISCIMAGE:;
#LYRICSPATH:;
#CDTITLE:;
#MUSIC:WHAT A WONDERFUL WORLD.ogg;
#OFFSET:0.000000;
#SAMPLESTART:17.320000;
#SAMPLELENGTH:15.000000;
#SELECTABLE:YES;
#BPMS:0.000=142.000;
#STOPS:;
#DELAYS:;
#WARPS:;
#TIMESIGNATURES:0.000=4=4;
#TICKCOUNTS:0.000=4;
#COMBOS:0.000=1;
#SPEEDS:0.000=1.000=0.000=0;
#SCROLLS:0.000=1.000;
#FAKES:;
#LABELS:0.000=Song Start;
#BGCHANGES:;
#KEYSOUNDS:;
#ATTACKS:
;

//---------------dance-single - ----------------
#NOTEDATA:;
#CHARTNAME:;
#STEPSTYPE:dance-single;
#DESCRIPTION:;
#CHARTSTYLE:;
#DIFFICULTY:Beginner;
#METER:2;
#RADARVALUES:0.130618,0.138493,0.000000,0.000000,0.000000,85.000000,85.000000,0.000000,0.000000,0.000000,0.000000,0.000000,0.000000,0.000000,0.130618,0.138493,0.000000,0.000000,0.000000,85.000000,85.000000,0.000000,0.000000,0.000000,0.000000,0.000000,0.000000,0.000000;
#CREDIT:;
#NOTES:
0000
0000
0000
0000
,
0000
0000
0000
0000
,
0000
0000
0000
0000
,
0000
0000
0000
0000
,
0000
0000
0000
0000
,
0000
0000
0000
0000
,
0000
0000
0000
0000
,
0000
0000
0000
0000
,
0000
0000
1000
0000
,
0001
0000
1000
0000
,
0001
0000
0100
0000
,
0010
0000
0100
0000
,
0100
0000
0010
0000
,
0100
0000
0010
0000
,
0010
0000
0100
0000
,
0001
0000
0100
0000
,
0100
0000
0010
0000
,
1000
0000
0010
0000
,
0010
0000
1000
0000
,
0100
0000
0010
0000
,
0010
0000
0001
0000
,
0100
0000
0010
0000
,
0010
0000
1000
0000
,
0010
0000
0100
0000
,
0100
0000
0001
0000
,
0010
0000
0100
0000
,
0100
0000
0100
0000
,
0010
0000
0100
0000
,
0100
0000
0010
0000
,
0100
0000
0010
0000
,
0010
0000
0100
0000
,
0001
0000
0100
0000
,
0100
0000
0010
0000
,
1000
0000
0010
0000
,
0010
0000
1000
0000
,
0100
0000
0010
0000
,
0010
0000
0001
0000
,
0100
0000
0010
0000
,
0010
0000
1000
0000
,
0010
0000
0100
0000
,
0100
0000
0001
0000
,
0010
0000
0100
0000
,
0100
0000
0000
0000
,
0000
0000
0100
0000
,
0100
0000
0100
0000
,
0100
0000
0100
0000
,
0100
0000
0100
0000
,
0100
0000
0010
0000
,
0010
0000
0010
0000
,
0010
0000
0010
0000
,
0010
0000
0010
0000
,
0010
0000
0100
0000
,
0000
0000
0000
0000
;

//---------------dance-single - ----------------
#NOTEDATA:;
#CHARTNAME:;
#STEPSTYPE:dance-single;
#DESCRIPTION:;
#CHARTSTYLE:;
#DIFFICULTY:Easy;
#METER:4;
#RADARVALUES:0.182865,0.221589,0.010757,0.000000,0.000000,119.000000,118.000000,1.000000,0.000000,0.000000,0.000000,0.000000,0.000000,0.000000,0.182865,0.221589,0.010757,0.000000,0.000000,119.000000,118.000000,1.000000,0.000000,0.000000,0.000000,0.000000,0.000000,0.000000;
#CREDIT:;
#NOTES:
0000
0000
0000
0000
,
0000
0000
0000
0000
,
0000
0000
0000
0000
,
0000
0000
0000
0000
,
0000
0000
0000
0000
,
0000
0000
0000
0000
,
0000
0000
0000
0000
,
0000
0000
0000
0000
,
0000
0000
1000
0000
,
0001
0000
1000
0000
,
0001
1001
0100
0000
,
0010
0000
0100
0001
,
0100
0000
0010
0000
,
0100
0000
0010
1000
,
0010
0000
0100
0000
,
0001
0000
0100
0010
,
0100
0000
0010
0000
,
1000
0000
0010
0100
,
0010
0000
1000
0000
,
0100
0000
0010
0001
,
0010
0100
0001
0000
,
0100
0000
0010
1000
,
0010
0100
1000
0000
,
0010
0000
0100
0001
,
0100
0010
0001
0000
,
0010
0000
0100
1000
,
0100
0010
0100
0000
,
0010
0000
0100
0001
,
0100
0000
0010
0000
,
0100
0000
0010
1000
,
0010
0000
0100
0000
,
0001
0000
0100
0010
,
0100
0000
0010
0000
,
1000
0000
0010
0100
,
0010
0000
1000
0000
,
0100
0000
0010
0001
,
0010
0100
0001
0000
,
0100
0000
0010
1000
,
0010
0100
1000
0000
,
0010
0000
0100
0001
,
0100
0010
0001
0000
,
0010
0000
0100
1000
,
0100
0010
0000
0000
,
0000
0000
0100
0001
,
0100
0000
0100
0010
,
0100
0000
0100
1000
,
0100
0000
0100
0010
,
0100
0000
0010
0001
,
0010
0000
0010
0100
,
0010
0000
0010
1000
,
0010
0000
0010
0100
,
0010
0000
0100
0000
,
0000
0000
0000
0000
;

//---------------dance-single - ----------------
#NOTEDATA:;
#CHARTNAME:;
#STEPSTYPE:dance-single;
#DESCRIPTION:;
#CHARTSTYLE:;
#DIFFICULTY:Medium;
#METER:6;
#RADARVALUES:0.298115,0.332383,0.096811,0.000000,0.000000,194.000000,185.000000,9.000000,0.000000,0.000000,0.000000,0.000000,0.000000,0.000000,0.298115,0.332383,0.096811,0.000000,0.000000,194.000000,185.000000,9.000000,0.000000,0.000000,0.000000,0.000000,0.000000,0.000000;
#CREDIT:;
#NOTES:
0000
0000
0000
0000
,
0000
0000
0000
0000
,
0000
0000
0000
0000
,
0000
0000
0000
0000
,
0000
0000
0000
0000
,
0000
0000
0000
0000
,
0000
0000
0000
0000
,
0000
0000
0000
0000
,
0000
0000
1000
1000
,
0001
0001
0100
0100
,
0010
1001
0100
0010
,
0001
1000
0001
0000
0100
0000
0010
0000
,
1000
0001
0100
0010
,
1000
0001
1000
0000
0100
0000
0010
0000
,
0001
1001
0010
0100
,
0001
1000
0001
0000
0010
0000
0100
0000
,
1000
0001
0010
0100
,
1000
0001
1000
0000
0010
0000
0100
0000
,
0001
0000
1001
0000
0010
0000
0100
1000
,
0001
0010
0100
1000
,
0001
0000
0010
0000
0100
0000
0010
0001
,
1000
0100
0010
0001
,
1000
0000
0110
0000
0010
0000
0001
0100
,
0010
1000
0001
0100
,
0010
0000
1000
0000
0100
0000
1000
0010
,
0100
0001
1000
0010
,
0100
1001
0100
0010
,
0001
1000
0001
0000
0100
0000
0010
0000
,
1000
0001
0100
0010
,
1000
0001
1000
0000
0100
0000
0010
0000
,
0001
1001
0010
0100
,
0001
1000
0001
0000
0010
0000
0100
0000
,
1000
0001
0010
0100
,
1000
0001
1000
0000
0010
0000
0100
0000
,
0001
0000
1001
0000
0010
0000
0100
1000
,
0001
0010
0100
1000
,
0001
0000
0010
0000
0100
0000
0010
0001
,
1000
0100
0010
0001
,
1000
0000
0110
0000
0010
0000
0001
0100
,
0010
1000
0001
0100
,
0010
0000
1000
0000
0100
0000
1000
0010
,
0100
0001
1000
0010
,
0100
1001
0000
0000
,
0000
0000
0100
0001
,
0100
0010
0100
1000
,
0100
0010
1000
0100
,
1000
0001
1000
0010
,
1000
0001
0010
1000
,
0010
0100
0010
0001
,
0010
0100
0001
0100
,
0001
1000
0001
0010
,
0001
1000
0100
0000
,
0000
0000
0000
0000
;

//---------------dance-single - ----------------
#NOTEDATA:;
#CHARTNAME:;
#STEPSTYPE:dance-single;
#DESCRIPTION:;
#CHARTSTYLE:;
#DIFFICULTY:Hard;
#METER:11;
#RADARVALUES:0.425659,0.498575,0.010757,0.000000,0.209756,277.000000,276.000000,1.000000,0.000000,0.000000,0.000000,0.000000,0.000000,0.000000,0.425659,0.498575,0.010757,0.000000,0.209756,277.000000,276.000000,1.000000,0.000000,0.000000,0.000000,0.000000,0.000000,0.000000;
#CREDIT:;
#NOTES:
0000
0000
0000
0000
,
0000
0000
0000
0000
,
0000
0000
0000
0000
,
0000
0000
0000
0000
,
0000
0000
0000
0000
,
0000
0000
0000
0000
,
0000
0000
0000
0000
,
0000
0000
0000
0000
,
0000
0000
0000
0000
0000
0000
0000
0000
0100
0000
0000
0100
0000
0000
0010
0000
,
1000
0000
0000
1000
0000
0000
0001
0000
0010
0000
0000
0010
0000
0000
0100
0000
,
0001
1001
0100
0010
,
0001
0100
0001
0000
0100
0000
0010
0000
,
1000
0000
0000
0100
1000
0000
0001
0000
0100
0000
0000
0000
0010
0000
0000
0000
,
1000
0100
1000
0000
0100
0000
0010
0000
,
0001
0100
0000
0100
0001
0000
1000
0000
0010
0000
0000
0000
0100
0000
0000
0000
,
0001
0010
0001
0000
0010
0000
0100
0000
,
1000
0000
0000
0010
1000
0000
0001
0000
0010
0000
0000
0000
0100
0000
0000
0000
,
1000
0010
1000
0000
0010
0000
0100
0000
,
0001
0010
0000
0010
0001
0000
1000
0000
0100
0000
0000
0010
0001
0000
1000
0000
,
0010
0000
0000
0100
0001
0000
1000
0000
0100
0000
0000
0010
0001
0000
1000
0000
,
0010
0000
0100
0000
0001
0000
0000
0000
0100
0000
0000
0010
1000
0000
0001
0000
,
0010
0000
0000
0100
1000
0000
0001
0000
0100
0000
0000
0010
1000
0000
0001
0000
,
0010
0000
0100
0000
1000
0000
0000
0000
0010
0000
0000
0100
0001
0000
1000
0000
,
0100
0000
0000
0010
0001
0000
1000
0000
0010
0000
0000
0100
0001
0000
1000
0000
,
0100
0000
0010
0000
0001
0000
0000
0000
0010
0000
0000
0100
1000
0000
0001
0000
,
0100
0000
0000
0010
1000
0000
0001
0000
0010
0000
0000
0100
1000
0000
0001
0000
,
0100
0010
1000
0000
0100
0000
0010
0000
,
0001
0100
0001
0000
0100
0000
0010
0000
,
1000
0000
0000
0100
1000
0000
0001
0000
0100
0000
0000
0000
0010
0000
0000
0000
,
1000
0100
1000
0000
0100
0000
0010
0000
,
0001
0100
0000
0100
0001
0000
1000
0000
0010
0000
0000
0000
0100
0000
0000
0000
,
0001
0010
0001
0000
0010
0000
0100
0000
,
1000
0000
0000
0010
1000
0000
0001
0000
0010
0000
0000
0000
0100
0000
0000
0000
,
1000
0010
1000
0000
0010
0000
0100
0000
,
0001
0010
0000
0010
0001
0000
1000
0000
0100
0000
0000
0010
0001
0000
1000
0000
,
0010
0000
0000
0100
0001
0000
1000
0000
0100
0000
0000
0010
0001
0000
1000
0000
,
0010
0000
0100
0000
0001
0000
0000
0000
0100
0000
0000
0010
1000
0000
0001
0000
,
0010
0000
0000
0100
1000
0000
0001
0000
0100
0000
0000
0010
1000
0000
0001
0000
,
0010
0000
0100
0000
1000
0000
0000
0000
0010
0000
0000
0100
0001
0000
1000
0000
,
0100
0000
0000
0010
0001
0000
1000
0000
0010
0000
0000
0100
0001
0000
1000
0000
,
0100
0000
0010
0000
0001
0000
0000
0000
0010
0000
0000
0100
1000
0000
0001
0000
,
0100
0000
0000
0010
1000
0000
0001
0000
0010
0000
0000
0100
1000
0000
0001
0000
,
0100
0010
1000
0000
0000
0000
0000
0000
,
0000
0000
0000
0000
0001
0100
0001
0000
,
0001
1000
0001
0000
0001
0010
0001
0000
,
0001
1000
0001
0000
1000
0100
1000
0000
,
1000
0001
1000
0000
1000
0010
1000
0000
,
1000
0001
1000
0000
0010
0100
0010
0000
,
1000
0001
1000
0000
0100
0010
0100
0000
,
0001
1000
0001
0000
1000
0100
0010
0001
,
0100
0010
1000
0001
0010
0100
0010
1000
,
0010
0100
0010
0001
0100
0000
0000
0000
,
0000
0000
0000
0000
;

//---------------dance-double - ----------------
#NOTEDATA:;
#CHARTNAME:;
#STEPSTYPE:dance-double;
#DESCRIPTION:;
#CHARTSTYLE:;
#DIFFICULTY:Easy;
#METER:5;
#RADARVALUES:0.185938,0.249287,0.010757,0.000000,0.000000,121.000000,120.000000,1.000000,0.000000,0.000000,0.000000,0.000000,0.000000,0.000000,0.185938,0.249287,0.010757,0.000000,0.000000,121.000000,120.000000,1.000000,0.000000,0.000000,0.000000,0.000000,0.000000,0.000000;
#CREDIT:;
#NOTES:
00000000
00000000
00000000
00000000
,
00000000
00000000
00000000
00000000
,
00000000
00000000
00000000
00000000
,
00000000
00000000
00000000
00000000
,
00000000
00000000
00000000
00000000
,
00000000
00000000
00000000
00000000
,
00000000
00000000
00000000
00000000
,
00000000
00000000
00000000
00000000
,
00000000
00000000
00010000
00000000
,
00001000
00000000
00010000
00000000
,
00001000
00011000
00100000
00000000
,
10000000
00000000
01000000
10000000
,
00100000
00000000
00010000
00000000
,
00001000
00000000
00000100
00000001
,
00000010
00000000
00000001
00000000
,
00000100
00000000
00001000
00000100
,
00001000
00000000
00010000
00000000
,
00100000
00000000
01000000
10000000
,
01000000
00000000
10000000
00000000
,
01000000
00000000
00010000
00001000
,
00000100
00000001
00000010
00000000
,
00000100
00000000
00000010
00000001
,
00000100
00001000
00100000
00000000
,
10000000
00000000
00100000
00010000
,
00001000
00000100
00000001
00000000
,
00000100
00000000
00001000
00010000
,
00100000
10000000
01000000
00000000
,
10000000
00000000
00100000
10000000
,
01000000
00000000
00010000
00000000
,
00001000
00000000
00000010
00000001
,
00000100
00000000
00000001
00000000
,
00000010
00000000
00001000
00000010
,
00001000
00000000
00010000
00000000
,
01000000
00000000
00100000
10000000
,
00100000
00000000
10000000
00000000
,
00100000
00000000
00010000
00001000
,
00000010
00000001
00000100
00000000
,
00000010
00000000
00000100
00000001
,
00000010
00001000
01000000
00000000
,
10000000
00000000
01000000
00010000
,
00001000
00000010
00000001
00000000
,
00000010
00000000
00001000
00010000
,
01000000
10000000
00000000
00000000
,
00000000
00000000
00100000
00010000
,
00001000
00000000
00000010
00001000
,
00010000
00000000
01000000
00010000
,
00001000
00000000
00000100
00001000
,
00010000
00000000
00100000
01000000
,
00001000
00000000
00000010
00000100
,
00010000
00000000
00100000
00010000
,
00001000
00000100
00001000
00010000
,
00100000
01000000
00010000
00000000
,
00000000
00000000
00000000
00000000
;

//---------------dance-double - ----------------
#NOTEDATA:;
#CHARTNAME:;
#STEPSTYPE:dance-double;
#DESCRIPTION:;
#CHARTSTYLE:;
#DIFFICULTY:Medium;
#METER:6;
#RADARVALUES:0.288895,0.304685,0.032270,0.000000,0.000000,188.000000,185.000000,3.000000,0.000000,0.000000,0.000000,0.000000,0.000000,0.000000,0.288895,0.304685,0.032270,0.000000,0.000000,188.000000,185.000000,3.000000,0.000000,0.000000,0.000000,0.000000,0.000000,0.000000;
#CREDIT:;
#NOTES:
00000000
00000000
00000000
00000000
,
00000000
00000000
00000000
00000000
,
00000000
00000000
00000000
00000000
,
00000000
00000000
00000000
00000000
,
00000000
00000000
00000000
00000000
,
00000000
00000000
00000000
00000000
,
00000000
00000000
00000000
00000000
,
00000000
00000000
00000000
00000000
,
00000000
00000000
00010000
00010000
,
00001000
00001000
00010000
00010000
,
00001000
00011000
00100000
10000000
,
00010000
10000000
00010000
00000000
10000000
00000000
01000000
00000000
,
00010000
00001000
00000010
00000001
,
00001000
00000001
00001000
00000000
00000001
00000000
00000100
00000000
,
00001000
00010000
00100000
10000000
,
01000000
10000000
00100000
00000000
10000000
00000000
01000000
00000000
,
00010000
00001000
00000010
00000001
,
00000100
00000001
00000010
00000000
00000001
00000000
00000100
00000000
,
00001000
00000000
00010000
00000000
00100000
00000000
01000000
00010000
,
10000000
01000000
10000000
00100000
,
00010000
00000000
00001000
00000000
00000010
00000000
00000100
00001000
,
00000001
00000100
00000001
00000010
,
00001000
00000000
00010000
00000000
00100000
00000000
01000000
10000000
,
01000000
00010000
10000000
01000000
,
00010000
00000000
00001000
00000000
00000010
00000000
00000100
00000001
,
00000100
00001000
00000001
00000100
,
00001000
00010000
01000000
10000000
,
00010000
10000000
00010000
00000000
10000000
00000000
00100000
00000000
,
00010000
00001000
00000100
00000001
,
00001000
00000001
00001000
00000000
00000001
00000000
00000010
00000000
,
00001000
00010000
01000000
10000000
,
00100000
10000000
01000000
00000000
10000000
00000000
00100000
00000000
,
00010000
00001000
00000100
00000001
,
00000010
00000001
00000100
00000000
00000001
00000000
00000010
00000000
,
00001000
00000000
00010000
00000000
01000000
00000000
00100000
00010000
,
10000000
00100000
10000000
01000000
,
00010000
00000000
00001000
00000000
00000100
00000000
00000010
00001000
,
00000001
00000010
00000001
00000100
,
00001000
00000000
00010000
00000000
01000000
00000000
00100000
10000000
,
00100000
00010000
10000000
00100000
,
00010000
00000000
00001000
00000000
00000100
00000000
00000010
00000001
,
00000010
00001000
00000001
00000010
,
00001000
00010000
00000000
00000000
,
00000000
00000000
00100000
10000000
,
01000000
00010000
00001000
00000100
,
00001000
00010000
01000000
10000000
,
00100000
00010000
00001000
00000010
,
00001000
00011000
00000100
00000001
,
00000010
00001000
00010000
00100000
,
00010000
00001000
00000010
00000001
,
00000100
00001000
00010000
01000000
,
00010000
00011000
00000100
00000000
,
00000000
00000000
00000000
00000000
;

//---------------dance-double - ----------------
#NOTEDATA:;
#CHARTNAME:;
#STEPSTYPE:dance-double;
#DESCRIPTION:;
#CHARTSTYLE:;
#DIFFICULTY:Hard;
#METER:11;
#RADARVALUES:0.425659,0.498575,0.010757,0.000000,0.209756,277.000000,276.000000,1.000000,0.000000,0.000000,0.000000,0.000000,0.000000,0.000000,0.425659,0.498575,0.010757,0.000000,0.209756,277.000000,276.000000,1.000000,0.000000,0.000000,0.000000,0.000000,0.000000,0.000000;
#CREDIT:;
#NOTES:
00000000
00000000
00000000
00000000
,
00000000
00000000
00000000
00000000
,
00000000
00000000
00000000
00000000
,
00000000
00000000
00000000
00000000
,
00000000
00000000
00000000
00000000
,
00000000
00000000
00000000
00000000
,
00000000
00000000
00000000
00000000
,
00000000
00000000
00000000
00000000
,
00000000
00000000
00000000
00000000
00000000
00000000
00000000
00000000
00010000
00000000
00000000
00001000
00000000
00000000
00000010
00000000
,
00001000
00000000
00000000
00010000
00000000
00000000
01000000
00000000
00010000
00000000
00000000
00001000
00000000
00000000
00000010
00000000
,
00001000
00011000
01000000
10000000
,
00010000
10000000
00010000
00000000
10000000
00000000
01000000
00000000
,
00100000
00000000
00000000
01000000
00100000
00000000
00001000
00000000
00010000
00000000
00000000
00000000
00001000
00000000
00000000
00000000
,
00000100
00000010
00000100
00000000
00000001
00000000
00000010
00000000
,
00000001
00001000
00000000
00001000
00000001
00000000
00000100
00000000
00001000
00000000
00000000
00000000
00010000
00000000
00000000
00000000
,
00100000
01000000
00100000
00000000
10000000
00000000
01000000
00000000
,
00010000
00000000
00000000
01000000
00100000
00000000
00001000
00000000
00010000
00000000
00000000
00000000
00001000
00000000
00000000
00000000
,
00000100
00000010
00000100
00000000
00000001
00000000
00001000
00000000
,
00000100
00000010
00000000
00000010
00000100
00000000
00001000
00000000
00000001
00000000
00000000
00000100
00000010
00000000
00001000
00000000
,
00000001
00000000
00000000
00000100
00000010
00000000
00010000
00000000
00001000
00000000
00000000
01000000
00100000
00000000
10000000
00000000
,
00010000
00000000
01000000
00000000
00100000
00000000
00000000
00000000
10000000
00000000
00000000
01000000
00100000
00000000
00010000
00000000
,
10000000
00000000
00000000
01000000
00100000
00000000
00001000
00000000
00010000
00000000
00000000
00000100
00000010
00000000
00000001
00000000
,
00001000
00000000
00000100
00000000
00000010
00000000
00000000
00000000
00000001
00000000
00000000
00000010
00000100
00000000
00001000
00000000
,
00000001
00000000
00000000
00000010
00000100
00000000
00010000
00000000
00001000
00000000
00000000
00100000
01000000
00000000
10000000
00000000
,
00010000
00000000
00100000
00000000
01000000
00000000
00000000
00000000
10000000
00000000
00000000
00100000
01000000
00000000
00010000
00000000
,
10000000
00000000
00000000
00100000
01000000
00000000
00001000
00000000
00010000
00000000
00000000
00000010
00000100
00000000
00000001
00000000
,
00001000
00000010
00000100
00000000
00000100
00000000
00000001
00000000
,
00001000
00000001
00001000
00000000
00000001
00000000
00000100
00000000
,
00000010
00000000
00000000
00000100
00000010
00000000
00010000
00000000
00001000
00000000
00000000
00000000
00010000
00000000
00000000
00000000
,
01000000
00100000
01000000
00000000
10000000
00000000
00100000
00000000
,
10000000
00010000
00000000
00010000
10000000
00000000
01000000
00000000
00010000
00000000
00000000
00000000
00001000
00000000
00000000
00000000
,
00000010
00000100
00000010
00000000
00000001
00000000
00000100
00000000
,
00001000
00000000
00000000
00000100
00000010
00000000
00010000
00000000
00001000
00000000
00000000
00000000
00010000
00000000
00000000
00000000
,
01000000
00100000
01000000
00000000
10000000
00000000
00010000
00000000
,
01000000
00100000
00000000
00100000
01000000
00000000
00010000
00000000
10000000
00000000
00000000
01000000
00100000
00000000
00010000
00000000
,
10000000
00000000
00000000
01000000
00100000
00000000
00001000
00000000
00010000
00000000
00000000
00000100
00000010
00000000
00000001
00000000
,
00001000
00000000
00000100
00000000
00000010
00000000
00000000
00000000
00000001
00000000
00000000
00000100
00000010
00000000
00001000
00000000
,
00000001
00000000
00000000
00000100
00000010
00000000
00010000
00000000
00001000
00000000
00000000
01000000
00100000
00000000
10000000
00000000
,
00010000
00000000
01000000
00000000
00100000
00000000
00000000
00000000
10000000
00000000
00000000
00100000
01000000
00000000
00010000
00000000
,
10000000
00000000
00000000
00100000
01000000
00000000
00001000
00000000
00010000
00000000
00000000
00000010
00000100
00000000
00000001
00000000
,
00001000
00000000
00000010
00000000
00000100
00000000
00000000
00000000
00000001
00000000
00000000
00000010
00000100
00000000
00001000
00000000
,
00000001
00000000
00000000
00000010
00000100
00000000
00010000
00000000
00001000
00000000
00000000
00100000
01000000
00000000
10000000
00000000
,
00010000
00100000
01000000
00000000
00000000
00000000
00000000
00000000
,
00000000
00000000
00000000
00000000
00100000
10000000
01000000
00000000
,
01000000
00010000
00001000
00000000
00001000
00000010
00000001
00000000
,
00000001
00000100
00001000
00000000
00001000
00010000
01000000
00000000
,
01000000
10000000
00100000
00000000
00100000
00010000
00001000
00000000
,
00001000
00000100
00000001
00000000
00000001
00000010
00001000
00000000
,
00001000
00010000
00100000
00000000
00100000
10000000
01000000
00000000
,
01000000
00010000
00001000
00000000
00001000
00000100
00000001
00000100
,
00001000
00010000
00100000
10000000
00100000
00010000
00001000
00000100
,
00000001
00000010
00001000
00010000
00001000
00000000
00000000
00000000
,
00000000
00000000
00000000
00000000
;

//---------------dance-single - ----------------
#NOTEDATA:;
#CHARTNAME:;
#STEPSTYPE:dance-single;
#DESCRIPTION:;
#CHARTSTYLE:;
#DIFFICULTY:Challenge;
#METER:14;
#RADARVALUES:0.668454,0.705911,0.505567,0.215135,0.285054,435.000000,388.000000,47.000000,20.000000,0.000000,0.000000,0.000000,0.000000,0.000000,0.668454,0.705911,0.505567,0.215135,0.285054,435.000000,388.000000,47.000000,20.000000,0.000000,0.000000,0.000000,0.000000,0.000000;
#CREDIT:;
#NOTES:
// measure 0
0000
0000
0000
0000
,  // measure 1
0000
0000
0000
0000
,  // measure 2
0000
0000
0000
0000
,  // measure 3
1000
0000
0000
0100
0000
0000
0001
0000
0010
0000
0000
1000
0000
0000
0100
0000
,  // measure 4
0010
0000
0000
0001
0000
0000
0100
0000
1000
0000
0000
0010
0000
0000
0001
0000
,  // measure 5
0101
0000
0000
1100
0000
0000
1010
0000
0011
0000
0000
0101
0000
0000
1001
0000
,  // measure 6
1100
0000
0000
1010
0000
0000
0011
0000
0101
0000
0000
0110
0000
0000
1001
0000
,  // measure 7
0002
0000
0000
0023
0000
0000
2030
0000
3200
0000
0000
0302
0000
0000
0023
0000
,  // measure 8
0230
0000
0000
2300
0000
0000
3020
0000
0032
0000
0000
0203
0000
0000
2300
0000
,  // measure 9
3001
0000
0000
0100
0000
0000
1000
0000
0010
0000
0000
0001
0000
0000
0100
0000
,  // measure 10
1000
0000
0000
1000
0001
0000
0000
0000
0100
0000
0001
0000
0100
0000
0010
0000
,  // measure 11
0100
1000
0100
0010
0100
0001
0100
0010
,  // measure 12
0100
0000
1000
0000
0100
0010
0100
0001
0010
0000
0100
0000
0010
0000
1000
0000
,  // measure 13
0010
0100
0010
0001
0010
0100
0010
1000
,  // measure 14
0010
0000
0001
0000
0010
0100
0001
0100
1000
0000
0010
0000
1000
0000
0100
0000
,  // measure 15
1000
0010
1000
0100
1000
0010
1000
0100
,  // measure 16
1000
0000
0010
0000
1000
0100
0010
0100
0001
0000
0100
0000
0001
0000
0010
0000
,  // measure 17
0001
0100
0001
0010
0001
0100
0001
0010
,  // measure 18
0001
0000
0100
0000
0001
0010
0100
1000
0010
0000
0100
0000
0001
0000
0010
0000
,  // measure 19
0100
1000
0010
0100
0001
0010
0100
1000
,  // measure 20
0010
0000
0100
0000
0001
0010
0100
1000
0100
0000
0010
0000
0001
0000
1000
0000
,  // measure 21
0100
0000
0010
0000
0001
0010
1000
0010
0100
0000
0010
0000
0001
0000
0020
0000
,  // measure 22
0000
0032
0000
0003
0101
0100
0010
1000
,  // measure 23
0100
0000
0010
0000
0001
0010
1000
0001
0100
0000
0010
0000
0001
0000
0100
0000
,  // measure 24
0010
0000
1000
0000
0100
0001
0010
0100
0001
0000
0100
0000
0010
0000
1000
0000
,  // measure 25
0100
0010
0001
1000
0010
0001
0100
0010
,  // measure 26
1000
0000
0100
0000
0010
0001
0100
0010
1000
0000
0100
0000
0010
0000
0001
0000
,  // measure 27
0100
0010
1000
0100
0010
0001
0100
0010
,  // measure 28
1000
0000
0100
0000
0010
0001
0100
0001
1000
0000
0100
0000
0010
0000
0001
0000
,  // measure 29
0100
0010
0001
1000
0010
0001
0100
0010
,  // measure 30
1000
0000
0100
0000
0010
0100
0001
0010
0100
0000
0001
0000
0010
0000
0100
0000
,  // measure 31
1000
0010
0001
0100
0010
1000
0100
0010
,  // measure 32
0001
0000
0100
0000
1000
0001
0100
0001
0010
0000
0001
0000
0100
0000
0010
0000
,  // measure 33
1000
0100
0010
0001
1000
0010
0001
0100
,  // measure 34
0010
1000
0100
0010
0001
0100
0010
1000
,  // measure 35
0010
0000
0001
0000
0100
0001
0010
0001
1000
0000
0100
0000
0010
0000
0001
0000
,  // measure 36
1000
0000
0100
0000
0010
0100
0001
0100
0010
0000
0100
0000
1000
0000
0010
0000
,  // measure 37
0001
0000
0100
0000
0010
0100
1000
0100
0001
0000
0200
0000
0000
0000
2300
0000
,  // measure 38
0000
0000
3010
0000
1000
0010
0100
0001
0010
0000
0001
0000
0010
0000
0100
0000
,  // measure 39
1000
0000
0010
0000
0001
0010
0100
1000
0010
0000
1000
0000
0001
0000
0100
0000
,  // measure 40
0010
0000
0001
0000
0100
0010
1000
0100
0010
0000
0001
0000
0100
0000
0010
0000
,  // measure 41
1000
0000
0001
0000
0010
0001
0100
0010
1000
0000
0010
0000
0001
0000
0100
0000
,  // measure 42
0010
1000
0100
0000
0220
0000
0000
0000
,  // measure 43
0000
0000
0330
0000
1001
0001
0101
0000
,  // measure 44
0011
0001
0101
0000
1100
1000
1010
0010
,  // measure 45
0110
0100
0101
0000
0110
0010
1010
0000
,  // measure 46
1100
1000
1001
0000
0101
0001
0011
0010
,  // measure 47
0110
0100
1100
0000
1001
1000
1010
0000
,  // measure 48
0110
0100
0101
0000
1001
0001
0101
0100
,  // measure 49
0110
0010
1010
0000
0011
0010
1010
0000
,  // measure 50
1100
0100
0101
0000
0110
0010
1010
1000
,  // measure 51
1001
0001
0101
0100
0220
0000
0000
0000
,  // measure 52
0000
0000
0330
0000
;
