#VERSION:0.83;
#TITLE:Viva La Vida;
#SUBTITLE:;
#ARTIST:Coldplay;
#TITLETRANSLIT:;
#SUBTITLETRANSLIT:;
#ARTISTTRANSLIT:;
#GENRE:;
#ORIGIN:;
#CREDIT:;
#BANNER:Viva La Vida.png;
#BACKGROUND:Viva La Vida-bg.png;
#PREVIEWVID:;
#JACKET:;
#CDIMAGE:;
#DISCIMAGE:;
#LYRICSPATH:;
#CDTITLE:;
#MUSIC:Viva La Vida.ogg;
#OFFSET:0.000000;
#SAMPLESTART:42.390999;
#SAMPLELENGTH:15.000000;
#SELECTABLE:YES;
#DISPLAYBPM:138.000000;
#BPMS:0.000=139.000,
4.000=138.000;
#STOPS:;
#DELAYS:;
#WARPS:;
#TIMESIGNATURES:0.000=4=4;
#TICKCOUNTS:0.000=4;
#COMBOS:0.000=1;
#SPEEDS:0.000=1.000=0.000=0;
#SCROLLS:0.000=1.000;
#FAKES:;
#LABELS:0.000=Song Start;
#BGCHANGES:0.000=Viva La Vida.avi=1.000=0=0=0=StretchNoLoop====,
99999=-nosongbg-=1.000=0=0=0 // don't automatically add -songbackground-
;
#KEYSOUNDS:;
#ATTACKS:
;

//---------------dance-single - ----------------
#NOTEDATA:;
#CHARTNAME:;
#STEPSTYPE:dance-single;
#DESCRIPTION:;
#CHARTSTYLE:;
#DIFFICULTY:Beginner;
#METER:2;
#RADARVALUES:0.101098,0.188865,0.000000,0.000000,0.000000,80.000000,80.000000,0.000000,0.000000,0.000000,0.000000,0.000000,0.000000,0.000000,0.101098,0.188865,0.000000,0.000000,0.000000,80.000000,80.000000,0.000000,0.000000,0.000000,0.000000,0.000000,0.000000,0.000000;
#CREDIT:;
#DISPLAYBPM:138.000000;
#NOTES:
0000
0000
0000
0000
,
0000
0000
0000
0000
,
0000
0000
0000
0000
,
0000
0000
0000
0000
,
0000
0000
0000
0000
,
0001
0000
0000
0000
,
1000
0000
0000
0000
,
0001
0000
0000
0000
,
1000
0000
0000
0000
,
0010
0000
0000
0000
,
0000
0000
0000
0000
,
1000
0000
1000
0000
,
1000
0000
0000
0000
,
0010
0000
0000
0000
,
0000
0000
0000
0000
,
0001
0000
0001
0000
,
0001
0000
0000
0000
,
1000
0000
0000
0000
,
0001
0000
0000
0000
,
1000
0000
0000
0000
,
0001
0000
0000
0000
,
1000
0000
1000
0000
,
0001
0000
0001
0000
,
1000
0000
1000
0000
,
0001
0000
0001
0000
,
0010
0000
0000
0000
,
0000
0000
0000
0000
,
1000
0000
1000
0000
,
1000
0000
0000
0000
,
0010
0000
0000
0000
,
0000
0000
0000
0000
,
0001
0001
0000
0000
,
1000
1000
0000
0000
,
0100
0000
0000
0000
,
0000
0000
0000
0000
,
0001
0000
1000
0000
,
0001
0000
1000
0000
,
0010
0000
0000
0000
,
0000
0000
0000
0000
,
0100
0000
0100
0000
,
0100
0000
0000
0000
,
0001
0001
0001
0000
,
1000
1000
1000
0000
,
0010
0000
0000
0000
,
0001
0000
0000
0000
,
0001
0001
0001
0000
,
1000
1000
1000
0000
,
0010
0000
0000
0000
,
0001
0000
0000
0000
,
1000
0000
0010
0000
,
1000
0000
0000
0000
,
0001
0000
0001
0000
,
1000
0000
1000
0000
,
0010
0000
0000
0000
,
0000
0000
0000
0000
,
0010
0010
0010
0010
,
0010
0000
0000
0000
,
0001
0000
0001
0000
,
0001
0000
0001
0000
,
1000
0000
1000
0000
,
1000
0000
1000
0000
,
0010
0000
0000
0000
;

//---------------dance-single - ----------------
#NOTEDATA:;
#CHARTNAME:;
#STEPSTYPE:dance-single;
#DESCRIPTION:;
#CHARTSTYLE:;
#DIFFICULTY:Easy;
#METER:4;
#RADARVALUES:0.145329,0.249792,0.000000,0.132692,0.000000,115.000000,115.000000,0.000000,15.000000,0.000000,0.000000,0.000000,0.000000,0.000000,0.145329,0.249792,0.000000,0.132692,0.000000,115.000000,115.000000,0.000000,15.000000,0.000000,0.000000,0.000000,0.000000,0.000000;
#CREDIT:;
#DISPLAYBPM:138.000000;
#NOTES:
0000
0000
0000
0000
,
0000
0000
0000
0000
,
0000
0000
0000
0000
,
0000
0000
0000
0000
,
0000
0000
0000
0000
,
0001
0000
0000
0000
,
1000
0000
0000
0000
,
0010
0000
0000
0000
,
0100
0000
0000
0000
,
0002
0000
0000
0000
,
0000
0003
0000
0000
,
1000
0000
0010
0000
,
1000
0100
1000
0000
,
0002
0000
0000
0000
,
0000
0003
0000
0000
,
1000
0000
0010
0000
,
1000
0001
0100
0000
,
0001
0000
0001
0000
,
1000
0000
1000
0000
,
0010
0000
0010
0000
,
1000
0000
0001
0000
,
0001
0000
0001
0000
,
1000
0000
1000
0000
,
0010
0000
0010
0000
,
0100
0000
0100
0000
,
2000
0000
0000
0000
,
0000
3000
0000
0000
,
0001
0000
0010
0000
,
0001
0100
0001
0000
,
2000
0000
0000
0000
,
0000
3000
0000
0000
,
0001
0010
0100
0000
,
1000
0010
0100
0000
,
0020
0000
0000
0000
,
0000
0030
0000
0000
,
1000
1000
0001
0001
,
1000
0001
0001
1000
,
0002
0000
0000
0000
,
0000
0003
0000
0000
,
2000
3000
0002
0003
,
0200
0300
0020
0030
,
1000
1000
1000
1000
,
0010
0000
0100
0000
,
0001
0001
0010
0000
,
1000
1000
0100
0000
,
0001
0001
0001
0001
,
0010
0000
0100
0000
,
1000
1000
0010
0000
,
0001
0001
0100
0000
,
1000
0000
0001
0001
,
1000
0000
0010
0010
,
1000
0000
0100
0100
,
0002
0003
2000
3000
,
0002
0000
0000
0000
,
0000
0003
0000
0000
,
0010
0010
0010
0010
,
0200
0000
0300
0000
,
0001
1000
0001
1000
,
0001
1000
0001
0000
,
0100
0010
0100
0010
,
0100
0010
0100
0000
,
0020
0000
0000
0000
,
0000
0000
0000
0030
;

//---------------dance-single - ----------------
#NOTEDATA:;
#CHARTNAME:;
#STEPSTYPE:dance-single;
#DESCRIPTION:;
#CHARTSTYLE:;
#DIFFICULTY:Medium;
#METER:7;
#RADARVALUES:0.256537,0.305301,0.000000,0.238845,0.000000,203.000000,203.000000,0.000000,27.000000,0.000000,0.000000,0.000000,0.000000,0.000000,0.256537,0.305301,0.000000,0.238845,0.000000,203.000000,203.000000,0.000000,27.000000,0.000000,0.000000,0.000000,0.000000,0.000000;
#CREDIT:;
#DISPLAYBPM:138.000000;
#NOTES:
0000
0000
0000
0000
,
0000
0000
0000
0000
,
0000
0000
0000
0000
,
0000
0000
0000
0000
,
0000
0000
0000
0000
,
1000
0000
1000
0000
1000
0000
1000
0001
,
0000
0001
0000
0001
0001
0000
0000
0000
,
0010
0000
0010
0000
0010
0000
0010
0100
,
0000
0100
0000
0100
0100
0000
0000
0000
,
2000
0000
0001
0000
,
0010
0010
0100
3000
,
0001
0100
1000
0100
,
0010
0100
0001
0100
,
0002
0000
1000
0000
,
0010
0010
0100
0003
,
1000
0100
0001
0010
,
1000
0001
0100
0000
,
1000
0000
1000
0000
1000
0000
1000
0001
,
0000
0100
0000
0001
0001
0000
0000
0000
,
0010
0000
0010
0000
0010
0000
0001
0100
,
0000
0100
0000
0100
0010
0000
0000
0000
,
0001
0000
0001
0000
0001
0000
0001
0010
,
0000
0001
0000
1000
1000
0000
0000
0000
,
0010
0000
0010
0000
1000
0000
0010
0100
,
0000
0001
0000
0100
0100
0000
0000
0000
,
2000
0000
0010
0000
,
0001
0010
0100
3000
,
0001
0100
1000
0010
,
0001
0100
0001
0100
,
0002
0000
0010
0000
,
1000
0010
0100
0003
,
2000
3100
0002
0103
,
0020
1030
0200
0301
,
2000
0000
0001
0001
,
0100
0100
0001
3000
,
0100
0100
1000
0001
,
0010
0100
0001
1000
,
0002
0000
0100
0000
,
1000
1000
0100
0003
,
2000
0000
3002
0000
,
2003
0000
3001
1000
,
0001
0010
0001
0010
,
0001
1000
0001
0000
0001
1000
0001
0000
,
2000
0000
3200
0000
,
0310
0000
0001
0000
1000
1000
0001
0000
,
1000
0010
0100
0010
,
1000
0001
0001
0000
1000
0001
1000
0000
,
0002
0000
0203
0000
,
0310
0000
1000
0000
0001
0001
0010
0000
,
0001
0001
0100
0100
,
0010
0000
0010
0000
1000
0001
1000
0000
,
0100
0100
0010
0010
,
0001
0000
0001
0000
1000
0001
1000
0000
,
0002
0000
0000
0000
,
1000
0010
0010
0003
,
2000
3010
2000
3100
,
0002
0013
0200
0300
,
1000
0010
0200
0310
,
0002
0013
0100
0100
,
0001
1000
0020
0130
,
0002
1003
0100
0100
,
0020
0000
0000
0000
,
0000
0000
0000
0030
;

//---------------dance-single - ----------------
#NOTEDATA:;
#CHARTNAME:;
#STEPSTYPE:dance-single;
#DESCRIPTION:;
#CHARTSTYLE:;
#DIFFICULTY:Hard;
#METER:9;
#RADARVALUES:0.347526,0.416320,0.106153,0.132692,0.000000,275.000000,263.000000,12.000000,15.000000,0.000000,0.000000,0.000000,0.000000,0.000000,0.347526,0.416320,0.106153,0.132692,0.000000,275.000000,263.000000,12.000000,15.000000,0.000000,0.000000,0.000000,0.000000,0.000000;
#CREDIT:;
#DISPLAYBPM:138.000000;
#NOTES:
0000
0000
0000
0000
,
0000
0000
0000
0000
,
0000
0000
0000
0000
,
0000
0000
0000
0000
,
0000
0000
0000
0000
,
1000
0000
1000
0000
1000
0000
1000
0010
,
0000
0010
0000
0010
0100
0000
1001
0000
,
0100
0000
0100
0000
0100
0000
0100
0001
,
0000
0001
0000
0001
1000
0000
0110
0000
,
0002
0000
0010
0010
,
1000
1000
0100
0103
,
0010
1000
0010
0000
0001
0100
0001
0000
,
1000
0100
1000
0010
1000
0000
0101
0000
,
2000
0000
0010
0010
,
0001
0001
0100
3100
,
0010
0001
0010
0000
1000
0100
1000
0010
,
0000
0010
0100
0010
0100
0000
1100
0000
,
0001
0000
0001
0000
0001
0000
0100
0010
,
0000
0010
0000
1000
0100
0000
1001
0000
,
0100
0000
0100
0000
0100
0000
0001
1000
,
0000
0100
0000
0001
1000
0000
0011
0000
,
1000
0000
1000
0000
1000
0000
0001
0010
,
0000
1000
0000
0010
0100
0000
1001
0000
,
0100
0000
0100
0000
0100
0000
0010
1000
,
0000
0001
0000
0001
1000
0000
0110
0000
,
0002
0000
0010
0100
,
1000
0010
0100
0103
,
0010
0001
0010
0000
1000
0100
1000
0010
,
1000
0001
1000
0010
1000
0000
0101
0000
,
2000
0000
0010
0100
,
0001
0010
0100
3100
,
0010
0100
0001
0000
0010
0100
0010
0000
,
1000
0010
0100
0000
0001
0001
0001
0000
,
0020
0000
0001
0100
,
1000
0100
0001
0130
,
1000
0001
0010
0000
0001
1000
0100
0000
,
0001
0100
0001
0010
0010
0000
1100
0000
,
0002
0000
0010
1000
,
0100
1000
0100
0103
,
0020
0000
2030
0000
,
3002
0100
0103
0110
,
1000
0000
0010
0000
0100
0000
0001
0010
,
0000
0010
0100
0010
0000
0001
0100
0010
,
1000
0000
0001
0000
0100
0000
0001
0010
,
0000
0001
0100
0000
1000
0100
0001
0000
,
0001
0000
0010
0000
0001
0000
1000
0010
,
0000
0010
0100
0001
0000
1000
0100
0010
,
0001
0000
1000
0000
0100
0000
1000
0001
,
0000
0010
0100
0000
0001
0100
1000
0000
,
0102
0000
0010
2003
,
0010
0001
0100
3001
,
0200
0000
0001
0320
,
0100
0001
1000
0130
,
0002
0000
1000
0010
,
0010
1000
0100
0103
,
1000
0100
0000
0010
0001
0010
0100
0000
,
1000
0010
0001
0000
0100
0000
0000
0000
,
0010
1000
0010
1000
0010
0100
0010
0100
,
0000
0100
0001
0010
0001
0000
0001
0000
,
0100
0010
0100
0010
0100
0001
0100
0001
,
0000
0001
0010
0100
0010
0000
0010
0000
,
0200
0000
0000
0000
,
0000
0000
0000
0300
;

//---------------dance-double - ----------------
#NOTEDATA:;
#CHARTNAME:;
#STEPSTYPE:dance-double;
#DESCRIPTION:;
#CHARTSTYLE:;
#DIFFICULTY:Easy;
#METER:5;
#RADARVALUES:0.207252,0.249792,0.000000,0.291922,0.000000,164.000000,164.000000,0.000000,33.000000,0.000000,0.000000,0.000000,0.000000,0.000000,0.207252,0.249792,0.000000,0.291922,0.000000,164.000000,164.000000,0.000000,33.000000,0.000000,0.000000,0.000000,0.000000,0.000000;
#CREDIT:;
#DISPLAYBPM:138.000000;
#NOTES:
00000000
00000000
00000000
00000000
,
00000000
00000000
00000000
00000000
,
00000000
00000000
00000000
00000000
,
00000000
00000000
00000000
00000000
,
00000000
00000000
00000000
00000000
,
10000000
10000000
10000000
10000000
,
00010000
00010000
00010000
00000000
,
00100000
00100000
00100000
00100000
,
00001000
00001000
00001000
00000000
,
00020000
00000000
00030010
00000000
,
00001000
00000001
00001000
00000000
,
00000200
00000000
00010300
00000000
,
00001000
00010000
00001000
00000000
,
00002000
00000000
00103000
00000000
,
00010000
10000000
00010000
00000000
,
02000000
00000000
03001000
00001000
,
00010000
00000010
00000100
00000000
,
00001000
00001000
00001000
00001000
,
00000001
00000001
00000001
00000000
,
00000010
00000010
00000010
00000010
,
00001000
00010000
01000000
00000000
,
10000000
10000000
10000000
10000000
,
00010000
00010000
00010000
00000000
,
00100000
00100000
00100000
00100000
,
00001000
00001000
00001000
00000000
,
00002000
00000000
00103000
00000000
,
00010000
10000000
00010000
00000000
,
02000000
00000000
03001000
00000000
,
00010000
00001000
00010000
00000000
,
00020000
00000000
00030010
00000000
,
00001000
00000001
00001000
00000000
,
00000200
00000000
00000320
00000000
,
00000130
00000010
00000100
00000000
,
00002000
00000000
00003020
00000000
,
00020030
00000000
00032000
00000000
,
02003000
00000000
03002000
00000000
,
00013000
00001000
00010000
00000000
,
00002000
00000000
01003000
00000000
,
00010000
10000000
00010000
10000000
,
01000000
01000000
00100000
00100000
,
00001000
00001000
00010000
00000000
,
00000200
00000000
00000310
00000010
,
00000001
00000001
00002000
00003000
,
00000100
00010000
00002000
00003000
,
01000000
00010000
20000000
30000000
,
02000000
00000000
03100000
00100000
,
10000000
10000000
00020000
00030000
,
01000000
00001000
00020000
00030000
,
00000100
00001000
00000200
00000300
,
00000010
00000001
00000002
00000003
,
00000100
00001000
00002000
00003000
,
00010000
01000000
02000000
03000000
,
00100000
00000000
00000000
00000000
,
00002000
00000000
00103000
00000000
,
00010000
10000000
00010000
00010000
,
10000000
01000000
00010000
00000000
,
00001000
00000100
00000001
00000000
,
00000010
00000010
00000010
00001000
,
00020000
00030000
00002000
00003000
,
01000000
01000000
01000000
00100000
,
20000000
30000000
00020000
00030000
,
00200000
00000000
00000000
00000000
,
00000000
00000000
00000000
00300000
;

//---------------dance-double - ----------------
#NOTEDATA:;
#CHARTNAME:;
#STEPSTYPE:dance-double;
#DESCRIPTION:;
#CHARTSTYLE:;
#DIFFICULTY:Medium;
#METER:7;
#RADARVALUES:0.289394,0.333056,0.026538,0.097307,0.000000,229.000000,226.000000,3.000000,11.000000,0.000000,0.000000,0.000000,0.000000,0.000000,0.289394,0.333056,0.026538,0.097307,0.000000,229.000000,226.000000,3.000000,11.000000,0.000000,0.000000,0.000000,0.000000,0.000000;
#CREDIT:;
#DISPLAYBPM:138.000000;
#NOTES:
00000000
00000000
00000000
00000000
,
00000000
00000000
00000000
00000000
,
00000000
00000000
00000000
00000000
,
00000000
00000000
00000000
00000000
,
00000000
00000000
00000000
00000000
,
00000001
00000000
00000001
00000000
00000001
00000000
00000001
00000100
,
00000000
00000100
00000000
00000100
00001000
00000000
00001000
00000000
,
00010000
00000000
00010000
00000000
00010000
00000000
00010000
01000000
,
00000000
01000000
00000000
01000000
00100000
00000000
01000000
00000000
,
20000000
00000000
00100000
00010000
,
01000000
31000000
00100000
00010000
,
00002000
00000000
00000010
00000010
,
00000100
00003100
00000010
00000110
,
00000002
00000000
00000010
00001000
,
00000100
00000103
00000010
00001000
,
00020000
00000000
00100000
00100000
,
01000000
01030000
00100000
00000000
,
10000000
00000000
10000000
00000000
10000000
00000000
00010000
01000000
,
00000000
01000000
00000000
01000000
00010000
00000000
00100000
00000000
,
00001000
00000000
00001000
00000000
00001000
00000000
00000010
00000100
,
00000000
00000100
00000000
00000100
00001000
00000000
00000001
00000000
,
00000001
00000000
00000001
00000000
00000001
00000000
00000010
00000100
,
00000000
00000100
00000000
00000100
00001000
00000000
00000100
00000000
,
00010000
00000000
00010000
00000000
00001000
00000000
00010000
01000000
,
00000000
01000000
00000000
10000000
00100000
00000000
01000000
00000000
,
20000000
00000000
00010000
00010000
,
01000000
31000000
00100000
00010000
,
00002000
00000000
00000001
00000010
,
00000100
00003001
00000010
00000110
,
00000002
00000000
00001000
00001000
,
00000100
00000103
00000010
00001000
,
00010000
00100000
00010000
00001000
,
00000100
00000000
00000001
00000000
00000100
00000010
00000100
00000000
,
00000020
00000000
00000001
00000001
,
00001000
00001030
00000100
00010000
,
00001000
00010000
00001000
00000000
00001000
00010000
00001000
00000000
,
01000000
00010000
00100000
01100000
,
20000000
00000000
00100000
00100000
,
01000000
30100000
00100000
00010000
,
00001000
00000010
00000100
00001000
,
00000001
00000100
00001000
00000000
,
00100000
10000000
00100000
10000000
,
01000000
00000000
00010000
00000000
00001000
00010000
00000100
00000000
,
00000010
00000010
00001000
00010000
,
00010000
00000010
00000100
00000000
,
00000010
00000001
00000100
00000001
,
00000100
00000000
00001000
00000000
00010000
00001000
00100000
00000000
,
00100000
00001000
00010000
00001000
,
00010000
00100000
01000000
00000000
,
01000000
00100000
01000000
00000000
00010000
00000000
00010000
00000000
,
00100000
00001000
00100000
00000000
00001000
00000000
00001000
00000000
,
00000100
00000001
00000100
00000000
00000001
00000000
00000001
00000000
,
00001000
00010000
00100000
00000000
,
20000000
00000000
01000000
00010000
,
01000000
31000000
00100000
00000000
,
00100000
00010000
00001000
00000100
,
00000001
00000010
00001000
00000000
,
00000010
00000000
00000001
00000000
00000010
00000001
00000010
00000000
,
00000100
00000000
00001000
00000000
00000100
00001000
00000100
00000000
,
00010000
00000000
00001000
00000000
00010000
00001000
00010000
00000000
,
01000000
00000000
00100000
00000000
01000000
00100000
01000000
00000000
,
00200000
00000000
00000000
00000000
,
00000000
00000000
00000000
00300000
;

//---------------dance-double - ----------------
#NOTEDATA:;
#CHARTNAME:;
#STEPSTYPE:dance-double;
#DESCRIPTION:;
#CHARTSTYLE:;
#DIFFICULTY:Hard;
#METER:9;
#RADARVALUES:0.342471,0.388566,0.008846,0.168076,0.000000,271.000000,270.000000,1.000000,19.000000,0.000000,0.000000,0.000000,0.000000,0.000000,0.342471,0.388566,0.008846,0.168076,0.000000,271.000000,270.000000,1.000000,19.000000,0.000000,0.000000,0.000000,0.000000,0.000000;
#CREDIT:;
#DISPLAYBPM:138.000000;
#NOTES:
00000000
00000000
00000000
00000000
,
00000000
00000000
00000000
00000000
,
00000000
00000000
00000000
00000000
,
00000000
00000000
00000000
00000000
,
00000000
00000000
00000000
00000000
,
10000000
00000000
10000000
00000000
10000000
00000000
00010000
00001000
,
00000000
00000001
00000000
00000001
00001000
00000000
00000001
00000000
,
00000100
00000000
00000100
00000000
00000100
00000000
00001000
00010000
,
00000000
01000000
00000000
01000000
00100000
00000000
01000000
00000000
,
00020000
00000000
00000010
00000010
,
01000000
01000000
00000010
01030000
,
00002000
00000000
00000010
00000010
,
00010000
00000000
00013000
00000000
00000100
00000001
00000100
00000000
,
00002000
00000000
00100000
00100000
,
00000100
00000100
00100000
00003100
,
00020000
00000000
00100000
00100000
,
00001000
00000000
00130000
00000000
00001000
00010000
01000000
00000000
,
10000000
00000000
10000000
00000000
10000000
00100000
00010000
00001000
,
00000010
00000001
00000000
00000001
00001000
00000000
00000001
00000000
,
00000100
00000000
00000100
00000000
00000100
00000010
00001000
00000100
,
00000000
00010000
00000000
00001000
00010000
00000000
01000000
00000000
,
10000000
00000000
10000000
00000000
10000000
01000000
00010000
00001000
,
00000100
00000001
00000000
00000001
00001000
00000000
00000001
00000000
,
00000100
00000000
00000100
00000000
00000100
00010000
00001000
00010000
,
00000000
01000000
00000000
01000000
00100000
00010000
01000000
00000000
,
00020000
00000000
00000010
00000010
,
01000000
01000000
00000010
00031000
,
00002000
00000000
00010000
00000010
,
00010000
00000000
00013000
00000000
00000010
00000001
00000100
00000000
,
00002000
00000000
00100000
00100000
,
00000100
00000100
00100000
00013000
,
00200000
00001000
00320000
00100000
,
00032000
00000010
00000002
00003003
,
00000010
00001000
00000100
00000000
00010000
00000000
00001000
02000000
,
00000000
00001000
00000000
00010000
03010000
00000000
10010000
00000000
,
00100000
00001000
00010000
00000000
00000100
00000000
00000010
00000100
,
00010000
00000000
00001000
00000000
00000100
00000001
00000100
00000000
,
00002000
00000000
00100000
00010000
,
00000100
00010000
00100000
00003100
,
00000001
00000000
00000010
00000100
00000000
00010000
00001000
00000100
,
00000000
00001000
00010000
00000000
01000000
00000000
01000000
00000000
,
10000000
00010000
00100000
00000000
00100000
00001000
00010000
00000100
,
00000000
00000100
00001000
00000010
00000100
00000000
00000100
00000000
,
00000001
00000100
00001000
00000000
00000100
00001000
00010000
00001000
,
00000000
00001000
00010000
01000000
10000000
00000000
10000000
00000000
,
10000000
00010000
00100000
00000000
00100000
00001000
00010000
00000010
,
00000000
00000010
00001000
00000010
00000100
00000000
00000100
00000000
,
00000001
00000100
00001000
00000000
00000100
00001000
00010000
01000000
,
00000000
00001000
00010000
01000000
10000000
00000000
10000000
00000000
,
00200000
01000000
20300000
01000000
,
30100000
00010000
00001000
00000010
00000000
00000001
00000100
00000000
,
00002000
00000100
00023000
00000010
,
00030010
00000100
00001000
00010000
00000000
00010000
00001000
00000000
,
00020000
00000000
00000010
00000000
,
01000000
00000000
00000010
01030000
,
00001000
00000010
00000001
00000000
00000100
00000010
00001000
00000000
,
00000100
00010000
00001000
00100000
00010000
00000000
01000000
00000000
,
00100000
10000000
00100000
01000000
00010000
01000000
00010000
00100000
,
00000000
00100000
00001000
00010000
00000100
00000000
00000100
00000000
,
00000010
00000001
00000100
00000010
00001000
00000100
00010000
00001000
,
00000000
00001000
01000000
00100000
01000000
00000000
01000000
00000000
,
00200000
00000000
00000000
00000000
,
00000000
00000000
00000000
00300000
;

//---------------dance-single - ----------------
#NOTEDATA:;
#CHARTNAME:;
#STEPSTYPE:dance-single;
#DESCRIPTION:;
#CHARTSTYLE:;
#DIFFICULTY:Challenge;
#METER:16;
#RADARVALUES:0.851754,1.114610,0.106153,1.105764,1.163264,674.000000,662.000000,12.000000,125.000000,0.000000,0.000000,0.000000,0.000000,0.000000,0.851754,1.114610,0.106153,1.105764,1.163264,674.000000,662.000000,12.000000,125.000000,0.000000,0.000000,0.000000,0.000000,0.000000;
#CREDIT:;
#DISPLAYBPM:138.000000;
#NOTES:
// measure 0
0000
0000
0000
0000
,  // measure 1
0000
0000
0000
0000
,  // measure 2
0000
0000
0000
0000
,  // measure 3
0000
0000
0000
0000
,  // measure 4
0000
0000
0000
0000
,  // measure 5
2010
0000
0100
0000
0100
0000
0010
0100
,  // measure 6
0000
0001
0000
0001
3100
0000
1100
0000
,  // measure 7
1002
0000
0010
0000
0010
0000
0100
1000
,  // measure 8
0000
1000
0000
1003
0001
0000
1001
0000
,  // measure 9
0001
0000
0000
0010
0000
0000
0001
0000
0000
0010
0000
0000
0100
0000
0000
1000
0000
0000
0100
0000
0000
1000
0000
0000
0100
0000
0000
0010
0000
0000
0001
0000
0010
0000
0100
0000
1000
0000
0000
0001
0000
0000
0010
0000
0000
0001
0000
0000
,  // measure 10
0100
0001
1000
0001
0010
0001
0100
0001
0010
0000
0200
0000
0000
0000
0301
0000
,  // measure 11
1000
0000
0000
0100
0000
0000
1000
0000
0000
0100
0000
0000
1000
0000
0100
0000
0010
0000
0001
0000
0000
0010
0000
0000
0100
0000
0000
1000
0000
0000
0001
0000
0000
0100
0000
0000
0001
0000
0010
0000
0100
0000
1000
0000
0000
0010
0000
0000
,  // measure 12
0100
0001
1000
0100
0010
0001
0100
0010
2000
0000
3002
0000
2003
0000
3002
0000
,  // measure 13
0103
0000
0000
0001
0000
0000
0100
0000
0000
0001
0000
0000
1000
0000
0000
0010
0000
0000
1000
0000
0000
0010
0000
0000
0100
0000
0000
0001
0000
0000
1000
0000
0000
0010
0000
0000
0100
0000
0001
0000
1000
0000
0100
0000
0000
0010
0000
0000
,  // measure 14
0001
0010
0100
1000
0001
0010
0100
1000
0001
0000
0020
0000
0000
0000
1030
0000
,  // measure 15
0002
0000
0023
0000
2030
0000
3001
0200
,  // measure 16
0000
0001
0000
0310
0110
0000
0110
0000
,  // measure 17
2000
0000
3020
0000
0032
0000
0023
0000
2030
0000
3020
0000
0032
0100
0023
0000
,  // measure 18
2030
0000
3200
0000
0302
0000
0203
0000
2300
0000
3200
0000
0302
0000
0203
0010
,  // measure 19
2300
0000
3020
0000
0032
0000
0203
0000
2300
0000
3200
0000
0302
1000
0023
0000
,  // measure 20
2030
0000
3020
0000
0032
0000
0203
0000
2300
0000
3200
0000
0302
0000
0023
1000
,  // measure 21
0230
0000
0302
0000
0023
0000
0032
0000
0203
0000
0320
0000
0032
0100
0023
0000
,  // measure 22
2030
0000
3200
0000
0320
0000
2030
0000
3020
0000
0230
0000
2300
0000
3020
0100
,  // measure 23
2030
0000
3200
0000
0302
0000
0023
0000
0032
0000
0023
0000
2030
0100
3020
0000
,  // measure 24
0032
0000
0203
0000
0320
0000
0130
1000
0010
0000
0000
0000
0202
0000
0303
0000
,  // measure 25
1000
0000
0000
0100
0000
0000
1000
0000
0000
0100
0000
0000
0010
0000
0000
0001
0000
0000
0010
0000
0000
0001
0000
0000
1000
0000
0000
0100
0000
0000
0010
0000
0000
0001
0000
0000
1000
0000
0100
0000
0010
0000
0001
0000
0000
0010
0000
0000
,  // measure 26
0001
0000
0000
0010
0000
0000
0100
0000
0000
1000
0000
0000
0001
0000
0000
0100
0000
0000
0010
0000
0000
1000
0000
0000
0001
0000
0000
0010
0000
0000
0100
0000
1000
0000
0010
0000
0100
0000
0000
0010
0000
0000
0001
0000
0000
0010
0000
0000
,  // measure 27
1000
0000
0100
0000
0010
0000
0001
0000
0000
0010
0000
0000
0100
0000
0000
1000
0000
0000
0010
0000
0000
0200
0000
0000
0001
0000
0000
0000
0000
0000
0001
0000
0000
0000
0000
0000
1000
0000
0000
0000
0000
0000
1300
0000
0100
0000
0010
0000
,  // measure 28
0001
0010
0100
1000
0010
0001
0100
0010
2000
0000
3020
0000
0032
0000
0023
0000
,  // measure 29
1030
0000
0000
0010
0000
0000
0001
0000
0000
0100
0000
0000
0010
0000
0000
1000
0000
0000
0001
0000
0000
0010
0000
0000
0100
0000
0000
1000
0000
0000
0010
0000
0100
0000
0001
0000
0010
0000
0000
0100
0000
0000
0010
0000
0001
0000
0100
0000
,  // measure 30
0010
1000
0100
0010
0001
0100
0010
1000
0200
0000
0000
0000
0301
0000
1001
0000
,  // measure 31
0001
0000
0000
0010
0000
0000
0100
0000
0000
1000
0000
0000
0100
0000
0000
0010
0000
0000
0001
0000
0010
0000
0100
0000
1000
0000
0000
0100
0000
0000
0020
0000
0000
0000
0000
0000
0031
0000
0000
0000
0000
0000
0001
0000
0010
0000
0100
0000
,  // measure 32
1000
0000
0000
0100
0000
0000
0010
0000
0001
0000
0100
0000
0010
0000
0000
1000
0000
0000
0002
0000
0000
0000
0000
0000
0010
0000
0000
0000
0000
0000
0010
0000
0000
0000
0000
0000
0100
0000
0000
0000
0000
0000
0103
0000
0000
0000
0000
0000
,  // measure 33
0001
0000
0000
0100
0000
0000
0001
0000
0000
0100
0000
0000
0010
0000
0000
1000
0000
0000
0010
0000
0000
1000
0000
0000
0001
0000
0000
0010
0000
0000
0100
0000
0000
1000
0000
0000
0100
0000
1000
0000
0010
0000
0100
0000
0000
0010
0000
0000
,  // measure 34
0001
1000
0010
0100
0001
1000
0100
0010
0001
0000
0020
0000
0000
0000
1030
0000
,  // measure 35
0100
0000
0000
0010
0000
0000
1000
0000
0000
0001
0000
0000
0010
0000
0000
0100
0000
0000
0001
0000
0000
1000
0000
0000
0010
0000
0001
0000
0100
0000
0010
0000
0000
1000
0000
0000
0001
0000
0010
0000
0100
0000
1000
0000
0000
0010
0000
0000
,  // measure 36
1000
0000
0100
0000
0010
0000
0001
0000
0000
0100
0000
0000
0010
0000
0000
0001
0000
0000
0100
0000
0000
0010
0000
0000
2000
0000
0000
0000
0000
0000
3200
0000
0000
0000
0000
0000
0302
0000
0000
0000
0000
0000
0203
0000
0000
0000
0000
0000
,  // measure 37
0310
0000
0000
0001
0000
0000
0010
0000
0000
0001
0000
0000
0100
0000
0000
0010
0000
0000
0100
0000
0000
0010
0000
0000
1000
0000
0000
0100
0000
0000
0010
0000
0001
0000
0100
0000
0010
0000
0000
1000
0000
0000
0001
0000
0010
0000
0100
0000
,  // measure 38
1000
0010
0100
0001
1000
0100
0010
0001
0200
0000
0010
0000
0310
0000
0000
0000
,  // measure 39
0100
0000
0010
0000
0000
0000
0010
0000
0100
0000
0000
0000
0010
0000
0000
0100
0000
0000
0001
0000
0000
1000
0000
0000
0020
0000
0000
0000
0000
0000
0031
0000
0000
0000
0000
0000
0010
0000
0100
0000
0000
0000
0100
0000
0010
0000
0000
0000
,  // measure 40
0001
0010
0100
2000
0002
0000
0000
0000
3003
0000
0000
0000
1001
0000
1000
0100
,  // measure 41
0010
0000
0001
0000
0010
0000
0001
0000
0000
0010
0000
0000
0001
0000
0000
0010
0000
0000
0001
0000
0000
0010
0000
0000
0100
0000
0000
0010
0000
0000
1000
0000
0000
0001
0000
0000
0100
0000
0000
0010
0000
0000
1000
0000
0100
0000
0010
0000
,  // measure 42
0001
0000
0010
0000
0100
0000
1000
0000
0000
0010
0000
0000
0100
0000
0000
0001
0000
0000
1000
0000
0000
0100
0000
0000
0010
0000
0000
0000
0000
0000
0010
0000
0000
0001
0000
0000
1000
0000
0000
0000
0000
0000
0001
0000
0000
0100
0000
0000
,  // measure 43
0010
0000
0000
1000
0000
0000
0100
0000
0000
0010
0000
0000
0001
0000
0000
0100
0000
0000
0010
0000
0000
1000
0000
0000
0001
0000
0000
0010
0000
0000
0100
0000
1000
0000
0010
0000
0100
0000
0000
0010
0000
0000
0001
0000
0010
0000
0100
0000
,  // measure 44
1000
0000
0100
0000
0010
0000
0001
0000
0000
0100
0000
0000
0010
0000
0000
1000
0000
0000
0100
0000
0010
0000
0001
0000
1000
0000
0000
0001
0000
0000
0010
0000
0100
0000
1000
0000
0001
0000
0000
0100
0000
0000
0010
0000
0000
1000
0000
0000
,  // measure 45
0100
0000
0010
0000
1000
0000
0001
0000
0000
0100
0000
0000
0010
0000
0001
0000
1000
0000
0100
0000
0000
0010
0000
0000
0100
0000
0000
0001
0000
0000
0100
0000
0000
1000
0000
0000
0010
0000
0000
0001
0000
0000
0100
0000
0000
0100
0000
0000
,  // measure 46
0100
0000
0100
0000
0100
0000
0200
0300
0010
0000
0000
0000
1000
0000
0001
0000
0100
0000
0000
0000
1000
0000
0001
0000
0010
0000
0000
0000
0100
0000
0010
0000
,  // measure 47
1000
0000
0000
0010
0000
0000
0100
0000
0000
0001
0000
0000
1000
0000
0000
0100
0000
0000
0010
0000
0000
0001
0000
0000
0010
0000
0000
0100
0000
0000
1000
0000
0100
0000
0010
0000
0001
0000
0000
0010
0000
0000
1000
0000
0100
0000
0010
0000
,  // measure 48
0001
0000
0000
0010
0000
0000
0100
0000
0000
1000
0000
0000
0010
0000
0000
0100
0000
0000
0001
0000
0010
0000
0100
0000
1000
0000
0000
0010
0000
0000
0100
0000
0001
0000
1000
0000
0100
0000
0000
0010
0000
0000
0001
0000
0000
1000
0000
0000
,  // measure 49
0010
0001
0100
0000
0010
0001
0100
0000
0010
1000
0001
0100
0010
1000
0100
0020
,  // measure 50
0001
0000
0100
0000
0031
0000
1000
0100
0001
0100
1000
0100
0001
0000
1001
0000
,  // measure 51
0001
0010
0100
0000
0010
0100
1000
0000
1000
0100
0010
0001
0010
0100
1000
0001
,  // measure 52
0100
0202
0000
0303
0002
0023
2030
3200
,  // measure 53
0310
0000
0000
0001
0000
0000
0010
0000
0000
0001
0000
0000
0100
0000
0000
0010
0000
0000
0100
0000
0000
0010
0000
0000
1000
0000
0000
0100
0000
0000
1000
0000
0100
0000
0010
0000
0001
0000
0000
0100
0000
0000
0001
0000
0010
0000
0100
0000
,  // measure 54
1000
0000
0000
0100
0000
0000
0010
0000
0000
0001
0000
0000
0100
0000
0000
0010
0000
0000
1000
0000
0000
0100
0000
0000
0001
0000
0000
0010
0000
0000
0100
0000
1000
0000
0001
0000
0010
0000
0000
0100
0000
0000
1000
0000
0000
0001
0000
0000
,  // measure 55
0200
0020
0000
0330
0010
0000
2000
0020
,  // measure 56
0000
0000
0000
3030
0010
0000
0022
0033
,  // measure 57
0002
0010
0203
0001
,  // measure 58
2300
0100
3020
1000
,  // measure 59
0032
0000
0023
0000
2030
0000
3200
0000
0302
0000
0203
0000
2300
0100
3020
0000
,  // measure 60
0032
0000
0203
0000
0320
0000
2030
0000
3200
0000
0320
0000
0032
0000
0013
2000
,  // measure 61
0002
0000
0000
0000
,  // measure 62
0000
0000
0000
0000
,  // measure 63
3003
0000
0000
0000
;
