#VERSION:0.83;
#TITLE:Valkyrie dimension;
#SUBTITLE:;
#ARTIST:Spriggan;
#TITLETRANSLIT:;
#SUBTITLETRANSLIT:;
#ARTISTTRANSLIT:;
#GENRE:;
#ORIGIN:;
#CREDIT:;
#BANNER:Valkyrie dimension.png;
#BACKGROUND:Valkyrie dimension-bg.png;
#PREVIEWVID:;
#JACKET:Valkyrie dimension-jacket.png;
#CDIMAGE:;
#DISCIMAGE:;
#LYRICSPATH:;
#CDTITLE:;
#MUSIC:Valkyrie dimension.ogg;
#OFFSET:0.000000;
#SAMPLESTART:2.680000;
#SAMPLELENGTH:15.000000;
#SELECTABLE:YES;
#DISPLAYBPM:47.000000:744.000000;
#BPMS:0.000=90.000,
16.000=98.000,
20.000=116.000,
24.000=134.000,
28.000=152.500,
32.000=170.000,
36.000=187.500,
40.000=204.000,
44.000=222.000,
48.000=240.000,
52.000=480.000,
84.000=744.000,
96.000=186.000,
160.000=93.000,
176.000=186.000,
220.000=93.000,
221.000=744.000,
245.000=186.000,
308.000=46.630,
310.000=390.000;
#STOPS:84.000=1.290,
96.000=0.323,
208.000=0.323,
208.500=0.323,
209.000=0.323,
209.500=0.323,
210.000=0.161,
210.500=0.161,
211.000=0.323,
211.500=0.323,
212.000=0.323,
212.500=0.323,
213.000=0.161,
213.500=0.161,
214.000=0.323,
214.500=0.323,
215.000=0.323,
215.500=0.323,
216.000=0.161,
216.500=0.161,
217.000=0.323,
217.500=0.323,
218.000=0.323,
218.500=0.323,
219.000=0.161,
219.500=0.161,
277.000=0.323;
#DELAYS:;
#WARPS:;
#TIMESIGNATURES:0.000=4=4;
#TICKCOUNTS:0.000=4;
#COMBOS:0.000=1;
#SPEEDS:0.000=1.000=0.000=0;
#SCROLLS:0.000=1.000;
#FAKES:;
#LABELS:0.000=Song Start;
#BGCHANGES:0.000=Valkyrie dimension.avi=1.000=0=0=0=StretchNoLoop====,
99999=-nosongbg-=1.000=0=0=0 // don't automatically add -songbackground-
;
#KEYSOUNDS:;
#ATTACKS:
;

//---------------dance-single - ----------------
#NOTEDATA:;
#CHARTNAME:;
#STEPSTYPE:dance-single;
#DESCRIPTION:;
#CHARTSTYLE:;
#DIFFICULTY:Beginner;
#METER:9;
#RADARVALUES:0.340436,0.847785,0.214303,0.120010,0.000000,278.000000,253.000000,25.000000,14.000000,0.000000,0.000000,0.000000,0.000000,0.000000,0.340436,0.847785,0.214303,0.120010,0.000000,278.000000,253.000000,25.000000,14.000000,0.000000,0.000000,0.000000,0.000000,0.000000;
#CREDIT:;
#DISPLAYBPM:47.000000:744.000000;
#NOTES:
0000
0000
0000
0000
,
0010
0000
0000
0000
,
1000
0000
0000
0000
,
0001
0000
0000
0000
,
0001
0000
0001
0000
,
0100
0000
0100
0000
,
1000
0000
1000
0000
,
0010
0000
0010
0000
,
0001
0000
0010
0000
,
0100
0000
1000
0000
,
0010
0000
0100
0000
,
0001
0000
0010
0000
,
0100
0000
1000
0000
,
0020
0000
0000
0000
,
0000
0000
0000
0000
,
0000
0000
0000
0000
,
0000
0000
0000
0000
,
0000
0000
0000
0000
,
0000
0000
0000
0000
,
0000
0000
0000
0000
,
0000
0030
0000
0000
,
0010
0000
0000
0000
,
0000
0000
0000
0000
,
0000
0000
0000
0000
,
0000
0010
0001
0010
,
0100
1000
0100
0000
0010
0000
1001
0000
,
0100
0010
1000
0010
,
0100
0001
0100
0000
0010
0000
1001
0000
,
0001
0010
0001
0010
,
0001
0010
0100
0000
0010
0000
1001
0000
,
1000
0100
1000
0100
,
1000
0100
0010
0000
0100
0000
1001
0000
,
0100
0010
0001
0100
,
0001
0001
0100
0000
1000
1000
0100
0000
,
0010
0100
1000
0010
,
1000
1000
0010
0000
0001
0001
0010
0000
,
0100
0010
0002
0103
,
0100
0010
2000
3100
,
0100
1000
0001
0100
,
0020
0000
0000
0030
,
2001
0010
0010
3010
,
1002
0010
0010
0013
,
0210
0001
1000
0301
,
0120
1000
0001
1030
,
1001
0000
0000
1001
0000
0000
0010
0000
,
1000
0100
0001
0010
,
1001
0000
0000
1001
0000
0000
0100
0000
,
0001
0010
1000
0100
,
0110
0000
0000
0110
0000
0000
0010
0000
,
0100
0001
1000
0010
,
0110
0000
0000
0110
0000
0000
1000
0000
,
0001
0010
0100
1000
,
0010
0010
0010
0010
0110
0110
0100
0100
,
0100
0100
0110
1001
0001
0001
0001
0001
,
1001
1001
1000
1000
1000
1000
1000
1000
,
0010
0100
0000
0000
,
0000
0000
0000
0000
,
0000
0000
0000
0000
,
0000
0000
0000
0000
,
0000
0000
0000
0000
,
0000
0000
0000
0000
,
0000
0000
0000
0000
0001
0000
0001
0010
,
0100
0000
1000
0010
0100
0001
0010
0000
,
0110
0000
0010
0001
0010
0000
0100
1000
,
0100
1000
0020
0000
2030
0000
3002
0000
,
0203
0000
0301
0010
0100
0000
1000
0000
,
0100
0000
0010
0001
0010
0000
1000
0010
,
1000
0000
0010
0010
1000
0000
0010
0010
,
0100
0000
0001
0010
0100
1000
0010
0100
,
0001
1001
0001
0010
,
0100
1000
0010
0000
0100
0001
0010
0000
,
0001
0100
1000
0000
0001
0100
1000
0000
,
0001
0100
1000
0100
0001
0000
0100
0000
,
0010
1000
0010
0000
0100
0001
0100
0000
,
0001
0010
0001
0000
1000
0100
1000
0000
,
0001
0001
1000
1000
,
0010
0100
0001
1000
0100
0010
0100
0000
,
1001
0000
0200
0000
,
0000
0000
0000
0000
,
0000
0000
0000
0000
,
0000
0000
0000
0000
0000
0000
0000
0300
,
0000
0000
0020
0000
,
0000
0000
0000
0000
,
0000
0000
0000
0000
,
0000
0000
0000
0000
,
0000
0000
0000
0000
,
0030
0000
0000
0000
,
0000
0000
0000
0000
;

//---------------dance-single - ----------------
#NOTEDATA:;
#CHARTNAME:;
#STEPSTYPE:dance-single;
#DESCRIPTION:;
#CHARTSTYLE:;
#DIFFICULTY:Easy;
#METER:13;
#RADARVALUES:0.450650,0.847785,0.162871,0.094294,0.000000,368.000000,349.000000,19.000000,11.000000,0.000000,0.000000,0.000000,0.000000,0.000000,0.450650,0.847785,0.162871,0.094294,0.000000,368.000000,349.000000,19.000000,11.000000,0.000000,0.000000,0.000000,0.000000,0.000000;
#CREDIT:;
#DISPLAYBPM:47.000000:744.000000;
#NOTES:
0000
0000
0000
0000
,
0010
0010
1000
1000
,
0001
0001
0100
0100
,
0010
0010
1000
1000
,
0001
0001
0100
0100
,
0010
0010
1000
1000
,
0001
0001
0100
0100
,
0010
0010
1000
1000
,
0001
0001
0100
0100
,
0010
0010
1000
1000
,
0001
0001
0100
0100
,
0010
0010
1000
1000
,
0001
0001
0100
0100
,
0020
0000
0000
0000
,
0000
0000
0000
0000
,
0000
0000
0000
0000
,
0000
0000
0000
0000
,
0000
0000
0000
0000
,
0000
0000
0000
0000
,
0000
0000
0000
0000
,
0000
0030
0000
0000
,
0010
0000
0000
0000
,
0000
0000
0000
0000
,
0000
0000
0000
0000
,
0000
0000
1000
0000
0100
0010
0001
0000
,
0100
0010
0100
0000
0001
0000
0010
0000
,
0001
0000
0100
0000
0010
1000
0100
0000
,
0010
1000
0100
0010
0001
0000
0100
0000
,
0001
0000
1000
0000
0100
0010
0001
0000
,
0100
0010
0100
0000
0001
0000
0010
0000
,
0001
0000
0100
0000
0010
1000
0100
0000
,
0010
1000
0100
0010
0001
0010
0100
1000
,
0002
0000
1003
0000
0010
1000
0100
0000
,
0010
0001
0100
0001
0010
0000
1001
0000
,
2000
0000
3001
0000
0010
0001
0100
0000
,
0010
1000
0100
1000
0010
0000
1001
0000
,
2000
0000
3100
0000
0001
0010
0100
0000
,
0002
0000
1003
0000
1000
0010
0100
0000
,
1001
0100
1001
0010
,
1000
0010
0100
0001
1000
0010
0100
0001
,
0010
0000
0001
0000
1000
0001
0100
0000
,
0010
0000
1000
0000
0001
1000
0100
0000
,
1000
0010
0100
0000
0001
0010
0100
0000
,
0010
0001
0100
0000
0010
1000
0100
0000
,
0010
1000
0100
1001
,
0010
0001
0100
1001
,
0001
1000
0100
0110
,
1000
0001
0100
0110
,
0010
1000
0010
1000
0000
0001
0100
0000
,
0010
1000
0001
0100
,
0010
0001
0010
0001
0000
1000
0010
0000
,
0100
0001
1000
0010
,
0010
1000
0001
0100
0110
1001
0100
0001
,
1000
0010
0110
1001
0100
1000
0001
0010
,
0110
1001
0010
0001
1000
0100
0110
1001
,
0010
0200
0000
0000
,
0000
0000
0000
0000
,
0000
0000
0000
0000
,
0000
0000
0000
0000
,
0000
0000
0000
0000
,
0000
0000
0000
0000
,
0000
0000
0000
0000
0000
0000
0000
0000
0000
0000
0000
0000
0000
0000
0000
0000
0000
0000
0000
0000
0000
0000
0000
0000
0000
0000
0000
0000
0000
0000
0000
0000
0000
0000
0000
0000
0000
0000
0000
0000
0000
0000
0000
0000
0000
0000
0000
0300
0010
0000
0000
0000
0000
0000
0000
0000
0000
0000
0000
0000
0000
0000
0000
0000
0000
0000
0000
0000
0000
0000
0000
0000
1000
0000
0000
0000
0000
0000
0000
0000
0000
0000
0000
0000
0000
0000
0000
0000
0000
0000
0000
0000
0000
0000
0000
0000
0100
0000
0000
0000
0000
0000
0000
0000
0000
0000
0000
0000
0000
0000
0000
0000
0000
0000
0000
0000
0000
0000
0000
0000
0010
0000
0000
0000
0000
0000
0000
0000
0000
0000
0000
0000
0000
0000
0000
0000
0000
0000
0000
0000
0000
0000
0000
0000
0001
0000
0000
0000
0000
0000
0000
0000
0000
0000
0000
0000
0000
0000
0000
0000
0000
0000
0000
0000
0000
0000
0000
0000
1000
0000
0000
0000
0000
0000
0000
0000
0000
0000
0000
0000
0000
0000
0000
0000
0000
0000
0000
0000
0000
0000
0000
0000
,
0100
0010
0001
0001
0100
0100
0010
0010
,
1000
1000
0010
0100
0002
0000
0013
0100
,
1000
0010
0100
0001
0100
0001
1000
0100
,
1000
0100
0010
0001
0100
0010
1000
0010
,
0100
0001
1000
0100
0010
0001
0010
0100
,
1000
1000
0100
0010
0010
0010
0001
0001
,
0100
0100
0010
1000
0010
1000
0001
0100
,
0001
0100
1001
0001
0010
0100
0010
0001
,
0100
0010
1000
0100
1000
0100
0010
0100
,
0001
0100
1000
0010
0001
0100
0010
1000
,
0010
0100
0001
0010
0100
1000
0010
0001
,
0010
1000
0100
0010
1000
0100
0010
0001
,
0100
0010
1000
0010
0001
0010
1000
0100
,
1000
0100
0010
0100
0001
0010
0100
1000
,
0010
0100
0010
0001
0010
0100
0001
0010
,
0100
0000
0220
0000
,
0000
0000
0000
0000
,
0000
0000
0000
0000
,
0000
0000
0000
0000
0000
0000
0000
0330
,
0000
0000
2002
0000
,
0000
0000
0000
0000
,
0000
0000
0000
0000
,
0000
0000
0000
0000
,
0000
0000
0000
0000
,
3003
0000
0000
0000
,
0000
0000
0000
0000
;

//---------------dance-single - ----------------
#NOTEDATA:;
#CHARTNAME:;
#STEPSTYPE:dance-single;
#DESCRIPTION:;
#CHARTSTYLE:;
#DIFFICULTY:Medium;
#METER:15;
#RADARVALUES:0.571884,0.884645,0.197159,0.274308,0.162871,467.000000,444.000000,23.000000,32.000000,0.000000,0.000000,0.000000,0.000000,0.000000,0.571884,0.884645,0.197159,0.274308,0.162871,467.000000,444.000000,23.000000,32.000000,0.000000,0.000000,0.000000,0.000000,0.000000;
#CREDIT:;
#DISPLAYBPM:47.000000:744.000000;
#NOTES:
0000
0000
0000
0000
,
0002
0000
0103
0000
0010
0100
1000
0000
,
2000
0000
3100
0000
0010
0100
0001
0000
,
0020
0000
0130
0000
0001
0010
0100
0000
,
0020
0000
0130
0000
1000
0010
0100
0000
,
0002
0000
0103
0000
0001
1000
0100
0000
,
2000
0000
3001
0000
1000
0001
0100
0000
,
0020
0000
0130
0000
0001
0010
0100
0000
,
0020
0000
0130
0000
1000
0010
0100
0000
,
0002
0000
0103
0000
0001
1000
0100
0000
,
2000
0000
3001
0000
1000
0001
0100
0000
,
0020
0000
0130
0000
0001
0010
0100
0000
,
0020
0000
0130
0000
1000
0010
0100
0000
,
0020
0000
0000
0000
,
0000
0000
0000
0000
,
0000
0000
0000
0000
,
0000
0000
0000
0000
,
0000
0000
0000
0000
,
0000
0000
0000
0000
,
0000
0000
0000
0000
,
0000
0030
0000
0000
,
0010
0000
0000
0000
,
0000
0000
0000
0000
,
0000
0000
0000
0000
,
0000
0000
0001
0000
0010
0100
1000
0000
,
1000
0010
0001
0010
0000
0100
0001
0010
,
0100
0000
1000
0000
0010
0100
0001
0000
,
0001
0010
1000
0010
0000
0100
1000
0010
,
0100
0000
0010
0000
0001
0010
1000
0010
,
0001
1000
0010
0100
0010
0100
0110
0000
,
0001
0000
0010
0000
1000
0010
0001
0000
,
1000
0100
1000
0000
0001
0000
0100
0001
0100
0000
0001
0000
0100
0010
0100
0000
,
0001
0000
1000
0000
0100
0010
0001
0000
,
0010
0000
1000
0000
0100
0000
0010
0000
0001
0010
0001
0000
0100
0000
0001
0000
,
1000
0000
0001
0000
0100
0010
1000
0000
,
0010
1000
0010
0000
0100
0000
0001
0000
0010
0000
0100
0000
1000
0000
0100
0000
,
1000
0000
0001
0000
0010
0001
0100
0000
,
0010
0001
0010
0000
0100
0000
0010
0000
0100
0000
1000
0000
0001
0000
0000
0000
,
0100
0001
0010
0000
0001
1000
0100
0000
,
0010
1000
0010
0000
0100
0000
0001
0000
0100
0001
0100
0000
0001
0000
0000
0000
,
0200
0000
0000
2300
0000
0000
3200
0000
0000
0320
0000
0000
0031
0000
0101
0000
,
0200
0000
0000
0302
0000
0000
0203
0000
0000
0320
0000
0000
1030
0000
1010
0000
,
2000
0000
0000
3002
0000
0000
0023
0000
0000
0230
0000
0000
1300
0000
0110
0000
,
0002
0000
0000
2003
0000
0000
3200
0000
0000
0320
0000
0000
0031
0000
0110
0000
,
1010
0100
0010
0101
0000
0000
0001
0010
,
0100
1000
0100
0010
0001
0100
0010
0000
,
0011
0100
0010
1100
0000
0000
1000
0100
,
0010
0001
0010
0100
1000
0010
0100
0000
,
0011
0001
1000
1100
0000
0000
1000
0010
,
0001
1000
0100
0001
0010
0100
1000
0000
,
1100
1000
0001
0101
0000
0000
0001
0010
,
1000
0001
0100
1000
0010
0100
0001
0000
,
0010
0100
1000
0001
0110
1001
0100
0010
,
0001
1000
0110
1001
0100
1000
0100
0001
,
0011
0101
0100
0001
0100
1000
1010
1100
,
1001
0020
0000
0000
,
0000
0000
0000
0000
,
0000
0000
0000
0000
,
0000
0000
0000
0000
,
0000
0000
0000
0000
,
0000
0000
0000
0000
,
0000
0000
0000
0000
0130
0000
0001
0000
0100
0000
0010
0100
0001
0000
0010
0000
,
0100
0000
1000
0000
0010
0000
0100
0000
0001
0000
0010
0100
1000
0000
0100
0000
,
0010
0001
0010
1000
0010
0001
0100
1000
,
0100
0000
0001
0000
1000
0100
1000
0000
0100
1000
0100
0000
1000
0001
1000
0000
,
0001
0100
0001
0000
0010
0000
0100
0000
0001
0000
0100
0000
1000
0000
0010
0000
,
0001
0000
0010
0000
1000
0010
1000
0000
0010
0000
0100
0000
0001
0100
0001
0000
,
0100
0010
1000
0100
0010
0001
0100
0010
,
1000
0000
0100
0000
0010
0001
0010
0000
0001
0100
0001
0000
0100
0010
0100
0000
,
0010
1000
0010
0000
0000
0000
1000
0000
0100
0000
0010
0000
0001
0000
0010
0000
,
0100
0000
1000
0100
1000
0000
0010
0000
0100
0000
0001
0100
0001
0000
0010
0000
,
0100
1000
0200
0000
1300
0100
0010
0001
,
0100
0001
0100
0000
0001
0100
0001
0000
1000
0100
1000
0000
0100
1000
0100
0000
,
1000
0100
0010
0001
0010
0100
1000
0001
,
0001
0100
0010
1000
0010
0100
0001
0010
,
0100
1000
0100
0000
1000
0100
1000
0000
0001
0100
0001
0000
0100
0001
0100
0000
,
0001
0010
0100
1000
0010
0100
0001
0010
,
1001
0000
0001
1000
,
0001
1000
0001
1000
,
0001
0000
1000
0000
0001
1000
0001
1000
,
0001
1000
0001
1000
0001
1000
0001
1000
,
0001
1000
0001
1000
0002
0000
0000
0000
,
0000
0000
0000
0000
,
0000
0000
0000
0000
,
0000
0000
0000
0000
,
0000
0000
0000
0000
,
0003
0000
0000
0000
,
0000
0000
0000
0000
;

//---------------dance-single - ----------------
#NOTEDATA:;
#CHARTNAME:;
#STEPSTYPE:dance-single;
#DESCRIPTION:;
#CHARTSTYLE:;
#DIFFICULTY:Hard;
#METER:18;
#RADARVALUES:0.803332,1.326967,0.205731,0.342886,0.630052,656.000000,632.000000,24.000000,40.000000,0.000000,0.000000,0.000000,0.000000,0.000000,0.803332,1.326967,0.205731,0.342886,0.630052,656.000000,632.000000,24.000000,40.000000,0.000000,0.000000,0.000000,0.000000,0.000000;
#CREDIT:;
#DISPLAYBPM:47.000000:744.000000;
#NOTES:
0000
0000
0000
0000
,
0001
0100
0010
0000
1000
0100
0010
0000
,
0001
0010
1000
0000
0010
0001
0100
0000
,
0010
1000
0100
0000
0010
0001
0100
0000
,
0001
0100
1000
0000
0100
0001
0010
0000
,
0001
0100
0010
0100
1000
0100
0010
0000
,
0001
0010
1000
0010
0001
0100
0010
0000
,
0100
0001
0010
1000
0010
0001
0100
0000
,
0001
0100
1000
0100
0001
0010
0100
0000
,
0001
0100
0010
0100
1000
0100
0010
0000
,
0001
0010
1000
0010
0001
0100
0010
0000
,
0100
0001
0010
1000
0010
0001
0100
0000
,
0001
0100
1000
0100
0001
0010
0100
0000
,
0200
0000
0000
0000
,
0000
0000
0000
0000
,
0000
0000
0000
0000
,
0000
0000
0000
0000
,
0000
0000
0000
0000
,
0000
0000
0000
0000
,
0000
0000
0000
0000
,
0000
0000
0000
0000
0000
0000
0000
0000
0000
0300
0000
0000
0000
0000
0000
0000
,
0100
0000
0000
0000
,
0000
0000
0000
0000
,
0000
0000
0000
0000
,
0000
0000
0001
0000
0010
0000
0100
0000
1000
0010
1000
0010
1000
0000
0001
0000
,
0010
0100
1000
0000
0100
0000
0010
0001
0010
0001
0010
0000
0001
0010
0100
0000
,
1000
0000
0100
0000
0010
0000
0100
1000
0100
1000
0100
0000
1000
0000
0001
0100
,
0001
0100
0001
0100
0001
0000
0010
0001
0100
0001
0100
0000
0001
0010
0100
1000
,
0001
0000
0100
0000
0010
0000
1000
0100
1000
0100
1000
0000
0001
0000
1000
0010
,
0100
0001
0010
0000
0001
0100
0010
1000
0001
0000
0010
0000
0200
0000
0000
0300
,
1000
0010
0100
0000
0001
0000
0100
0001
0100
0000
0001
0000
0010
0100
1000
0000
,
0001
0100
0001
1000
0100
1000
0001
0100
0001
0010
0100
1000
0001
0100
0001
1000
,
0100
0000
1000
0000
0100
0000
1000
0001
0100
0010
1000
0000
0100
1000
0001
0000
,
1000
0010
0100
0000
0001
0000
1000
0100
0010
0000
0001
0000
0010
0000
0100
0000
,
1000
0010
0100
0000
0001
0000
0100
0000
0001
0010
0100
0000
1000
0010
0100
0000
,
0010
0100
0010
0000
1000
0000
0001
0010
0100
0000
0010
0000
0001
0100
0001
1000
,
0100
0000
1000
0000
0010
0000
1000
0010
0100
0010
1000
0000
0010
1000
0100
0000
,
1000
0100
1000
0001
0100
0000
0001
0100
0001
0100
0001
0000
0001
0010
0100
0000
,
0010
0000
0001
0100
0001
0000
1000
0100
1000
0000
0001
0100
0001
0000
1000
0100
,
2000
0000
3002
0000
0013
0100
1000
0010
0100
0001
0010
0100
1000
0001
0010
0100
,
2000
0000
3010
0100
0002
0000
0013
0200
0000
1300
0010
0100
0110
0101
0011
0000
,
0002
0000
0103
0010
2000
0000
3100
0020
0000
0031
0100
0010
0110
1010
1100
0000
,
0001
0010
0100
1000
0020
0000
0130
0101
0000
0001
0010
0100
1100
1010
0101
0000
,
1000
0100
0010
0001
0200
0000
0310
1010
0000
1000
0100
0010
0011
0101
1010
0000
,
1010
0100
0001
0101
0100
0010
1000
0100
,
0010
0001
0010
1000
0010
0001
0100
0010
,
1010
1000
0100
1100
1000
0100
0010
0001
,
0010
1000
0010
0001
0100
0010
0100
0001
,
0101
0001
0010
0011
0001
0010
0100
1000
,
0010
0010
1000
1000
0001
0001
0100
0100
,
0110
0010
1000
1010
0010
1000
0010
0001
,
1000
0100
0010
0001
0010
0100
1000
0100
,
0020
2030
3002
0023
2030
3002
0203
0320
,
2030
3002
0023
2030
3200
0302
0023
0230
,
0302
0023
2030
3200
0320
2030
3200
0320
,
1030
0200
0000
0000
,
0000
0000
0000
0000
,
0000
0000
0000
0000
,
0000
0000
0000
0000
,
0000
0000
0000
0000
,
0000
0000
0000
0000
,
0000
0000
0000
0000
0301
0000
1000
0000
0010
0000
0100
0000
0001
0010
0100
1000
,
0010
0000
1000
0000
0010
0100
0001
0000
0100
0000
0001
0100
0010
0000
1000
0000
,
0100
1000
0010
0000
1000
0000
0100
0000
0010
0000
0001
0010
0100
1000
0010
0000
,
1000
0000
0100
1000
0010
0100
0001
0100
0001
0000
0100
0001
0010
0100
1000
0000
,
0100
1000
0010
0100
0001
0000
1000
0000
0100
0000
0010
0001
0100
0010
1000
0000
,
0010
0000
1000
0100
0010
0001
0010
0000
0001
0100
0010
0100
0001
0000
1001
0000
,
0220
0000
0000
0330
0001
0010
0100
0000
1000
0000
0001
0100
0010
0000
1000
0000
,
0010
0100
0001
0000
1000
0010
0100
0001
0010
0100
1000
0010
1000
0010
1000
0001
,
0100
1000
0001
0010
1000
0000
0001
0000
0100
0000
0001
1000
0100
0010
0001
0000
,
0010
0001
1000
0000
0001
0010
0100
0000
0010
0000
0001
0100
0010
0000
0100
0000
,
0001
0100
0010
0000
1000
0100
0010
0000
0100
0000
1000
0001
0010
0100
0001
0000
,
1000
0010
0100
0000
1000
0010
0100
0000
0010
0000
1000
0010
0100
0000
0001
0000
,
0010
0001
1000
0100
0010
0000
1000
0000
0010
0000
1000
0010
0100
0010
0001
0000
,
0010
0001
0100
0000
0001
0100
0010
1000
0100
0000
1000
0100
0010
0001
0100
0000
,
0010
1000
0001
0100
0010
1000
0100
0000
0010
0100
1000
0000
0100
1000
0010
0000
,
0100
0010
0100
0000
0010
1000
0001
0000
0010
0100
1000
0010
0100
0001
0010
0001
,
0100
0000
0000
0000
1000
0100
1000
0100
,
0001
0100
0001
0100
1000
0100
1000
0100
,
1000
0010
1000
0010
0001
0010
0001
0010
,
1000
0010
1000
0100
1000
0100
1000
0010
,
0100
0001
1000
0100
0020
0000
0000
0000
,
0000
0000
0000
0000
,
0000
0000
0000
0000
,
0000
0000
0000
0000
,
0000
0000
0000
0000
,
0030
0000
0000
0000
,
0000
0000
0000
0000
;

//---------------dance-single - ----------------
#NOTEDATA:;
#CHARTNAME:;
#STEPSTYPE:dance-single;
#DESCRIPTION:;
#CHARTSTYLE:;
#DIFFICULTY:Challenge;
#METER:19;
#RADARVALUES:0.963753,1.437548,0.642910,0.591478,0.711488,787.000000,712.000000,75.000000,69.000000,0.000000,0.000000,0.000000,0.000000,0.000000,0.963753,1.437548,0.642910,0.591478,0.711488,787.000000,712.000000,75.000000,69.000000,0.000000,0.000000,0.000000,0.000000,0.000000;
#CREDIT:;
#DISPLAYBPM:47.000000:744.000000;
#NOTES:
0000
0000
0000
0000
,
0010
1000
1100
0000
0010
0001
0101
0000
,
0001
1000
1100
0000
1000
0001
0101
0000
,
0001
0100
0110
0000
1000
0100
0110
0000
,
0001
0100
0010
0100
0001
1000
0100
0000
,
0010
1000
1100
0000
0010
0001
0101
0000
,
0001
1000
1100
0000
1000
0001
0101
0000
,
0001
0100
0110
0000
1000
0100
0110
0000
,
0001
0100
0010
0100
0001
1000
0100
0000
,
0010
1000
1100
0000
0010
0001
0101
0000
,
0001
1000
1100
0000
1000
0001
0101
0000
,
0001
0100
0010
0100
0001
0100
0010
0000
,
1000
0100
0010
0100
1000
0010
0100
0000
,
0001
0100
0010
1000
0100
0010
0001
0100
,
0010
1000
0100
0010
0001
0010
0100
0010
,
0100
1000
0100
1000
0010
0100
0001
0010
,
0001
0010
0100
0010
0001
0100
0010
1000
,
0010
0100
0001
0010
0100
0010
0001
0100
,
0010
1000
0010
0100
0010
1000
0010
0100
,
0010
1000
0010
0100
0001
0010
0100
1000
,
0010
0100
0010
1000
0001
0010
0100
1000
,
0200
0000
0000
0000
,
0000
0000
0000
0000
,
0000
0000
0000
0000
,
0300
0000
0001
0000
0010
0000
0100
0000
1000
0010
0100
0001
0010
0000
0001
0000
,
0010
0100
1000
0000
0100
0000
1000
0100
0010
0000
0001
0000
0100
0001
0010
0000
,
0001
0000
0100
0000
0010
0000
1000
0010
0100
0001
0010
0000
0001
0000
0100
0001
,
0010
0100
1000
0100
1000
0000
0100
1000
0010
0100
0001
0000
0100
0001
0010
0100
,
1000
0000
0001
0000
0100
0000
0010
1000
0100
0010
0001
0000
0010
0000
0001
0100
,
0010
1000
0010
0000
1000
0100
0010
0100
1000
0000
1001
0000
0220
0000
0000
0330
,
1000
0010
0100
0000
0001
0000
1000
0100
0010
0000
0001
0000
0010
0100
1000
0000
,
0001
0010
0100
1000
0010
0100
0001
0010
0001
0010
0001
1000
0100
0001
1000
0010
,
0001
0000
1000
0000
0100
0000
1000
0001
0100
0010
1000
0000
0010
1000
0001
0000
,
1000
0010
0100
0000
0010
0000
1000
0100
0010
0000
0011
0000
0110
0000
1100
0000
,
1000
0010
0100
0000
0001
0000
1000
0001
0010
0100
1000
0000
0001
0010
0100
0000
,
1000
0010
0100
0000
0010
0000
0001
0010
0100
0000
0001
0000
0010
0001
1000
0100
,
0110
0000
0001
0000
0010
0000
0001
0010
0100
0010
1000
0000
0010
0001
0100
0000
,
0001
0100
0010
1000
0100
0000
1000
0100
0010
0001
0100
0000
0010
1000
0001
0100
,
0010
1000
0100
0000
0010
0100
0001
0000
0100
1000
0010
0000
0100
0010
0100
0000
,
0010
1000
0001
0000
0010
0100
1000
0010
0100
0001
0010
0001
0100
0001
0010
0001
,
0200
0000
0001
0320
2000
0030
0100
0002
3000
0100
1000
0203
0001
0010
0302
0000
,
2003
0000
0010
3002
0100
0000
0100
2003
0000
0010
0001
3020
0100
0001
0230
0000
,
0320
0000
1000
0230
0001
0000
1000
0320
0000
1000
0230
0001
0010
2300
3100
0000
,
0110
0000
0100
0000
0001
0000
0010
0000
1000
0000
0010
0000
0001
0000
0100
0000
0001
0100
0001
0100
0010
1000
0010
1000
0100
1000
0100
0010
0001
0010
0001
0010
,
0101
0001
1000
0101
0010
1000
0001
0100
,
0010
1000
0100
0001
1000
0010
0001
1000
,
0101
0010
0100
1010
0100
0001
0010
1000
,
0001
0100
1000
0010
0100
0001
0010
0001
,
1100
0010
0100
0011
0100
0001
0010
1000
,
0010
0001
0100
1000
0001
0010
1000
0010
,
0110
0001
0010
0101
1000
0010
0001
0010
,
0100
0101
0010
0110
1000
1100
0010
0011
,
2200
3300
0000
0000
0000
0000
0000
0000
0022
0033
0000
0000
0000
0000
0000
0000
0220
0330
0000
0000
0000
0000
0000
0000
2002
3003
0000
0000
0000
0000
0000
0000
0202
0303
0000
0000
0000
0000
0000
0000
2200
3300
0000
0000
0000
0000
0000
0000
0220
0330
0000
0000
0000
0000
0000
0000
0022
0033
0000
0000
0000
0000
0000
0000
,
2200
3300
0000
0000
0000
0000
0000
0000
2020
3030
0000
0000
0000
0000
0000
0000
0220
0330
0000
0000
0000
0000
0000
0000
0022
0033
0000
0000
0000
0000
0000
0000
0220
0330
0000
0000
0000
0000
0000
0000
0022
0033
0000
0000
0000
0000
0000
0000
0202
0303
0000
0000
0000
0000
0000
0000
2200
3300
0000
0000
0000
0000
0000
0000
,
2020
3030
0000
0000
0000
0000
0000
0000
0022
0033
0000
0000
0000
0000
0000
0000
0220
0330
0000
0000
0000
0000
0000
0000
2002
3003
0000
0000
0000
0000
0000
0000
0220
0330
0000
0000
0000
0000
0000
0000
2200
3300
0000
0000
0000
0000
0000
0000
0022
0033
0000
0000
0000
0000
0000
0000
0220
0330
0000
0000
0000
0000
0000
0000
,
0010
0020
0000
0000
,
0000
0000
0000
0000
,
0000
0000
0000
0000
,
0000
0000
0000
0000
,
0000
0000
0000
0000
,
0000
0000
0000
0000
,
0000
0000
0000
0000
1030
0000
0010
0000
0100
0001
0010
1000
0010
0000
0001
0100
,
1000
0100
0110
0000
0001
0000
0010
0000
0100
0000
1000
0010
0100
0010
0001
0000
,
1000
0100
0001
0010
0110
0000
1000
0000
0010
0000
0100
0000
0001
0100
1000
0000
,
0100
0001
0010
0000
0001
0010
0100
0000
1000
0010
0100
0001
0101
0000
0001
0010
,
0100
1000
1100
0000
0010
1000
0100
0000
0010
0000
0001
0010
1000
0010
0011
0000
,
0001
0100
1000
0100
0101
0000
0010
0000
0001
0000
0010
0000
1000
0010
0001
0010
,
1000
0000
0001
0100
1000
0000
0100
0000
1000
0000
0010
0000
0100
0001
0010
0001
,
0101
0000
1000
0010
0001
0010
1010
0000
1000
0010
0100
0010
1010
0000
0010
0100
,
0010
0100
1001
1000
0010
0100
0001
0010
,
0100
1000
0010
0000
0100
0000
0001
0010
0100
0000
1000
0000
0010
0000
0100
0000
,
0010
0100
0001
0000
0010
0000
1000
0000
0010
0001
0100
0000
0001
1000
0100
0000
,
1000
0100
0110
0000
0001
0100
0110
0000
1000
0100
0110
0000
0001
0100
0110
0000
,
1000
0010
0001
0010
1000
0100
0001
0100
1000
0010
1000
0100
0001
0100
1000
0001
,
0100
1000
0100
0001
0010
1000
0010
0001
0100
1000
0100
0001
0010
0001
0100
1000
,
0100
0001
1000
0010
0001
0010
1000
0100
0001
0100
1000
0100
0010
0001
0010
1000
,
0001
0100
1000
0100
0001
1000
0010
0001
1000
0010
0001
0010
0100
0001
0010
0100
,
1001
0000
0000
0000
0001
0100
0010
1000
,
0100
0010
0001
0100
1000
0100
0001
0010
,
1000
0010
0001
0100
1000
0100
0001
0010
,
1000
0001
0100
1100
0010
1000
0100
0001
,
0100
1000
0010
0001
0020
0000
0000
0000
,
0000
0000
0000
0000
,
0000
0000
0000
0000
,
0000
0000
0000
0000
,
0000
0000
0000
0000
,
0030
0000
0000
0000
,
0000
0000
0000
0000
;

//---------------dance-double - ----------------
#NOTEDATA:;
#CHARTNAME:;
#STEPSTYPE:dance-double;
#DESCRIPTION:;
#CHARTSTYLE:;
#DIFFICULTY:Easy;
#METER:13;
#RADARVALUES:0.457997,0.884645,0.368602,0.060005,0.034289,374.000000,331.000000,43.000000,7.000000,0.000000,0.000000,0.000000,0.000000,0.000000,0.457997,0.884645,0.368602,0.060005,0.034289,374.000000,331.000000,43.000000,7.000000,0.000000,0.000000,0.000000,0.000000,0.000000;
#CREDIT:;
#DISPLAYBPM:47.000000:744.000000;
#NOTES:
00000000
00000000
00000000
00000000
,
00001000
00000100
00000010
00000001
,
00000010
00000100
00001000
00000010
,
00001000
01000000
10000000
00100000
,
01000000
00010000
00100000
01000000
,
10010000
00100000
01000000
10000000
,
01000000
00100000
00010000
01000000
,
00010000
00000010
00000001
00000100
,
00000010
00001000
00000100
00000010
,
00000001
00000001
00001000
00001000
,
00010000
00010000
10000000
10000000
,
00100000
01000000
00010000
00001000
,
00000010
00001000
00010000
01000000
,
00200000
00000000
00000000
00000000
,
00000000
00000000
00000000
00000000
,
00000000
00000000
00000000
00000000
,
00000000
00000000
00000000
00000000
,
00000000
00000000
00000000
00000000
,
00000000
00000000
00000000
00000000
,
00000000
00000000
00000000
00000000
,
00000000
00300000
00000000
00000000
,
00100000
00000000
00000000
00000000
,
00000000
00000000
00000000
00000000
,
00000000
00000000
00000000
00000000
,
00000000
00000000
00100000
00000000
00100000
01000000
00010000
00000000
,
00010000
00100000
00001000
00000000
00000100
00000000
00000010
00000000
,
00000001
00000010
00000100
00000000
00001000
00000010
00000100
00000000
,
00000010
00001000
00010000
01000000
,
00010000
00100000
01000000
00000000
10000000
00100000
01000000
00010000
,
10000000
00000000
00010000
00000000
00010000
00001000
00000100
00000000
,
00000010
00000000
00001000
00000000
00000001
00000010
00000100
00000000
,
00000001
00000010
00000001
00000010
00000100
00001000
00000100
00010000
,
00002000
00000000
00013000
00000000
00010000
01000000
10000000
00000000
,
01000000
10000000
00100000
01000000
00010000
00000000
00011000
00000000
,
00010000
00000000
00001000
00000000
00001000
00000100
00000001
00000000
,
00000100
00000001
00000010
00000100
00001000
00000000
00001001
00000000
,
00000002
00000000
00000013
00000000
00000010
00000100
00001000
00000000
,
00000200
00000000
00010300
00000000
00010000
00001000
01000000
00000000
,
00010000
00100000
01000000
00000000
10000000
00100000
01000000
00000000
,
00100000
01000000
00010000
10000000
01000000
00100000
00001000
00010000
,
01000000
00000000
00000000
10000000
00000000
00000000
01000000
00000000
00000000
00010000
00000000
00000000
00110000
00000000
01010000
00000000
,
00001000
00000000
00000000
00000010
00000000
00000000
00000001
00000000
00000000
00000100
00000000
00000000
00001010
00000000
00001100
00000000
,
00000001
00000000
00000000
00000100
00000000
00000000
00001000
00000000
00000000
01000000
00000000
00000000
01010000
00000000
00110000
00000000
,
10000000
00000000
00000000
01000000
00000000
00000000
00010000
00000000
00000000
00000100
00000000
00000000
00001100
00000000
00001010
00000000
,
00000011
00000000
00000000
00000101
00000000
00000000
00000001
00000000
,
00000010
00000100
00001000
00000010
,
00001010
00000000
00000000
00001100
00000000
00000000
00010000
00000000
,
00000010
00000100
00001000
00010000
,
00011000
00000000
00000000
00011000
00000000
00000000
00010000
00000000
,
00100000
10000000
01000000
00010000
,
00110000
00000000
00000000
01010000
00000000
00000000
00100000
00000000
,
10000000
00010000
01000000
00100000
,
10000000
10000000
01000000
01000000
01100000
01100000
00100000
00100000
,
00010000
00010000
00011000
00011000
00001000
00001000
00000100
00000100
,
00000110
00000110
00000010
00000010
00000001
00000001
00001001
00001001
,
00000110
00000000
00000000
00000000
,
00000000
00000000
00000000
00000000
,
00000000
00000000
00000000
00000000
,
00000000
00000000
00000000
00000000
,
00000000
00000000
00000000
00000000
,
00000000
00000000
00000000
00000000
,
00000000
00000000
00000000
00000001
00000010
00000100
00001000
00010000
,
00001000
00000100
00000010
00000001
00001000
00000010
00000100
00000001
,
00000100
00001000
00010000
01000000
20000000
00000000
30010000
00100000
,
01000000
10000000
00100000
10100000
00000000
01010000
00000000
00011000
,
00000000
00001010
00000010
00001000
00000001
00000010
00000100
00001000
,
00000100
00010000
00001000
00000100
00000001
00000010
00000100
00001000
,
00010000
01000000
10000000
00100000
01000000
00010000
00100000
01000000
,
10000000
11000000
00000000
01100000
00000000
00110000
00000000
00011000
,
00000000
00001000
00011000
00001000
00000100
00000001
00000010
00001000
,
00000010
00000001
00000100
00000010
00001000
00000100
00010000
00001000
,
01000000
10000000
01000000
00010000
00100000
10000000
00100000
00010000
,
00000000
10100000
00000000
01100000
00000000
00010000
00100000
01000000
,
10000000
01000000
00010000
00001000
00100000
00001000
00000100
00000001
,
00000010
00001000
00000010
00000001
00000100
00000010
00001000
00000100
,
00000010
00000001
00000001
00000010
00000100
00000100
00010000
00010000
,
00001000
00011000
00000000
00110000
00000000
00011000
00000000
00001010
,
00001000
00000000
00020000
00000000
,
00000000
00000000
00000000
00000000
,
00000000
00000000
00000000
00000000
,
00000000
00000000
00000000
00000000
,
00000000
00000000
00002000
00000000
,
00000000
00000000
00000000
00000000
,
00000000
00000000
00000000
00000000
,
00000000
00000000
00000000
00000000
,
00000000
00000000
00000000
00000000
,
00033000
00000000
00000000
00000000
,
00000000
00000000
00000000
00000000
;

//---------------dance-double - ----------------
#NOTEDATA:;
#CHARTNAME:;
#STEPSTYPE:dance-double;
#DESCRIPTION:;
#CHARTSTYLE:;
#DIFFICULTY:Medium;
#METER:14;
#RADARVALUES:0.576783,0.847785,0.231448,0.214303,0.154298,471.000000,444.000000,27.000000,25.000000,0.000000,0.000000,0.000000,0.000000,0.000000,0.576783,0.847785,0.231448,0.214303,0.154298,471.000000,444.000000,27.000000,25.000000,0.000000,0.000000,0.000000,0.000000,0.000000;
#CREDIT:;
#DISPLAYBPM:47.000000:744.000000;
#NOTES:
00000000
00000000
00000000
00000000
,
00002000
00000000
00013000
00000000
00001000
00010000
01000000
00000000
,
20000000
00000000
31000000
00000000
00100000
00010000
01000000
00000000
,
00020000
00000000
01030000
00000000
00001000
00000100
00000010
00000000
,
00000002
00000000
00000013
00000000
00000100
00001000
00010000
00000000
,
00002000
00000000
00013000
00000000
00001000
00010000
01000000
00000000
,
20000000
00000000
31000000
00000000
00100000
00010000
01000000
00000000
,
00020000
00000000
01030000
00000000
00001000
00000100
00000010
00000000
,
00000002
00000000
00000013
00000000
00000100
00001000
00010000
00000000
,
00001000
00010000
00100000
00000000
10000000
00000000
01000000
00000000
,
00100000
00010000
01000000
00000000
00010000
00000000
00100000
00000000
,
00010000
00001000
00000010
00000000
00001000
00000000
00000100
00000000
,
00000001
00000010
00000100
00000000
00001000
00000000
00000100
00000000
,
00020000
00000000
00000000
00000000
,
00000000
00000000
00000000
00000000
,
00000000
00000000
00000000
00000000
,
00000000
00000000
00000000
00000000
,
00000000
00000000
00000000
00000000
,
00000000
00000000
00000000
00000000
,
00000000
00000000
00000000
00000000
,
00000000
00000000
00000000
00000000
00000000
00000000
00000000
00000000
00000000
00030000
00000000
00000000
00000000
00000000
00000000
00000000
,
00010000
00000000
00000000
00000000
,
00000000
00000000
00000000
00000000
,
00000000
00000000
00000000
00000000
,
00000000
00000000
00001000
00000000
00001000
00000100
00000001
00000000
,
00000001
00000010
00000100
00000001
00000000
00000100
00010000
00000010
,
00000100
00000000
00001000
00000000
00010000
01000000
10000000
00000000
,
00100000
01000000
00010000
10000000
00000000
00010000
00100000
01000000
,
00010000
00000000
01000000
00000000
00010000
01000000
10000000
00000000
,
01000000
10000000
00100000
00010000
00000000
00001000
00000100
00000001
,
00000010
00000000
00001000
00000000
00000010
00000001
00000100
00000000
,
00000001
00000100
00000001
00000100
00001000
00010000
01000000
10000000
,
11000000
00000000
01010000
00000000
00010000
00100000
01000000
00000000
,
10000000
00000000
00100000
00000000
01000000
00000000
00010000
00000000
00100000
00000000
00001000
00010000
00001000
00000000
00000100
00000000
,
00000010
00000000
00001000
00000000
00000001
00000000
00000000
00000000
00000010
00000100
00000010
00000000
00000100
00000000
00000000
00000000
,
00000001
00000100
00001000
00010000
00000000
00001000
00100000
01000000
,
10000000
00100000
01000000
00000000
00010000
00100000
01000000
00000000
,
00100000
00000000
00010000
00000000
00001000
00000000
00000100
00000000
00000010
00000001
00000010
00000000
00000100
00000000
00000000
00000000
,
00001000
00000000
00000100
00000000
00000010
00000000
00000000
00000000
00001000
00010000
00001000
00000000
00010000
00000000
00000000
00000000
,
00001000
00010000
00001000
00000000
00100000
00000000
01000000
00000000
10000000
00000000
00100000
00000000
00010000
00000000
00100000
00000000
,
02000000
00000000
00000000
03020000
00000000
00000000
00230000
00000000
00000000
00302000
00000000
00000000
00003100
00000000
00000110
00000000
,
00000002
00000000
00000000
00000023
00000000
00000000
00002030
00000000
00000000
00023000
00000000
00000000
00031000
00000000
00011000
00000000
,
00200000
00000000
00000000
00302000
00000000
00000000
00003200
00000000
00000000
00000320
00000000
00000000
00000130
00000000
00001001
00000000
,
00000002
00000000
00000000
00000023
00000000
00000000
00001030
00000000
00001000
00000010
00000001
00000100
00001000
00010000
01000000
10000000
,
11000000
00100000
01000000
01010000
00000000
00000000
10000000
01000000
,
00010000
00001000
00000100
00000001
00000001
00000010
00000100
00000010
,
00000011
00000010
00000100
00001100
00000000
00000000
00000001
00000100
,
00001000
00010000
01000000
10000000
10000000
00100000
01000000
00100000
,
10010000
01000000
00100000
10010000
00000000
00000000
10000000
00100000
,
00010000
00001000
00000010
00000001
00000001
00000100
00000010
00000100
,
00001001
00000100
00000010
00001001
00000000
00000000
00000010
00000001
,
00000100
00001000
00000100
00000010
00001000
00100000
10000000
00010000
,
10000000
00010000
00001000
00000001
00000110
00001001
00000001
00001000
,
00010000
10000000
01100000
10010000
10000000
00001000
00010000
00000001
,
00000110
00001001
00000001
00010000
00001000
10000000
01100000
10010000
,
01000000
02000000
00000000
00000000
,
00000000
00000000
00000000
00000000
,
00000000
00000000
00000000
00000000
,
00000000
00000000
00000000
00000000
,
00000000
00000000
00000000
00000000
,
00000000
00000000
00000000
00000000
,
00000000
00000000
00000000
00000000
03100000
00000000
10000000
00000000
00100000
00000000
01000000
00010000
01000000
00000000
00001000
00000000
,
00010000
00000000
00001000
00000000
00000100
00000000
00000010
00000000
00001000
00000000
00000001
00000010
00000100
00000000
00000010
00000000
,
00000001
00000000
00000100
00000000
00000010
00001000
00000010
00000000
00000100
00000000
00000010
00000000
00000100
00000001
00000100
00000000
,
00000010
00000100
00000001
00000100
00001000
00010000
00001000
00100000
,
01000000
00000000
00010000
00000000
01000000
10000000
01000000
00000000
00100000
00000000
01000000
00000000
10000000
01000000
10000000
00000000
,
00100000
00000000
01000000
00000000
00001000
00010000
00001000
00000000
00010000
00001000
00010000
00000000
00001000
00010000
00001000
00000000
,
00010000
00001000
00010000
00000000
00001000
00000000
00000100
00000000
00000010
00000000
00000000
00000000
00001000
00000000
00000001
00000000
,
00000010
00000011
00001100
00011000
,
00110000
00000000
10010000
01000000
00010000
00100000
01000000
10000000
,
01000000
10000000
01000000
00000000
00100000
00010000
00100000
00000000
01000000
00100000
01000000
00000000
10000000
00100000
01000000
00000000
,
00010000
01000000
00100000
00000000
01000000
00001000
00010000
00001000
,
00000100
00000000
00000001
00000000
00000010
00000000
00001000
00000000
00000010
00000001
00000010
00000000
00000100
00001000
00000100
00000000
,
00001000
00000010
00000100
00000001
00000010
00001000
00010000
01000000
,
00100000
00010000
00100000
00000000
01000000
10000000
01000000
00000000
00100000
00010000
01000000
00000000
00100000
01000000
00100000
00000000
,
10000000
01000000
00010000
00001000
00000010
00000001
00000100
00001000
,
00010000
00100000
10000000
00100000
01000000
00001000
00100000
00001000
,
00011000
00000000
00010000
00001000
,
00010000
00001000
00010000
00001000
,
00010000
00000000
00001000
00000000
00010000
00001000
00010000
00001000
,
00010000
00001000
00010000
00001000
00010000
00001000
00010000
00001000
,
00010000
00001000
00010000
00001000
00020000
00000000
00000000
00000000
,
00000000
00000000
00000000
00000000
,
00000000
00000000
00000000
00000000
,
00000000
00000000
00000000
00000000
,
00000000
00000000
00000000
00000000
,
00030000
00000000
00000000
00000000
,
00000000
00000000
00000000
00000000
;

//---------------dance-double - ----------------
#NOTEDATA:;
#CHARTNAME:;
#STEPSTYPE:dance-double;
#DESCRIPTION:;
#CHARTSTYLE:;
#DIFFICULTY:Hard;
#METER:18;
#RADARVALUES:0.745776,1.105806,0.154298,0.102866,0.471468,609.000000,591.000000,18.000000,12.000000,0.000000,0.000000,0.000000,0.000000,0.000000,0.745776,1.105806,0.154298,0.102866,0.471468,609.000000,591.000000,18.000000,12.000000,0.000000,0.000000,0.000000,0.000000,0.000000;
#CREDIT:;
#DISPLAYBPM:47.000000:744.000000;
#NOTES:
00000000
00000000
00000000
00000000
,
00000010
00000001
00000100
00000000
00000010
00001000
00000100
00000000
,
00100000
00010000
01000000
00000000
00100000
10000000
01000000
00000000
,
00010000
01000000
00100000
00000000
10000000
01000000
00100000
00000000
,
00010000
00100000
00011000
00000000
00001000
00000010
00011000
00000000
,
00000010
00000001
00000100
00000000
00000010
00001000
00000100
00000000
,
00100000
00010000
01000000
00000000
00100000
10000000
01000000
00000000
,
00010000
01000000
00100000
00000000
10000000
01000000
00100000
00000000
,
00010000
00100000
00011000
00000000
00001000
00000010
00011000
00000000
,
00000010
00001000
00000001
00000000
00000001
00000100
00001000
00000000
,
00000100
00001000
00010000
00000000
00001000
00010000
01000000
00000000
,
00010000
01000000
10000000
00100000
01000000
00010000
00100000
00000000
,
00010000
00100000
00001000
00000100
00000001
00000010
00000100
00000000
,
00000020
00000000
00000000
00000000
,
00000000
00000000
00000000
00000000
,
00000000
00000000
00000000
00000000
,
00000000
00000000
00000000
00000000
,
00000000
00000000
00000000
00000000
,
00000000
00000000
00000000
00000000
,
00000000
00000000
00000000
00000000
,
00000000
00000000
00000030
00000000
,
00000100
00000000
00000000
00000000
,
00000000
00000000
00000000
00000000
,
00000000
00000000
00000000
00000000
,
00000000
00000000
00000001
00000000
00000010
00000000
00000100
00000000
00001000
00000010
00001000
00000100
00000010
00000000
00000100
00000000
,
00000010
00000001
00000010
00000001
00000100
00000000
00000001
00000000
00000100
00000000
00000010
00000000
00001000
00000000
00000100
00000000
,
00001000
00000000
00000100
00000000
00010000
00000000
00001000
00010000
00001000
00010000
00001000
00000000
00100000
00000000
00010000
01000000
,
00010000
01000000
00010000
00000000
00100000
00000000
00010000
10000000
01000000
10000000
01000000
00000000
00100000
01000000
00100000
01000000
,
00100000
00000000
00010000
00000000
10000000
00000000
00010000
01000000
00100000
00000000
01000000
00000000
00010000
00000000
00100000
00000000
,
00001000
00010000
00001000
00010000
00001000
00000000
00010000
00001000
00010000
00001000
00000100
00000000
00000110
00000000
00000000
00000000
,
00001000
00000000
00000100
00000000
00001000
00000000
00000001
00000100
00000001
00000100
00000010
00000000
00001000
00000000
00000001
00000000
,
00000010
00000001
00000010
00000000
00000100
00000000
00001000
00000010
00001000
00000000
00000100
00000000
00000010
00000100
00000010
00000000
,
00000001
00000000
00000100
00000000
00000010
00000000
00010000
00001000
00010000
00000000
00000010
00000000
00000100
00000000
00000001
00000000
,
00001000
00000100
00001000
00000000
00000010
00000000
00000100
00000000
00000001
00000100
00000001
00000000
00000010
00000000
00000100
00000000
,
00001000
00000000
01000000
00000000
00100000
00000000
00010000
00000000
01000000
00010000
01000000
00000000
00100000
00000000
01000000
00000000
,
00010000
00100000
00010000
00000000
00100000
00000000
01000000
00000000
10000000
01000000
10000000
00000000
00100000
00000000
01000000
00000000
,
00100000
00000000
10000000
00000000
01000000
00000000
10000000
00000000
00010000
00100000
00010000
00000000
01000000
00000000
00010000
00000000
,
00001000
00010000
00001000
00000000
00000010
00000000
00000100
00000000
00000001
00000010
00000001
00000000
00001000
00000100
00001000
00000000
,
00000010
00001000
00000010
00000000
00000100
00000001
00000100
00000000
00000010
00001000
00000100
00000000
00000010
00000001
00000100
00000000
,
00000001
00000010
00000001
00000010
00000001
00000100
00000001
00000100
00000010
00001000
00000010
00001000
00000100
00010000
00000100
00010000
,
00002000
00000000
00013000
00001000
00200000
00000000
01300000
00200000
00000000
00310000
01000000
00100000
01000000
10000000
01010000
00000000
,
20000000
00000000
31000000
00100000
00020000
00000000
00130000
02000000
00000000
03010000
00001000
00000100
00000010
00001000
00000110
00000000
,
00000002
00000000
00000013
00000100
00002000
00000000
00003100
00020000
00000000
00031000
00100000
01000000
00010000
00001000
00000100
00000000
,
00000010
00001000
00000001
00000010
00000100
00000001
00000100
00001000
00010000
00100000
10000000
00100000
00010000
01000000
00001000
00010000
,
00011000
00001000
00010000
00011000
00001000
00100000
00010000
01000000
,
10000000
01000000
00010000
00100000
01000000
10000000
01000000
10000000
,
11000000
00100000
00010000
00110000
00010000
00100000
00001000
00000100
,
00000010
00001000
00000001
00000010
00000100
00000010
00000001
00000100
,
00000101
00000010
00001000
00001010
00001000
00000100
00000010
00000001
,
00000100
00001000
00010000
01000000
10000000
01000000
00010000
00001000
,
00011000
00010000
00001000
00011000
00001000
00000100
00000010
00001000
,
00000001
00000010
00000100
00001000
00000010
00001000
00000100
00000010
,
00000100
00010000
00000100
00000001
00000100
00010000
01000000
10000000
,
01000000
00001000
00100000
00001000
00000100
00000010
00001000
01000000
,
00010000
00001000
00000010
01000000
00100000
00000100
00010000
00001000
,
00011000
00020000
00000000
00000000
,
00000000
00000000
00000000
00000000
,
00000000
00000000
00000000
00000000
,
00000000
00000000
00000000
00000000
,
00000000
00000000
00000000
00000000
,
00000000
00000000
00000000
00000000
,
00000000
00000000
00000000
00000000
00031000
00000000
01000000
00000000
00100000
00000000
10000000
00000000
01000000
00100000
00010000
00000000
,
01000000
00100000
10000000
00000000
00100000
00000000
01000000
00000000
00010000
00000000
00100000
00000000
00001000
00000000
00000100
00000000
,
00000010
00001000
00000001
00000000
00000010
00000100
00001000
00000000
00000010
00000000
00000100
00000000
00000001
00000000
00000010
00000000
,
00000100
00000000
00001000
00000000
00000100
00010000
00000010
00000000
00010000
00000100
00001000
00000000
00000100
00010000
00000010
00001000
,
00000100
00010000
00001000
00000000
00010000
00000000
00000100
00000000
00000010
00000000
00000001
00000000
00001000
00000010
00000100
00000000
,
00000001
00000010
00000100
00000000
00000010
00000000
00000100
00000000
00001000
00000000
00010000
00000000
00100000
00000000
01000000
00000000
,
00010000
00000000
10000000
00000000
00100000
01000000
00010000
00000000
01000000
10000000
00100000
00000000
01000000
00010000
00100000
00010000
,
00100000
01000000
10000000
00000000
00010000
00100000
01000000
00000000
00100000
00001000
01000000
00000000
00001000
00010000
00000100
00000000
,
00001000
00000100
00000010
00000000
00001001
00000000
00000001
00000000
00000010
00000000
00000100
00000000
00001000
00000000
00000010
00000000
,
00001000
00000010
00000100
00000000
00000001
00000000
00000100
00000000
00000010
00000000
00001000
00000000
00010000
00000000
00100000
00000000
,
00010000
10000000
01000000
00000000
00100000
00000000
01000000
00000000
10000000
00010000
01000000
00000000
00100000
10000000
00010000
00000000
,
10000000
00100000
01000000
00000000
00100000
01000000
00010000
00000000
01000000
00001000
00010000
00000000
00001000
00000100
00000010
00000000
,
00000100
00000000
00000001
00000000
00000010
00000000
00000100
00000000
00000010
00000001
00000100
00000000
00000010
00001000
00000100
00000000
,
00000001
00000100
00001000
00000000
00000100
00000000
00010000
00000000
01000000
00000000
00010000
00000000
01000000
10000000
00100000
00000000
,
01000000
00010000
00100000
00000000
00010000
00100000
01000000
00000000
10000000
00100000
01000000
00000000
00010000
00100000
01100000
00000000
,
10000000
00100000
00010000
00100000
01000000
00010000
00100000
01000000
10000000
00000000
00100000
01000000
00100000
00010000
00001000
00000100
,
00000010
00000000
00000000
00000000
00000001
00000010
00000001
00000100
,
00000010
00001000
00000100
00010000
00001000
00100000
00010000
01000000
,
00100000
10000000
01000000
00100000
00010000
01000000
00001000
00010000
,
00000010
00001000
00000100
00000010
00000001
00000100
00000010
00010000
,
00001000
01000000
00100000
10000000
02000000
00000000
00000000
00000000
,
00000000
00000000
00000000
00000000
,
00000000
00000000
00000000
00000000
,
00000000
00000000
00000000
00000000
,
00000000
00000000
00000000
00000000
,
03000000
00000000
00000000
00000000
,
00000000
00000000
00000000
00000000
;

//---------------dance-double - ----------------
#NOTEDATA:;
#CHARTNAME:;
#STEPSTYPE:dance-double;
#DESCRIPTION:;
#CHARTSTYLE:;
#DIFFICULTY:Challenge;
#METER:19;
#RADARVALUES:0.844968,1.437548,0.480040,0.608622,0.655769,690.000000,634.000000,56.000000,71.000000,0.000000,0.000000,0.000000,0.000000,0.000000,0.844968,1.437548,0.480040,0.608622,0.655769,690.000000,634.000000,56.000000,71.000000,0.000000,0.000000,0.000000,0.000000,0.000000;
#CREDIT:;
#DISPLAYBPM:47.000000:744.000000;
#NOTES:
00000000
00000000
00000000
00000000
,
00000010
00000001
00000101
00000000
00000010
00001000
00001100
00000000
,
00100000
00010000
01010000
00000000
00100000
10000000
11000000
00000000
,
00010000
01000000
01100000
00000000
10000000
01000000
01100000
00000000
,
00010000
00100000
00011000
00000000
00001000
00000010
00011000
00000000
,
00000010
00000001
00000101
00000000
00000010
00001000
00001100
00000000
,
00100000
00010000
01010000
00000000
00100000
10000000
11000000
00000000
,
00010000
01000000
01100000
00000000
10000000
01000000
01100000
00000000
,
00010000
00100000
00011000
00000000
00001000
00000010
00011000
00000000
,
00000010
00001000
00000001
00000000
00000001
00000100
00001000
00000000
,
00000100
00001000
00010000
00000000
00001000
00010000
01000000
00000000
,
00010000
01000000
10000000
00100000
01000000
00010000
00100000
00000000
,
00010000
00100000
00001000
00000100
00000001
00000010
00000100
00000000
,
00002000
00000000
00000000
00000000
,
00000000
00000000
00000000
00000000
,
00000000
00000000
00000000
00000000
,
00000000
00000000
00000000
00000000
,
00000000
00000000
00000000
00000000
,
00000000
00000000
00000000
00000000
,
00000000
00000000
00000000
00000000
,
00000000
00003000
00000000
00000000
,
00000020
00000000
00000000
00000000
,
00000000
00000000
00000000
00000000
,
00000000
00000000
00000000
00000000
,
00000030
00000000
00000001
00000000
00000010
00000000
00000100
00000000
00000010
00000001
00000010
00000001
00000100
00000000
00001000
00000000
,
00000100
00001000
00000100
00000000
00001000
00000000
00010000
00001000
00010000
00001000
00010000
00000000
00001000
00100000
01000000
00000000
,
10000000
00000000
01000000
00000000
00100000
00000000
01000000
10000000
01000000
10000000
01000000
00000000
10000000
00000000
00010000
01000000
,
00010000
01000000
00001000
00100000
00010000
00000000
00100000
00010000
01000000
00010000
01000000
00000000
00010000
00100000
00001000
00010000
,
00001000
00000000
00000100
00000000
00000001
00000000
00000010
00000100
00001000
00000100
00001000
00000000
00000001
00000000
00000100
00000010
,
00001000
00000100
00000010
00000000
00000001
00000100
00001000
00000100
00000010
00000000
00000100
00000000
00002000
00000000
00000000
00000000
,
00013000
00001000
00010000
00000000
00001000
00000000
00000100
00000001
00000100
00000000
00000001
00000000
00000010
00000100
00001000
00000000
,
00000100
00010000
00001000
00100000
00010000
01000000
00100000
10000000
00010000
00100000
10000000
00010000
01000000
10000000
00010000
00100000
,
01000000
00000000
10000000
00000000
01000000
00000000
10000000
00010000
01000000
00100000
10000000
00000000
01000000
10000000
00010000
00000000
,
10000000
00100000
00010000
00000000
00100000
00000000
00010000
00100000
00010000
00000000
00000010
00000000
00001000
00000000
00000100
00000000
,
00000010
00000100
00000001
00000000
00000100
00000000
00001000
00000000
00000001
00000100
00001000
00000000
00000100
00000010
00000100
00000000
,
00000001
00000010
00000100
00000000
00001000
00000000
00000100
00010000
00001000
00000000
00100000
00000000
00010000
01000000
00010000
10000000
,
01000000
00000000
10000000
00000000
00100000
00000000
10000000
00100000
01000000
00100000
10000000
00000000
00100000
10000000
01000000
00000000
,
10000000
01000000
10000000
00010000
01000000
00000000
00010000
01000000
00001000
00010000
00000100
00000000
00001000
00000010
00000100
00000000
,
00000001
00000000
00000010
00000100
00000010
00000000
00000001
00000010
00000100
00000000
00001000
00000100
00000010
00000000
00000001
00000100
,
00000020
00000000
00002030
00000000
00003100
00010000
00001000
00100000
01000000
10000000
00100000
01000000
00010000
10000000
00100000
01000000
,
00200000
00000000
01000000
00310000
00002000
00000000
00010000
00203000
00000000
01000000
00310000
02000000
00010000
03001000
00020000
00000000
,
00032000
00000000
00000010
00003010
00000002
00000000
00000100
00000023
00000000
00000100
00001030
00000200
00000010
00000001
00000320
00000000
,
00000032
00000000
00001000
00000203
00001000
00000000
00010000
02000300
00000000
03010000
00100000
01000000
10000000
00100000
01100000
00000000
,
01000000
00000000
00010000
00000000
00100000
00000000
10000000
00000000
00100000
00000000
00010000
00000000
00001000
00000000
00000100
00000000
00000010
00000001
00000010
00000001
00001000
00000100
00001000
00000100
00010000
00001000
00010000
00001000
00010000
00000100
00010000
00000100
,
00011000
00010000
00001000
00011000
00010000
01000000
10000000
00100000
,
01000000
00010000
00100000
10000000
00100000
00010000
00001000
00000100
,
00000011
00000100
00000010
00001100
00000010
00000100
00000001
00000100
,
00001000
00010000
01000000
10000000
00100000
01000000
00010000
00100000
,
00110000
01000000
00100000
11000000
01000000
00010000
00100000
10000000
,
00100000
00010000
00001000
00000100
00000010
00001000
00000001
00000100
,
00001100
00000001
00000100
00000101
00000010
00001000
00000001
00000100
,
00010000
01000000
00100000
10000000
01000000
11000000
01100000
00110000
,
22000000
33000000
00000000
00000000
00000000
00000000
00000000
00000000
20020000
30030000
00000000
00000000
00000000
00000000
00000000
00000000
00220000
00330000
00000000
00000000
00000000
00000000
00000000
00000000
00022000
00033000
00000000
00000000
00000000
00000000
00000000
00000000
00002200
00003300
00000000
00000000
00000000
00000000
00000000
00000000
00000202
00000303
00000000
00000000
00000000
00000000
00000000
00000000
00000022
00000033
00000000
00000000
00000000
00000000
00000000
00000000
00002020
00003030
00000000
00000000
00000000
00000000
00000000
00000000
,
00022000
00033000
00000000
00000000
00000000
00000000
00000000
00000000
00220000
00330000
00000000
00000000
00000000
00000000
00000000
00000000
20200000
30300000
00000000
00000000
00000000
00000000
00000000
00000000
20020000
30030000
00000000
00000000
00000000
00000000
00000000
00000000
22000000
33000000
00000000
00000000
00000000
00000000
00000000
00000000
02020000
03030000
00000000
00000000
00000000
00000000
00000000
00000000
00022000
00033000
00000000
00000000
00000000
00000000
00000000
00000000
02002000
03003000
00000000
00000000
00000000
00000000
00000000
00000000
,
00202000
00303000
00000000
00000000
00000000
00000000
00000000
00000000
00020020
00030030
00000000
00000000
00000000
00000000
00000000
00000000
00020200
00030300
00000000
00000000
00000000
00000000
00000000
00000000
00022000
00033000
00000000
00000000
00000000
00000000
00000000
00000000
02200000
03300000
00000000
00000000
00000000
00000000
00000000
00000000
00220000
00330000
00000000
00000000
00000000
00000000
00000000
00000000
00022000
00033000
00000000
00000000
00000000
00000000
00000000
00000000
00002200
00003300
00000000
00000000
00000000
00000000
00000000
00000000
,
00000220
00000330
00000000
00000000
00000000
00000000
00000000
00000000
00000000
00000000
00000000
00000000
00000000
00000000
00000000
00000000
00200000
00000000
00000000
00000000
00000000
00000000
00000000
00000000
00000000
00000000
00000000
00000000
00000000
00000000
00000000
00000000
00000000
00000000
00000000
00000000
00000000
00000000
00000000
00000000
00000000
00000000
00000000
00000000
00000000
00000000
00000000
00000000
00000000
00000000
00000000
00000000
00000000
00000000
00000000
00000000
00000000
00000000
00000000
00000000
00000000
00000000
00000000
00000000
,
00000000
00000000
00000000
00000000
,
00000000
00000000
00000000
00000000
,
00000000
00000000
00000000
00000000
,
00000000
00000000
00000000
00000000
,
00000000
00000000
00000000
00000000
,
00000000
00000000
00000000
00000000
10300000
00000000
00100000
00000000
01000000
00010000
00100000
10000000
00100000
00000000
00010000
01000000
,
10000000
01000000
00100000
00000000
00010000
00000000
00100000
00000000
01000000
00000000
10000000
01000000
00100000
01000000
00010000
00000000
,
10000000
01000000
00100000
00010000
01000000
00000000
00100000
00000000
00010000
00000000
00000010
00000000
00001000
00000100
00000010
00000000
,
00000001
00000100
00000010
00000000
00001000
00000010
00000001
00000000
00000010
00001000
00000100
00000010
00000001
00000000
00000100
00001000
,
00010000
01000000
10000000
00000000
00100000
10000000
01000000
00000000
00100000
00000000
00010000
00100000
01000000
00100000
00010000
00000000
,
01000000
00001000
00010000
00001000
01000000
00000000
00100000
00000000
00010000
00000000
00100000
00000000
10000000
00100000
00010000
00100000
,
10000000
00000000
00010000
01000000
10000000
00000000
01000000
00000000
00100000
00000000
00010000
00000000
00001000
00010000
00001000
00010000
,
00011000
00000000
00001000
00000100
00000001
00000100
00000010
00000000
00001000
00000100
00000010
00000001
00000100
00000000
00000010
00000100
,
00000010
00000100
00001001
00010000
00001000
01000000
00010000
00100000
,
01000000
10000000
00100000
00000000
01000000
00000000
00010000
00100000
01000000
00000000
10000000
00000000
00100000
00000000
01000000
00000000
,
00100000
01000000
00010000
00000000
00100000
00000000
00001000
00000000
00010000
00001000
00000100
00000000
00000001
00000100
00000010
00000000
,
00001000
00000100
00000001
00000000
00000001
00000100
00001000
00000000
00001000
00000100
00000001
00000000
00000001
00000100
00001000
00000000
,
00000100
00001000
00000010
00000001
00000010
00000000
00000100
00000000
00000001
00000000
00001000
00000010
00000001
00000010
00000100
00000000
,
00000001
00000010
00000100
00000000
00000100
00001000
00010000
00100000
01000000
00000000
00100000
00010000
01000000
00100000
10000000
00000000
,
00100000
10000000
00010000
00100000
10000000
00100000
00010000
00000000
01000000
00010000
00100000
00000000
00001000
00100000
00010000
00000000
,
00100000
00010000
10000000
00100000
00001000
00000000
00100000
10000000
00010000
00100000
00001000
00100000
01000000
00010000
00001000
00000100
,
00000010
00000000
00000000
00000000
00000001
00000010
00000001
00000100
,
00001000
00010000
00100000
10000000
00010000
10000000
01000000
00010000
,
00001000
00000010
00000001
00001000
00000001
00000100
00001000
00010000
,
00100000
10000000
00010000
10000000
01000000
00010000
00001000
00000010
,
00000001
00001000
00000001
00000100
00000220
00000000
00000000
00000000
,
00000000
00000000
00000000
00000000
,
00000000
00000000
00000000
00000000
,
00000000
00000000
00000000
00000000
,
00000000
00000000
00000000
00000000
,
00000330
00000000
00000000
00000000
,
00000000
00000000
00000000
00000000
;

//---------------dance-single - Edit----------------
#NOTEDATA:;
#CHARTNAME:;
#STEPSTYPE:dance-single;
#DESCRIPTION:Edit;
#CHARTSTYLE:;
#DIFFICULTY:Edit;
#METER:19;
#RADARVALUES:1.191527,1.450084,0.728632,0.788637,1.388687,973.000000,888.000000,85.000000,92.000000,0.000000,0.000000,0.000000,0.000000,0.000000,1.191527,1.450084,0.728632,0.788637,1.388687,973.000000,888.000000,85.000000,92.000000,0.000000,0.000000,0.000000,0.000000,0.000000;
#CREDIT:;
#DISPLAYBPM:47.000000:744.000000;
#NOTES:
// measure 0
0000
0000
0000
0000
,  // measure 1
1000
0010
0001
0100
1000
0000
1100
0000
1000
0100
0010
0001
0100
0000
1100
0000
,  // measure 2
0101
0000
0001
0100
1000
0100
0010
0000
0011
0000
0010
1000
0001
0100
0010
0000
,  // measure 3
1000
0010
0001
0100
0010
0000
0110
0000
0100
0001
1000
0100
0010
0000
0110
0000
,  // measure 4
0011
0000
0001
0010
0100
1000
0010
0000
1010
0000
1000
0010
0200
0000
0300
0000
,  // measure 5
0001
0010
0100
1000
0001
0000
0101
0000
1001
0100
0010
0001
1000
0000
1100
0000
,  // measure 6
0001
0100
0010
1000
0100
0000
1100
0000
0100
0010
1000
0001
0010
0000
0110
0000
,  // measure 7
0001
0100
0010
1000
0001
0000
0011
0000
0100
0010
1000
0001
0100
0000
1100
0000
,  // measure 8
1000
1100
0100
0101
0001
1000
1001
0000
,  // measure 9
0001
0010
0001
0010
0100
1000
0100
1000
0001
0010
0100
1000
0010
0000
0000
0000
,  // measure 10
1000
0010
1000
0010
0100
0001
0100
0001
1000
0100
0010
0001
0010
0000
0000
0000
,  // measure 11
0100
0010
0100
0010
1000
0001
1000
0001
0010
0100
0010
0100
0010
0000
0000
0000
,  // measure 12
1000
0100
1000
0100
0010
0001
0010
0001
1000
0100
0010
0001
0010
0000
0000
0000
,  // measure 13
1000
0100
0010
0001
0010
0100
1000
0001
,  // measure 14
1000
0010
0100
0001
0010
0100
0010
1000
,  // measure 15
0100
0010
0001
0010
0100
1000
0010
0100
,  // measure 16
0001
0010
0100
0010
1000
0100
0010
0001
,  // measure 17
1000
0010
0001
0100
1000
0010
0100
0001
,  // measure 18
0010
1000
0100
0001
0100
1000
0010
0001
,  // measure 19
0010
0100
1000
0010
0100
0001
0010
1000
,  // measure 20
0100
0010
0001
0010
0100
1000
0001
0020
,  // measure 21
0200
0000
0000
0000
,  // measure 22
0000
0000
0000
0000
,  // measure 23
0000
0000
0000
0000
,  // measure 24
0330
0000
0001
0010
0100
1000
0001
0010
0100
1000
0010
0100
0001
1000
0100
0010
,  // measure 25
0001
0100
0010
1000
0001
0010
0100
1000
0100
0000
1100
0000
1000
0000
1010
0000
,  // measure 26
1000
0010
0100
0001
1000
0100
0010
0001
0010
0100
1000
0001
0100
0010
1000
0001
,  // measure 27
0010
0100
1000
0001
0100
0010
1000
0100
0010
0000
0011
0000
0001
0000
1001
0000
,  // measure 28
1000
0001
0010
0100
1000
0010
0100
0001
1000
0100
0010
0001
0010
0100
1000
0001
,  // measure 29
0100
0010
1000
0001
0010
0100
1000
0010
0100
0001
1000
0100
0020
0000
0000
0000
,  // measure 30
0031
0100
0010
1000
0001
0010
1000
0100
0010
0001
0100
0010
1000
0001
0010
0100
,  // measure 31
1000
1100
0100
0101
0001
1001
1000
1010
,  // measure 32
0010
0001
1000
0100
0010
0001
0100
0010
1000
0001
0010
0100
1000
0010
0100
0001
,  // measure 33
1000
0100
0010
0001
0010
0100
1000
0100
0010
0000
0011
0000
0001
0000
0101
0000
,  // measure 34
0100
0010
1000
0001
0010
0001
0100
0010
1000
0100
0010
0001
0100
0010
1000
0001
,  // measure 35
0010
0100
0010
1000
0100
0010
0001
1000
0010
0000
0110
0000
0100
0000
1100
0000
,  // measure 36
1000
0000
0000
0010
0000
0000
0100
0000
0000
0001
0000
0000
1000
0000
0000
0100
0000
0000
0010
0000
0000
0001
0000
0000
1000
0000
0100
0000
0010
0000
0001
0000
0000
0010
0000
0000
0100
0000
0000
0000
0000
0000
0110
0000
0000
0000
0000
0000
,  // measure 37
0010
0000
0000
0001
0000
0000
1000
0000
0000
0010
0000
0000
0100
0000
0000
0001
0000
0000
1000
0000
0000
0100
0000
0000
0010
0000
0001
0000
0100
0000
0010
0000
0000
0100
0000
0000
2000
0000
0000
0000
0000
0000
0000
0000
0000
0000
0000
0000
,  // measure 38
3100
0000
0000
1000
0000
0000
0010
0000
0000
0100
0000
0000
0001
0000
0000
0010
0000
0000
0100
0000
0000
1000
0000
0000
0001
0000
0010
0000
0100
0000
1000
0000
0000
0100
0000
0000
0010
0000
0000
0000
0000
0000
0011
0000
0000
0000
0000
0000
,  // measure 39
0100
0001
1000
0100
0010
0100
0001
1000
0100
0010
0100
0001
1000
0010
0100
0010
,  // measure 40
0002
0000
0013
0100
0101
0000
1000
0100
0000
0100
1000
0020
0200
0330
0110
0000
,  // measure 41
0101
0000
0000
1001
0000
0000
1010
0000
0100
0000
0000
0000
0001
0000
0010
0000
0100
0000
1000
0000
0010
0000
0100
0000
0001
0000
1000
0000
0100
0000
0000
0000
,  // measure 42
1200
0000
0301
0010
0100
2000
0000
0000
0000
3100
0010
0001
1000
0000
1001
0000
,  // measure 43
1010
0000
0000
0011
0000
0000
0101
0000
0001
0000
0000
0000
0010
0000
0001
0000
0100
0010
1000
0100
0010
0001
0010
0100
1000
0010
0100
0001
1000
0100
0010
0001
,  // measure 44
0010
0100
1000
0000
1100
0000
1000
0100
0010
0000
0002
0000
0023
0000
0032
0000
,  // measure 45
0203
0302
2003
3002
0003
1001
1001
1100
,  // measure 46
1000
0010
0100
0000
0101
0000
0100
0001
0010
0000
0020
0000
0032
0000
0203
0000
,  // measure 47
0320
2030
3200
2300
3000
1010
1010
0101
,  // measure 48
0001
0100
0010
0000
1010
0000
1000
0010
0100
0000
0020
0000
0032
0000
2003
0000
,  // measure 49
3200
0320
0032
2003
3000
0110
0110
0101
,  // measure 50
0001
0010
0100
0000
1100
0000
1000
0010
0100
0000
0020
0000
0032
0000
0203
0000
,  // measure 51
0320
0000
2030
0000
3200
0000
0302
0000
1003
0100
1000
0100
0010
0001
0010
0001
,  // measure 52
0220
0330
2200
3300
0202
0303
0022
0033
0220
0330
2200
3300
2020
3030
0022
0033
,  // measure 53
0202
0303
2200
3300
2020
3030
0220
0330
0202
0303
2200
3300
0202
0303
0022
0033
,  // measure 54
2020
3030
2002
3003
2200
3300
0202
0303
2020
3030
0202
0303
2200
3300
0022
0033
,  // measure 55
0200
0020
0000
0000
,  // measure 56
0000
0000
0000
0000
,  // measure 57
0000
0000
0000
0000
,  // measure 58
0000
0000
0000
0000
0000
0330
0000
0000
,  // measure 59
1000
0100
0010
0001
,  // measure 60
1000
0100
0010
0001
,  // measure 61
1000
0000
0000
0000
0100
0010
1000
0001
0010
0001
0100
0010
1000
0100
0010
0001
,  // measure 62
1000
0010
0100
0001
1000
0100
0010
0100
1000
0010
0100
0001
1000
0100
0010
0001
,  // measure 63
0010
0000
0001
0000
0010
0000
0100
0000
0000
1000
0000
0000
0010
0000
0000
0001
0000
0000
0100
0000
0000
0010
0000
0000
1000
0000
0000
0100
0000
0000
0010
0000
0000
0001
0000
0000
0010
0000
0000
0100
0000
0000
1000
0000
0000
0001
0000
0000
,  // measure 64
0010
0000
0000
0100
0000
0000
1000
0000
0000
0010
0000
0000
0100
0000
1000
0000
0100
0000
1000
0000
0000
0100
0000
0000
0010
0000
0001
0000
0010
0000
0001
0000
0000
0010
0000
0000
1000
0000
0100
0000
0010
0000
0001
0000
0000
0100
0000
0000
,  // measure 65
0001
0000
0010
0000
0100
0000
1000
0000
0100
0000
0010
0000
0001
0000
0000
0010
0000
0000
0001
0000
0000
0010
0000
0000
0100
0000
0000
1000
0000
0000
0100
0000
0000
1000
0000
0000
0001
0000
0000
0010
0000
0000
0100
0000
0000
1000
0000
0000
,  // measure 66
0100
0000
0000
0010
0000
0000
0001
0000
0010
0000
0100
0000
1000
0000
0000
0100
0000
0000
0010
0000
0000
0001
0000
0000
0100
0000
0000
0010
0000
0000
1000
0000
0000
0001
0000
0000
0010
0000
0000
0100
0000
0000
1000
0000
0000
0100
0000
0000
,  // measure 67
0010
0000
0001
0000
0000
0000
0100
0000
0010
0000
0000
0000
1000
0000
0000
0100
0000
0000
0010
0000
0000
0001
0000
0000
0010
0000
0000
0100
0000
0000
1000
0000
0000
0001
0000
0000
0100
0000
0000
0010
0000
0000
1000
0000
0000
0001
0000
0000
,  // measure 68
0010
0000
0000
0001
0000
0000
0100
0000
0010
0000
0001
0000
1000
0000
0000
0100
0000
0000
0010
0000
0000
0001
0000
0000
0100
0000
0000
0010
0000
0000
1000
0000
0100
0000
0010
0000
0001
0000
0000
0100
0000
0000
1000
0000
0000
0100
0000
0000
,  // measure 69
0010
0000
0001
0000
0100
0000
0010
0002
1003
0000
0000
0000
0001
0000
0010
0000
0100
0000
1000
0000
0010
0000
0100
0000
0001
0000
1000
0000
0100
0000
0010
0000
,  // measure 70
0001
0000
0000
0100
0000
0000
0010
0000
0000
1000
0000
0000
0001
0000
0000
0010
0000
0000
1000
0000
0000
0100
0000
0000
0010
0000
0000
0001
0000
0000
0100
0000
0000
0010
0000
0000
1000
0000
0100
0000
0010
0000
0001
0000
0000
0010
0000
0000
,  // measure 71
0100
0000
0000
0010
0000
0000
1000
0000
0000
0001
0000
0000
0010
0000
0000
0100
0000
0000
0001
0000
0000
0100
0000
0000
0010
0000
0000
1000
0000
0000
0001
0000
0000
0010
0000
0000
0100
0000
1000
0000
0000
0000
0100
0000
0010
0000
0000
0000
,  // measure 72
0100
0100
0100
0100
0100
0100
0100
0100
0100
0100
0100
0100
0100
0000
0110
0000
,  // measure 73
1010
0000
0000
0010
0000
0000
1000
0000
0000
0001
0000
0000
0100
0000
0000
0001
0000
0000
0010
0000
0000
0001
0000
0000
0011
0000
0000
0001
0000
0000
0100
0000
0000
0010
0000
0000
1000
0000
0000
0001
0000
0000
0010
0000
0100
0000
1000
0000
,  // measure 74
0001
0010
0100
1000
0001
0100
0010
1000
0001
0010
0100
1000
1010
0000
0110
0000
,  // measure 75
0100
0001
1000
0100
0010
0001
0100
0010
1000
0001
0010
0100
1000
0010
0100
0001
,  // measure 76
1000
0100
0001
0100
1000
0010
0001
0010
1000
0010
0001
0100
0010
1000
0100
0010
,  // measure 77
0002
0000
0000
0000
0000
0000
0010
0013
0100
0000
0001
0000
0100
0000
1000
0000
,  // measure 78
0100
0001
0100
1000
0100
0001
0010
1000
,  // measure 79
0010
0001
0010
1000
0010
0001
1000
0010
,  // measure 80
0001
0100
1000
0100
0001
0010
1000
0100
,  // measure 81
0001
0010
0100
1000
2002
0000
0000
0000
,  // measure 82
0000
0000
0000
0000
,  // measure 83
0000
0000
0000
0000
,  // measure 84
0000
0000
0000
0000
,  // measure 85
0000
0000
0000
0000
,  // measure 86
0000
0000
0000
3003
;
