#VERSION:0.83;
#TITLE:VOL.4;
#SUBTITLE:;
#ARTIST:RAVERS CHOICE;
#TITLETRANSLIT:;
#SUBTITLETRANSLIT:;
#ARTISTTRANSLIT:;
#GENRE:;
#ORIGIN:;
#CREDIT:;
#BANNER:VOL.4.png;
#BACKGROUND:VOL.4-bg.png;
#PREVIEWVID:;
#JACKET:VOL.4-jacket.png;
#CDIMAGE:;
#DISCIMAGE:;
#LYRICSPATH:;
#CDTITLE:;
#MUSIC:VOL.4.ogg;
#OFFSET:0.000000;
#SAMPLESTART:53.841000;
#SAMPLELENGTH:15.000000;
#SELECTABLE:YES;
#DISPLAYBPM:165.000000;
#BPMS:0.000=165.000,
4.000=165.100,
16.000=164.800,
20.000=164.940,
114.000=162.800,
116.000=165.010,
132.000=164.800,
146.000=166.030,
148.000=164.700,
162.000=166.000,
164.000=164.000,
166.000=165.200,
172.000=164.700,
180.000=167.000,
188.000=166.000,
204.000=169.000,
205.000=166.000,
208.000=165.690;
#STOPS:;
#DELAYS:;
#WARPS:;
#TIMESIGNATURES:0.000=4=4;
#TICKCOUNTS:0.000=4;
#COMBOS:0.000=1;
#SPEEDS:0.000=1.000=0.000=0;
#SCROLLS:0.000=1.000;
#FAKES:;
#LABELS:0.000=Song Start;
#BGCHANGES:;
#KEYSOUNDS:;
#ATTACKS:
;

//---------------dance-single - ----------------
#NOTEDATA:;
#CHARTNAME:;
#STEPSTYPE:dance-single;
#DESCRIPTION:;
#CHARTSTYLE:;
#DIFFICULTY:Beginner;
#METER:3;
#RADARVALUES:0.209025,0.265123,0.287633,0.000000,0.000000,117.000000,94.000000,23.000000,0.000000,0.000000,0.000000,0.000000,0.000000,0.000000,0.209025,0.265123,0.287633,0.000000,0.000000,117.000000,94.000000,23.000000,0.000000,0.000000,0.000000,0.000000,0.000000,0.000000;
#CREDIT:;
#DISPLAYBPM:165.000000;
#NOTES:
0000
0000
0000
0000
,
0000
0000
0000
0000
,
0000
0000
0000
0000
,
0000
0000
0000
0000
,
0000
0000
0000
0000
,
1001
0000
0000
0000
,
1001
0000
0000
0000
,
1001
0000
0110
0000
,
1001
0000
0000
0000
,
1000
0000
1000
0000
,
0001
0000
0001
0000
,
0010
0000
0110
0000
,
0010
0000
1001
0000
,
1000
0000
1000
0000
,
0001
0000
0001
0000
,
1001
0000
1001
0000
,
0010
0000
1001
0000
,
0001
0000
0001
0000
,
1000
0000
1000
0000
,
1000
0000
0001
0000
,
0010
0000
1001
0000
,
0010
0000
0010
0000
,
0100
0000
0100
0000
,
1000
0000
0001
0000
,
0010
0000
1001
0000
,
0010
0000
0010
0000
,
1000
0000
0001
0000
,
1000
0000
0001
0000
,
0001
0000
1001
0000
,
1000
0000
1000
0000
,
0001
0000
0001
0000
,
1000
0000
0001
0000
,
0010
0000
0010
0000
,
1000
0000
0001
0000
,
0001
0000
1000
0000
,
1000
0000
1000
0000
,
0001
0000
1001
0000
,
1000
0000
1000
0000
,
0001
0000
0001
0000
,
1000
0000
1001
0000
,
0001
0000
1001
0000
,
0001
0000
0001
0000
,
1000
0000
0001
0000
,
0001
0000
1001
0000
,
1001
0000
1001
0000
,
1000
0000
0001
0000
,
1001
0000
1001
0000
,
0001
0000
1000
0000
,
1000
0000
0001
0000
,
0001
0000
1000
0000
,
0010
0000
0010
0000
,
0010
0000
1000
0000
,
0001
0000
1001
0000
,
1001
0000
0000
0000
;

//---------------dance-single - ----------------
#NOTEDATA:;
#CHARTNAME:;
#STEPSTYPE:dance-single;
#DESCRIPTION:;
#CHARTSTYLE:;
#DIFFICULTY:Easy;
#METER:6;
#RADARVALUES:0.314431,0.397684,0.337656,0.000000,0.000000,176.000000,149.000000,27.000000,0.000000,0.000000,0.000000,0.000000,0.000000,0.000000,0.314431,0.397684,0.337656,0.000000,0.000000,176.000000,149.000000,27.000000,0.000000,0.000000,0.000000,0.000000,0.000000,0.000000;
#CREDIT:;
#DISPLAYBPM:165.000000;
#NOTES:
0000
0000
0000
0000
,
0000
0000
0000
0000
,
0000
0000
0000
0000
,
0000
0000
0000
0000
,
0000
0000
0000
0000
,
1001
0000
0000
0000
,
1001
0000
0000
0000
,
1001
0000
0110
0000
,
1001
0000
0000
0000
,
1000
1000
1000
1000
,
0001
0001
0001
0001
,
0010
0000
0110
0000
,
0010
0100
1001
0000
,
1000
0000
1000
0000
,
0001
0000
0001
0000
,
1001
0100
1001
0100
,
0010
0100
1001
0000
,
0001
0000
0001
0000
,
1000
0000
1000
0000
,
1000
1000
0000
0000
0001
0001
0000
0000
,
0010
0100
1001
0000
,
0010
0000
0010
0000
,
0100
0000
0100
0000
,
1000
1000
0000
0000
0001
0001
0000
0000
,
0010
0100
1001
0000
,
0010
0100
0010
0110
,
1000
0100
0001
0100
,
1000
1000
0000
0000
0001
0001
0000
0000
,
0001
0100
1000
0000
1001
0000
0000
0000
,
1000
1000
1000
1000
,
0001
0001
0001
0001
,
1000
0000
0001
0000
,
0010
0100
0010
0110
,
1000
0100
0001
0100
,
0001
1000
1000
0001
,
1000
0000
1000
0000
,
0001
0100
1000
0000
1001
0000
0000
0000
,
1000
0000
1000
0000
,
0001
0000
0001
0000
,
1000
0100
1001
0100
,
0001
0100
1001
0100
,
0001
0000
0001
0000
,
1000
0100
0001
0100
,
0001
1000
1001
0000
,
1001
0100
1001
0100
,
1000
0000
0001
0000
,
1001
0100
1001
0110
,
0001
0100
1000
0100
,
1000
0100
0001
0100
,
0001
0000
1000
0000
,
0010
0100
0010
1001
,
0010
0100
1000
0001
,
0001
0100
1000
0000
1001
0000
0000
0000
,
1001
0000
0000
0000
;

//---------------dance-single - ----------------
#NOTEDATA:;
#CHARTNAME:;
#STEPSTYPE:dance-single;
#DESCRIPTION:;
#CHARTSTYLE:;
#DIFFICULTY:Medium;
#METER:9;
#RADARVALUES:0.457354,0.535248,0.675312,0.000000,0.000000,256.000000,202.000000,54.000000,0.000000,0.000000,0.000000,0.000000,0.000000,0.000000,0.457354,0.535248,0.675312,0.000000,0.000000,256.000000,202.000000,54.000000,0.000000,0.000000,0.000000,0.000000,0.000000,0.000000;
#CREDIT:;
#DISPLAYBPM:165.000000;
#NOTES:
0000
0000
0000
0000
,
0000
0000
0000
0000
,
0000
0000
0000
0000
,
0000
0000
0000
0000
,
0000
0000
0000
0000
,
1001
0000
0000
0000
,
1001
0000
0000
0000
,
0110
0000
1001
0000
,
0110
0000
0000
0000
,
1001
0100
0100
0100
,
1001
0100
0100
0100
,
1001
0100
1001
0100
,
1000
0100
0001
0010
1000
0000
0000
0000
,
1000
0100
0010
0101
,
0010
0100
0010
1100
,
1000
1000
1000
0000
0001
0001
0001
0000
,
0001
0100
0001
1000
0100
0000
0000
0000
,
0001
0100
0010
1100
,
0001
0100
0010
0101
,
1000
1000
1000
0000
0001
0001
0001
0000
,
0010
0100
0010
1000
0001
0000
0000
0000
,
0010
0101
0010
1100
,
1000
0100
0001
0110
,
1000
1000
1000
0000
0001
0001
0001
0000
,
0010
1000
0100
0001
1000
0000
0000
0000
,
0010
0101
0010
1100
,
1000
0100
0001
0110
,
1000
1000
1000
0000
0001
0001
0001
0000
,
1000
0100
0001
0010
0001
0000
0000
0000
,
1000
1000
1000
1000
,
0001
0001
0001
0001
,
1000
0000
0001
0000
,
0010
0100
0010
0110
,
1000
0100
0001
0100
,
0001
1100
0010
0101
,
1001
0100
0110
0100
,
1001
0100
1000
0100
,
1001
0100
1010
0100
,
1001
0000
0100
0000
0010
0010
0100
0000
,
1010
1100
1001
0100
,
0011
0000
0101
0000
0001
0001
0100
0000
,
1010
0100
0011
0100
,
0011
0000
0100
0000
0010
0010
0100
0000
,
0001
1100
0010
0101
,
1001
0000
0100
0000
1000
1000
0100
0000
,
1001
0100
1001
0110
,
1001
0000
0100
0000
0010
0010
0100
0000
,
1001
0100
0011
0100
,
1010
0000
1100
0000
0001
0001
0100
0000
,
0011
0101
1001
0100
,
1010
0000
0100
0000
0010
0010
0100
0000
,
0011
0100
1010
0100
,
0001
0100
1000
0100
0001
0000
0000
0000
,
1001
0000
1000
0000
;

//---------------dance-single - ----------------
#NOTEDATA:;
#CHARTNAME:;
#STEPSTYPE:dance-single;
#DESCRIPTION:;
#CHARTSTYLE:;
#DIFFICULTY:Hard;
#METER:12;
#RADARVALUES:0.475220,0.497105,0.087540,0.000000,0.187587,266.000000,259.000000,7.000000,0.000000,0.000000,0.000000,0.000000,0.000000,0.000000,0.475220,0.497105,0.087540,0.000000,0.187587,266.000000,259.000000,7.000000,0.000000,0.000000,0.000000,0.000000,0.000000,0.000000;
#CREDIT:;
#DISPLAYBPM:165.000000;
#NOTES:
0000
0000
0000
0000
,
0000
0000
0000
0000
,
0000
0000
0000
0000
,
0000
0000
0000
0000
,
0000
0000
0000
0000
,
1000
0000
0001
0000
1000
0001
0000
1000
0000
0000
0000
0000
0000
0000
0000
0000
,
0010
0000
0100
0000
1000
0001
0000
1000
0000
0000
0000
0000
0000
0000
0000
0000
,
1000
0001
1000
0000
0001
1000
0001
0000
,
0001
0000
1000
0000
0001
0000
1000
0100
0000
0000
0000
0000
0000
0000
0000
0000
,
0001
0000
1000
0000
0001
1000
0000
0001
0000
0000
0000
0000
0000
0000
0000
0000
,
0010
0000
0100
0000
0001
1000
0000
0001
0000
0000
0000
0000
0000
0000
0000
0000
,
1000
0001
1000
0000
0001
1000
0001
0000
,
0001
0000
1000
0000
0001
0000
1000
0100
0000
0000
0000
0000
0000
0000
0000
0000
,
1000
0000
0001
0000
1000
0001
0000
1000
0000
0000
0000
0000
0000
0000
0000
0000
,
0010
0000
0100
0000
1000
0001
0000
1000
0000
0000
0000
0000
0000
0000
0000
0000
,
1000
0001
1000
0001
1000
0001
1000
0000
,
1000
0000
0001
0000
1000
0000
0001
0100
0000
0000
0000
0000
0000
0000
0000
0000
,
1000
0000
0001
0000
1000
0001
0000
1000
0000
0000
0000
0000
0000
0000
0000
0000
,
0010
0000
0100
0000
0001
1000
0000
0001
0000
0000
0000
0000
0000
0000
0000
0000
,
1000
1000
1000
0000
0001
0001
0001
0000
,
1000
0000
1000
0000
1000
0000
1000
0100
0000
0000
0000
0000
0000
0000
0000
0000
,
1000
0000
0001
0000
1000
0001
0000
1000
0000
0000
0000
0000
0000
0000
0000
0000
,
0010
0000
0100
0000
1000
0001
0000
1000
0000
0000
0000
0000
0000
0000
0000
0000
,
1000
0001
1000
0001
1000
1000
1000
1000
,
0001
0000
0001
0000
0001
0000
0001
0100
0000
0000
0000
0000
0000
0000
0000
0000
,
1000
0000
0001
0000
1000
0001
0000
1000
0000
0000
0000
0000
0000
0000
0000
0000
,
0010
0000
0100
0000
1000
0001
0000
1000
0000
0000
0000
0000
0000
0000
0000
0000
,
1000
1000
1000
1000
0001
0001
0001
0001
,
1000
0000
1000
0000
1000
0000
1000
0100
0000
0000
0000
0000
0000
0000
0000
0000
,
0010
0010
0100
0100
,
0010
0010
0100
0100
,
1000
0100
0001
0100
,
0010
0001
0010
0000
0100
1000
0100
0000
,
0001
0000
1000
0000
0001
1000
0001
0000
,
1000
0010
1000
0010
1000
0100
1000
0000
,
1000
0000
0100
0000
0001
0100
1000
0000
,
0001
0010
0001
0000
1001
0000
0000
0000
,
1000
0000
0010
0000
1000
0010
0101
0000
,
0100
0000
1000
0000
0100
1000
0011
0000
,
0001
0000
0100
0000
0001
0100
1010
0000
,
0010
0000
0001
0000
0010
0001
1100
0000
,
1000
0000
0100
0000
0001
0100
1000
0000
,
0001
0000
0100
0000
1000
0100
0001
0001
,
1000
0000
0001
0000
1000
0001
1000
0000
,
1000
0000
0001
0000
1000
0001
1000
1000
,
0010
0010
0100
0000
0001
1000
0001
0000
,
1000
0100
0001
0100
0001
0100
1000
0000
,
0001
0010
1000
0010
1000
0010
0001
0000
,
0001
0000
0100
0000
1000
0100
0001
0000
,
1000
0000
0100
0000
0001
0100
1000
0000
,
0001
0000
1000
0000
0001
1000
0001
0000
,
0010
0010
0100
0000
1000
0001
1000
0000
,
0001
0001
1001
1000
0001
0000
0000
0000
,
0110
0000
0000
0000
;

//---------------dance-single - ----------------
#NOTEDATA:;
#CHARTNAME:;
#STEPSTYPE:dance-single;
#DESCRIPTION:;
#CHARTSTYLE:;
#DIFFICULTY:Challenge;
#METER:12;
#RADARVALUES:0.537749,0.596526,0.300139,0.000000,0.275127,301.000000,277.000000,24.000000,0.000000,0.000000,0.000000,0.000000,0.000000,0.000000,0.537749,0.596526,0.300139,0.000000,0.275127,301.000000,277.000000,24.000000,0.000000,0.000000,0.000000,0.000000,0.000000,0.000000;
#CREDIT:;
#DISPLAYBPM:165.000000;
#NOTES:
0000
0000
0000
0000
,
0000
0000
0000
0000
,
0000
0000
0000
0000
,
0000
0000
0000
0000
,
0000
0000
0000
0000
,
1001
0000
0000
0000
1000
0001
0000
0001
1000
0000
0000
0000
0000
0000
0000
0000
,
1100
0000
0000
0000
1000
0100
0000
0100
1000
0000
0000
0000
0000
0000
0000
0000
,
0010
1000
0001
0000
0100
0001
1000
0000
,
0100
0001
0100
1000
0001
0000
0000
0000
,
1001
0000
0000
0000
0001
1000
0000
1000
0001
0000
0000
0000
0000
0000
0000
0000
,
0101
0000
0000
0000
0001
0100
0000
0100
0001
0000
0000
0000
0000
0000
0000
0000
,
0010
0001
1000
0000
0100
1000
0001
0000
,
0100
1000
0100
0001
1000
0000
0000
0000
,
1001
0000
0000
0000
1000
0010
0000
0010
0100
0000
0000
0000
0101
0000
0000
0000
,
1001
0000
0000
0000
0001
0010
0000
0010
0100
0000
0000
0000
1100
0000
0000
0000
,
0001
0100
1000
0000
0001
0010
1000
0000
,
0001
1000
0010
0001
0010
0000
0110
0000
,
1001
0000
0000
0000
0001
0010
0000
0010
0100
0000
0000
0000
1100
0000
0000
0000
,
1001
0000
0000
0000
1000
0010
0000
0010
0100
0000
0000
0000
0101
0000
0000
0000
,
1000
0100
0001
0000
1000
0010
0001
0000
,
1000
0001
0010
1000
0010
0000
0110
0000
,
0010
0000
0000
0000
0100
0001
0000
1000
0100
0000
0000
0000
1001
0000
0000
0000
,
0010
0000
0000
0000
0100
1000
0000
0001
0100
0000
0000
0000
1001
0000
0000
0000
,
0001
0100
0100
0000
1000
0001
0100
0000
,
0010
1000
0010
1000
0100
0000
0110
0000
,
0010
0000
0000
0000
0100
1000
0000
0001
0100
0000
0000
0000
1001
0000
0000
0000
,
0010
0000
0000
0000
0100
0001
0000
1000
0100
0000
0000
0000
1001
0000
0000
0000
,
1000
0100
0100
0000
0001
1000
0100
0000
,
0010
0001
0010
0001
0100
0000
0110
0000
,
0010
0000
0000
0000
0010
0000
0000
0000
0001
0100
0000
1000
0100
0000
0000
0000
,
0001
0100
1000
0000
0010
0001
0001
0000
,
0010
0000
0000
0000
0010
0000
0000
0000
0010
1000
0000
0001
0010
0000
0000
0000
,
0100
0100
0100
0100
,
1000
0000
0000
0000
1000
0000
0000
0000
1000
0010
0000
0010
0100
0000
0000
0000
,
0001
0010
1000
0000
0010
0001
0001
0000
,
0010
0100
0010
0000
1000
0100
0100
0000
,
0001
0100
0100
0000
1001
0000
0000
0000
,
0010
0000
0000
0000
0100
0000
0000
0000
0001
0010
0000
0001
1000
0000
0000
0000
,
0001
0100
0100
0000
0010
1000
0100
0000
,
0010
0000
0000
0000
0100
0000
0000
0000
1000
0010
0000
1000
0001
0000
0000
0000
,
0100
0100
0100
0100
,
1000
0000
0000
0000
0100
0000
0000
0000
0001
0100
0000
0100
0001
0000
0000
0000
,
1000
0100
0001
0000
1000
0100
0001
0000
,
0001
0000
0000
0000
0100
0000
0000
0000
1000
0100
0000
0100
1000
0000
0000
0000
,
1000
0100
0001
0000
1000
0100
0001
0000
,
1000
0000
0010
0000
0010
0000
0000
0000
0001
0010
0000
0010
0100
0000
0000
0000
,
0001
0010
0010
0000
0100
0001
0010
0000
,
0100
0000
0010
0000
0010
0000
0000
0000
0001
0100
0000
0001
0100
0000
0000
0000
,
0010
0010
0010
0010
,
0010
0000
0001
0000
0100
0000
0000
0000
0010
0001
0000
0001
0100
0000
0000
0000
,
0010
1000
0100
0000
0010
0100
0001
0000
,
0010
0100
0010
0000
0001
0100
0100
0000
,
1000
0100
0100
0000
0101
0000
1100
0000
,
1001
0000
0000
0000
;

//---------------dance-double - ----------------
#NOTEDATA:;
#CHARTNAME:;
#STEPSTYPE:dance-double;
#DESCRIPTION:;
#CHARTSTYLE:;
#DIFFICULTY:Easy;
#METER:5;
#RADARVALUES:0.316218,0.497105,0.312645,0.000000,0.000000,177.000000,152.000000,25.000000,0.000000,0.000000,0.000000,0.000000,0.000000,0.000000,0.316218,0.497105,0.312645,0.000000,0.000000,177.000000,152.000000,25.000000,0.000000,0.000000,0.000000,0.000000,0.000000,0.000000;
#CREDIT:;
#DISPLAYBPM:165.000000;
#NOTES:
00000000
00000000
00000000
00000000
,
00000000
00000000
00000000
00000000
,
00000000
00000000
00000000
00000000
,
00000000
00000000
00000000
00000000
,
00000000
00000000
00000000
00000000
,
00001001
00000000
00000000
00000000
,
00000110
00000000
00000000
00000000
,
00001001
00000000
00011000
00000000
,
10010000
00000000
00000000
00000000
,
10010000
00000000
00000000
00000000
,
01100000
00000000
00000000
00000000
,
01000000
00010000
00000100
00001000
,
01000000
00010000
00000010
00000000
,
00100000
00010000
00000100
00000000
,
00100000
00010000
00000100
00000000
,
00000010
00001000
01000000
00000000
,
00000010
00001000
01000000
00000000
,
00100000
00010000
00000100
00001000
,
00000010
00001000
01000000
00010000
,
00000100
00001000
01000000
00010000
,
00100000
00010000
00000100
00000000
,
00100000
00010000
00000100
00001000
,
00000010
00001000
01000000
00010000
,
00100000
00010000
00000100
00001000
,
00000010
00001000
01000000
00010000
,
00100000
00010000
00000100
00001000
,
00000010
00001000
01000000
00010000
,
00100000
00010000
00000100
00001000
,
00000010
00001000
01000000
00010000
,
00100000
00010000
00100000
00010000
,
00001000
00000100
00001000
00000100
,
00000000
00010000
00000000
00010000
,
00000000
10000000
00000000
10000000
,
00000000
00010000
00000000
00010000
,
00100000
00010000
01000000
00010000
,
00000010
00001000
00000100
00001000
,
00000000
00000000
00000000
00000000
,
00100000
00000000
01010000
00000000
,
00100000
00000000
01010000
00000000
,
00000010
00000000
00001100
00000000
,
00000010
00000000
00001100
00000000
,
00100000
01010000
00100000
01010000
,
00000010
00001100
00000010
00001100
,
00100000
00010000
00000100
00001000
,
00000010
00001000
01000000
00010000
,
00100000
00010000
01000000
00010000
,
00000010
00001000
00000100
00001000
,
00110000
01000000
00110000
01000000
,
00001010
00000100
00001010
00000100
,
00100000
00010000
00000100
00001000
,
00000010
00001000
01000000
00010000
,
00110000
01010000
00001010
00001100
,
00000100
00001000
00000010
00000000
00001001
00000000
00000000
00000000
,
00000110
00000000
00000000
00000000
;

//---------------dance-double - ----------------
#NOTEDATA:;
#CHARTNAME:;
#STEPSTYPE:dance-double;
#DESCRIPTION:;
#CHARTSTYLE:;
#DIFFICULTY:Medium;
#METER:6;
#RADARVALUES:0.389466,0.463965,0.100046,0.000000,0.000000,218.000000,210.000000,8.000000,0.000000,0.000000,0.000000,0.000000,0.000000,0.000000,0.389466,0.463965,0.100046,0.000000,0.000000,218.000000,210.000000,8.000000,0.000000,0.000000,0.000000,0.000000,0.000000,0.000000;
#CREDIT:;
#DISPLAYBPM:165.000000;
#NOTES:
00000000
00000000
00000000
00000000
,
00000000
00000000
00000000
00000000
,
00000000
00000000
00000000
00000000
,
00000000
00000000
00000000
00000000
,
00000000
00000000
00000000
00000000
,
00000001
00001000
00000001
00000000
00000100
00000000
00000000
00000000
,
00001000
00000001
00001000
00000000
00000100
00000000
00000000
00000000
,
00000011
00000000
00011000
00000000
,
11000000
00000000
00000000
00000000
,
10000000
00010000
10000000
00000000
01000000
00000000
00000000
00000000
,
00010000
10000000
00010000
00000000
01000000
00000000
00000000
00000000
,
00100000
00010000
00000100
00001000
,
01000000
00010000
00000100
00001000
01000000
00000000
00000000
00000000
,
00100000
01000000
10000000
00000000
00010000
00000000
00000000
00000000
,
00100000
01000000
00010000
00000000
00001000
00000000
00000000
00000000
,
00000010
00000000
00001000
00000000
01000000
00001000
01000000
00000000
,
00000010
00001000
01000000
00000000
00011000
00000000
00000000
00000000
,
10000000
01000000
00010000
00000000
01000000
00000000
00000000
00000000
,
00100000
01000000
00010000
00000000
00001000
00000000
00000000
00000000
,
00000010
00000000
00001000
00000000
01000000
00001000
01000000
00000000
,
00000010
00001000
01000000
00000000
00011000
00000000
00000000
00000000
,
00000010
00000100
00000001
00000000
00001000
00000000
00000000
00000000
,
00000010
00000100
00001000
00000000
00010000
00000000
00000000
00000000
,
00100000
00000000
00010000
00000000
00000100
00010000
00000100
00000000
,
00100000
00010000
00000100
00000000
00010000
00000000
00000000
00000000
,
00100000
00010000
00000100
00000000
00001000
00000000
00000000
00000000
,
00000010
00001000
01000000
00000000
00010000
00000000
00000000
00000000
,
00100000
00000000
00010000
00000000
00000100
00001000
00000100
00000000
,
00000010
00000000
00001000
01000000
00001000
00000000
00000000
00000000
,
00100000
00010000
00100000
00010000
,
00001000
00000100
00001000
00000100
,
00100000
10000000
01000000
00010000
,
00001000
00000100
00000001
00000010
,
00000001
00000010
00000100
00001000
,
00010000
01000000
10000000
00100000
,
10000000
01010000
00011000
00001100
,
00000001
00000100
00001000
00000100
,
00000010
00001000
00010000
10000000
,
00100000
10000000
01000000
00000000
10000000
01000000
00010000
00000000
,
00001000
00000100
00000001
00000100
,
00001000
00000000
00000100
00000000
00000010
00000010
00000001
00000000
,
00000100
00001000
00001000
00000000
00001000
00010000
01000000
00000000
,
00100000
10000000
01000000
00010000
,
00001000
00000000
00000100
00000000
00001000
00000001
00001000
00000000
,
00000001
00000001
00000100
00000000
00000010
00001000
00001000
00000000
,
00010000
01000000
10000000
01000000
,
00010000
00000000
01000000
00000000
00100000
00100000
10000000
00000000
,
01000000
01000000
00010000
00000000
00010000
00001000
00000100
00000000
,
00000100
00000100
00001000
00000000
00001000
00010000
01000000
00000000
,
00100000
00010000
00000100
00001000
,
00000001
00000000
00000100
00000000
00000001
00000100
00001000
00000000
,
00000001
00000001
00000100
00000000
00000010
00001000
00001000
00000000
,
00000010
00001000
01000000
00010000
00000100
00000000
00000000
00000000
,
00000100
00000000
00000000
00000000
;

//---------------dance-double - ----------------
#NOTEDATA:;
#CHARTNAME:;
#STEPSTYPE:dance-double;
#DESCRIPTION:;
#CHARTSTYLE:;
#DIFFICULTY:Hard;
#METER:8;
#RADARVALUES:0.484153,0.530245,0.262621,0.000000,0.000000,271.000000,250.000000,21.000000,0.000000,0.000000,0.000000,0.000000,0.000000,0.000000,0.484153,0.530245,0.262621,0.000000,0.000000,271.000000,250.000000,21.000000,0.000000,0.000000,0.000000,0.000000,0.000000,0.000000;
#CREDIT:;
#DISPLAYBPM:165.000000;
#NOTES:
00000000
00000000
00000000
00000000
,
00000000
00000000
00000000
00000000
,
00000000
00000000
00000000
00000000
,
00000000
00000000
00000000
00000000
,
00000000
00000000
00000000
00000000
,
10010000
00000000
00000000
00000000
,
01100000
00000000
00000000
00000000
,
11000000
00000000
00011000
00000000
,
00001001
00000000
00000000
00000000
00000000
00000000
00001000
00000010
,
00000001
00000100
00000001
00000100
00000001
00000000
00001000
00000010
,
00001000
00000100
00001000
00000010
00000100
00000000
00000000
00000000
,
00001000
00001100
00010000
00110000
,
00100000
00010000
00000100
00001000
00100000
00000000
00100000
00010000
,
01000000
00010000
01000000
00000000
01010000
00000000
00100000
10000000
,
01000000
10000000
01000000
00000000
01010000
00000000
00000000
00000000
,
00000010
00000000
00001000
00000000
01000000
00010000
01000000
00000000
,
01000000
00010000
01000000
00000000
00011000
00000000
00000010
00001000
,
00000100
00001000
00000100
00000000
00001100
00000000
00000010
00000001
,
00000100
00000001
00000100
00000000
00001100
00000000
00000000
00000000
,
00100000
00000000
00010000
00000000
00000100
00001000
00000100
00000000
,
00000100
00001000
00000100
00000000
00011000
00000000
00100000
00010000
,
01000000
00010000
01000000
00000000
01010000
00000000
00100000
10000000
,
01000000
10000000
01000000
00000000
01010000
00000000
00000000
00000000
,
00000010
00000000
00001000
00000000
01000000
00010000
01000000
00000000
,
01000000
00010000
01000000
00000000
00011000
00000000
00000010
00001000
,
00000100
00001000
00000100
00000000
00001100
00000000
00000010
00000001
,
00000100
00000001
00000100
00000000
00001100
00000000
00000000
00000000
,
00100000
00000000
00010000
00000000
00000100
00001000
00000100
00000000
,
00000100
00001000
00000100
00000000
00011000
00000000
00000000
00000000
,
10000000
00010000
10000000
00010000
,
00001000
00000001
00001000
00000001
,
00000001
00000100
00001000
00000000
00010000
01000000
10000000
00000000
,
10000000
01000000
00010000
00000000
00001000
00000100
00000001
00000000
,
00000010
00001000
00000100
00000000
00000100
00001000
00010000
00000000
,
00100000
10000000
01000000
00000000
01000000
00010000
00001000
00000000
,
00000010
00001000
00000100
00000000
00000100
00001000
00010000
00000000
,
00100000
10000000
01000000
01000000
01000000
00000000
00000000
00000000
,
10000000
01000000
00010000
00000000
00001000
00000100
00000001
00000000
,
00000001
00000100
00001000
00000000
00010000
01000000
10000000
00000000
,
00100000
00010000
01000000
00000000
01000000
00010000
00001000
00000000
,
00000010
00000001
00000100
00000000
00000100
00001000
00010000
00000000
,
00100000
00010000
01000000
00000000
01000000
00010000
00001000
00000000
,
00000001
00000100
00001000
00000000
00010000
01000000
10000000
00000000
,
10000000
01000000
00010000
00000000
00001000
00000100
00000001
00000000
,
00000010
00001000
00000100
00000000
00000100
00001000
00010000
00000000
,
00100000
10000000
01000000
00000000
01000000
00010000
00001000
00000000
,
00000010
00001000
00000100
00000000
00000100
00001000
00010000
00000000
,
10000000
01000000
00010000
00000000
00001000
00000100
00000001
00000000
,
00000001
00000100
00001000
00000000
00010000
01000000
10000000
00000000
,
00100000
00010000
01000000
00000000
01000000
00010000
00001000
00000000
,
00000010
00000001
00000100
00000000
00000100
00001000
00010000
00000000
,
00100000
00010000
01000000
00000000
01000000
00010000
00001000
00000000
,
00001000
00000010
00000100
00000000
00001001
00000000
00000000
00000000
,
00000110
00000000
00000000
00000000
;

//---------------dance-double - ----------------
#NOTEDATA:;
#CHARTNAME:;
#STEPSTYPE:dance-double;
#DESCRIPTION:;
#CHARTSTYLE:;
#DIFFICULTY:Challenge;
#METER:8;
#RADARVALUES:0.550255,0.530245,0.200093,0.000000,0.250116,308.000000,292.000000,16.000000,0.000000,0.000000,0.000000,0.000000,0.000000,0.000000,0.550255,0.530245,0.200093,0.000000,0.250116,308.000000,292.000000,16.000000,0.000000,0.000000,0.000000,0.000000,0.000000,0.000000;
#CREDIT:;
#DISPLAYBPM:165.000000;
#NOTES:
00000000
00000000
00000000
00000000
,
00000000
00000000
00000000
00000000
,
00000000
00000000
00000000
00000000
,
00000000
00000000
00000000
00000000
,
00000000
00000000
00000000
00000000
,
00000010
00000000
00000000
00000000
00001000
00000100
00000000
00000100
00001000
00000000
00000000
00000000
00000001
00000000
00000000
00000000
,
00000010
00000000
00000000
00000000
00000001
00000100
00000000
00000100
00000001
00000000
00000000
00000000
00001000
00000000
00000000
00000000
,
00000001
00000100
00001000
00000000
00000001
00000100
00001000
00000000
,
00000001
00000100
00001000
00010000
01000000
00000000
01100000
00000000
,
00100000
00000000
00000000
00000000
00010000
01000000
00000000
01000000
00010000
00000000
00000000
00000000
10000000
00000000
00000000
00000000
,
00100000
00000000
00000000
00000000
10000000
01000000
00000000
01000000
10000000
00000000
00000000
00000000
00010000
00000000
00000000
00000000
,
10000000
01000000
00010000
00000000
10000000
01000000
00010000
00000000
,
10000000
01000000
00010000
00001000
00000100
00000000
00000110
00000000
,
00000001
00000000
00000000
00000000
00001000
00000100
00000000
00000001
00000100
00000000
00000000
00000000
00001000
00000000
00000000
00000000
,
00000010
00001000
00000100
00000010
00001000
00010000
00001000
00000000
,
00000100
00001000
00010000
00000000
00000010
00001000
00010000
00000000
,
00000010
00010000
01000000
00100000
00001000
00000100
00001000
00000000
,
00010000
00000000
00000000
00000000
01000000
00010000
00000000
00001000
00000100
00000000
00000000
00000000
00001000
00000000
00000000
00000000
,
00010000
00001000
00000100
00000010
00001000
00000100
00000010
00000000
,
00001000
00010000
01000000
00000000
00010000
01000000
10000000
00000000
,
00010000
00001000
00010000
01000000
00010000
01000000
10000000
00000000
,
00100000
00000000
00000000
00000000
01000000
10000000
00000000
10000000
00010000
00000000
00000000
00000000
01000000
00000000
00000000
00000000
,
00100000
00010000
00001000
00010000
01000000
10000000
01000000
00000000
,
00100000
00010000
01000000
00000000
00100000
10000000
00100000
00000000
,
00010000
00001000
00000100
00001000
00000100
00000010
00001000
00000000
,
00000001
00000000
00000000
00000000
00001000
00000010
00000000
00001000
00000100
00000000
00000000
00000000
00000001
00000000
00000000
00000000
,
00000010
00010000
00001000
00000100
00000010
00001000
00000100
00000000
,
00000010
00000001
00000010
00000000
00000010
00001000
00010000
00000000
,
00000010
00001000
00010000
00001000
00010000
01000000
00010000
00000000
,
01000000
00000000
00000000
00000000
10000000
00000000
00000000
00000000
00100000
10000000
00000000
10000000
01000000
00000000
00000000
00000000
,
00010000
00001000
00000100
00000000
00000010
00000100
00000001
00000010
,
00000100
00000000
00000000
00000000
00000001
00000000
00000000
00000000
00000010
00000001
00000000
00000001
00000100
00000000
00000000
00000000
,
00001010
00000001
00000100
00000100
,
00000010
00000000
00000000
00000000
00001100
00000000
00000000
00000000
00000001
00000010
00000000
00000001
00001000
00000000
00000000
00000000
,
00000100
00000010
00001000
00000000
00000100
00001000
00010000
01000000
,
00100000
00000000
00000000
00000000
00010000
00000000
00000000
00000000
10000000
00100000
00000000
10000000
00010000
00000000
00000000
00000000
,
00100000
01000000
10000000
00000000
10010000
00000000
00000000
00000000
,
00100000
00000000
00000000
00000000
01000000
00000000
00000000
00000000
00100000
00010000
00000000
00100000
01000000
00000000
00000000
00000000
,
00010000
01000000
00010000
00000000
00001000
00000100
00001000
00000100
,
00000001
00000000
00000000
00000000
00000010
00000000
00000000
00000000
00001000
00000010
00000000
00000001
00000010
00000000
00000000
00000000
,
00001100
00000010
00000100
00000100
,
00010100
00000000
00000000
00000000
00001100
00000000
00000000
00000000
00000010
00000100
00000000
00000100
00000010
00000000
00000000
00000000
,
00000001
00001000
00000010
00000000
00010000
00000010
00001000
00000010
,
00000001
00000000
00000000
00000000
00000010
00000000
00000000
00000000
00000100
00001000
00000000
00001000
00000100
00000000
00000000
00000000
,
00001000
00010000
00010100
00001000
,
00000011
00000000
00000000
00000000
00001000
00000000
00000000
00000000
00000010
00000100
00000000
00000010
00000001
00000000
00000000
00000000
,
00000010
00000100
00001000
00000000
00010000
01000000
00100000
00010000
,
01000000
00000000
00000000
00000000
10010000
00000000
00000000
00000000
00100000
00010000
00000000
00010000
10000000
00000000
00000000
00000000
,
01100000
00100000
00100000
00100000
,
00101000
00000000
00000000
00000000
00011000
00000000
00000000
00000000
00001000
00000100
00000000
00000100
00001000
00000000
00000000
00000000
,
00010000
00100000
00010000
00000000
00001000
00000010
00001000
00010000
,
00001000
00000000
00000000
00000000
00000100
00000000
00000000
00000000
00000010
00000100
00000000
00000100
00000001
00000000
00000000
00000000
,
00000100
00001000
00010000
00000000
01100000
00000000
10010000
00000000
,
01000000
00000000
00000000
00000000
;

//---------------dance-couple - ----------------
#NOTEDATA:;
#CHARTNAME:;
#STEPSTYPE:dance-couple;
#DESCRIPTION:;
#CHARTSTYLE:;
#DIFFICULTY:Challenge;
#METER:8;
#RADARVALUES:0.335870,0.497105,0.225104,0.000000,0.000000,188.000000,170.000000,18.000000,0.000000,0.000000,0.000000,0.000000,0.000000,0.000000,0.335870,0.497105,0.225104,0.000000,0.000000,188.000000,170.000000,18.000000,0.000000,0.000000,0.000000,0.000000,0.000000,0.000000;
#CREDIT:;
#DISPLAYBPM:165.000000;
#NOTES:
00000000
00000000
00000000
00000000
,
00000000
00000000
00000000
00000000
,
00000000
00000000
00000000
00000000
,
00000000
00000000
00000000
00000000
,
00000000
00000000
00000000
00000000
,
00000010
00000001
00000100
00000000
,
00100000
10000000
01000000
00000000
,
00001001
00000000
10010000
00000000
,
01100110
00000000
00000000
00000000
,
10010000
01000000
01000000
01000000
,
00001001
00000100
00000100
00000100
,
00100000
10000000
01000000
00000000
00000010
00000001
00000100
00000000
,
10000001
00011000
10000001
00100010
01000100
00000000
00000000
00000000
,
10000010
00001000
01000010
00001000
00010001
00001000
01000100
00000000
,
10000010
00000001
01000010
00000001
00011000
00000001
01000100
00000000
,
10000010
00001000
01000100
00000000
00010010
00001000
01000100
00000000
,
10000001
00001000
01000001
00000010
00010100
00000000
00000000
00000000
,
00100001
00010000
00100100
00010000
10001000
00010000
01000100
00000000
,
00100001
10000000
00100100
10000000
00011000
10000000
01000100
00000000
,
00100001
00010000
01000100
00000000
00101000
00010000
01000100
00000000
,
10000001
00010000
10000100
00100000
01001000
00000000
00000000
00000000
,
00010000
00000000
00010001
00000000
00010000
10000000
01000001
00000000
,
00001000
00000000
10001000
00000000
00001000
00000001
10000100
00000000
,
00100010
10001000
01000100
00000000
00100010
10001000
01000100
00000000
,
00011000
10000001
00011000
10000001
01000100
00000000
00000000
00000000
,
10010000
00000000
10010000
00000000
00100000
10000000
01000000
00000000
,
00001001
00000000
00001001
00000000
00000010
00000001
00000100
00000000
,
10001000
00010001
00100010
00000000
00010001
10001000
01000100
00000000
,
10001000
01000100
00100010
00010001
01000100
00000000
00000000
00000000
,
00001001
00000000
10000101
00000000
00000010
00001000
10000100
00000000
,
00001000
10000100
00000001
10000100
,
00001000
00000001
10000010
00000000
00000001
00001000
10000100
00000000
,
00000001
00001000
10000100
00000010
00000001
00000000
00000000
00000000
,
10010000
00000000
11000001
00000000
00100000
00010000
01000001
00000000
,
00010000
01000001
10000000
01000001
,
00010000
10000000
00100001
00000000
10000000
00010000
01000001
00000000
,
00010000
10000000
01000001
00100000
00010000
00000000
00000000
00000000
,
00001001
00000000
00001100
00000000
00000010
00000001
10000100
00000000
,
00000010
00000001
00000100
00000000
00000010
00000001
10000100
00000000
,
00001100
00000000
00000101
00000000
00000010
00001000
10000100
00000000
,
00000010
00001000
00000100
00000000
00000010
00001000
00000100
00000000
,
10010000
00000000
01010000
00000000
00100000
10000000
01000001
00000000
,
00100000
10000000
01000000
00000000
00100000
10000000
01000001
00000000
,
01010000
00000000
11000000
00000000
00100000
00010000
01000001
00000000
,
00100000
00010000
01000000
00000000
00100000
00010000
01000000
00000000
,
00001001
10000100
00001001
10000110
,
00001001
10000100
00001001
10000110
,
10010000
01000001
10010000
01100001
,
10010000
01000001
10010000
01100001
,
01000100
01000100
01000100
01000100
,
00011000
10000001
00011000
11000101
,
00010000
00001000
00010000
00001000
,
00100010
00011000
01000100
00000000
10000001
00000000
00000000
00000000
,
01000100
00000000
00000000
00000000
;

//---------------dance-solo - ----------------
#NOTEDATA:;
#CHARTNAME:;
#STEPSTYPE:dance-solo;
#DESCRIPTION:;
#CHARTSTYLE:;
#DIFFICULTY:Easy;
#METER:3;
#RADARVALUES:0.285847,0.364544,0.225104,0.000000,0.000000,160.000000,142.000000,18.000000,0.000000,0.000000,0.000000,0.000000,0.000000,0.000000,0.285847,0.364544,0.225104,0.000000,0.000000,160.000000,142.000000,18.000000,0.000000,0.000000,0.000000,0.000000,0.000000,0.000000;
#CREDIT:;
#DISPLAYBPM:165.000000;
#NOTES:
000000
000000
000000
000000
,
000000
000000
000000
000000
,
000000
000000
000000
000000
,
000000
000000
000000
000000
,
000000
000000
000000
000000
,
010001
000000
000000
000000
,
100010
000000
000000
000000
,
100001
000000
001100
000000
,
100001
000000
000000
000000
,
010000
010000
010000
010000
,
100000
100000
100000
100000
,
001000
000000
000001
000000
,
000100
100000
001100
000000
,
000001
000000
100000
000000
,
000010
000000
000010
000000
,
000010
100000
000010
001000
,
000100
001000
100001
000000
,
000001
000000
000010
000000
,
100000
000000
010000
000000
,
100000
000000
000010
000000
,
000001
100000
001100
000000
,
000001
000000
000001
000000
,
100000
000000
100000
000000
,
001000
000000
000100
000000
,
000010
010000
010010
000000
,
100000
000001
100000
100001
,
000100
001000
000100
001000
,
000001
000001
000000
000000
100000
100000
000000
000000
,
000010
001000
001010
000000
,
100000
100000
100000
100000
,
000010
000010
000010
000010
,
010000
000000
000001
000000
,
000100
001000
000100
001100
,
100000
000010
001000
000010
,
100000
000001
000001
100000
,
000100
000000
000100
000000
,
010000
010000
100010
000000
,
010000
000000
010000
000000
,
000001
000000
000001
000000
,
100000
001000
010000
000001
,
001000
000010
000100
000001
,
100000
000000
100000
000000
,
000001
001000
000010
001000
,
000001
100000
100001
000000
,
000010
001000
010000
001000
,
100000
000000
000001
000000
,
001100
100000
001100
000001
,
010000
000001
000010
100000
,
000100
001000
000100
001000
,
000001
000000
100000
000000
,
000100
001000
000010
000010
,
001000
000100
100000
000001
,
000001
010000
010001
000000
,
100001
000000
000000
000000
;

//---------------dance-solo - ----------------
#NOTEDATA:;
#CHARTNAME:;
#STEPSTYPE:dance-solo;
#DESCRIPTION:;
#CHARTSTYLE:;
#DIFFICULTY:Medium;
#METER:5;
#RADARVALUES:0.419837,0.497105,0.487726,0.000000,0.000000,235.000000,196.000000,39.000000,0.000000,0.000000,0.000000,0.000000,0.000000,0.000000,0.419837,0.497105,0.487726,0.000000,0.000000,235.000000,196.000000,39.000000,0.000000,0.000000,0.000000,0.000000,0.000000,0.000000;
#CREDIT:;
#DISPLAYBPM:165.000000;
#NOTES:
000000
000000
000000
000000
,
000000
000000
000000
000000
,
000000
000000
000000
000000
,
000000
000000
000000
000000
,
000000
000000
000000
000000
,
000110
000000
000000
000000
,
010100
000000
000000
000000
,
001100
000000
100001
000000
,
001100
000000
000000
000000
,
100010
000010
000010
000010
,
010001
010000
010000
010000
,
100001
000100
100001
000100
,
000001
000100
000010
000100
000001
000000
000000
000000
,
100000
000100
001000
000001
,
010000
001000
010000
011000
,
001000
001000
001000
000000
000100
000100
000100
000000
,
100000
000100
100000
000000
010000
000000
000000
000000
,
000001
001000
000010
001000
,
000010
001000
000100
001000
,
000001
000001
000001
000000
100000
100000
100000
000000
,
001000
000010
001000
000000
000001
000000
000000
000000
,
000100
000110
000100
010100
,
010000
000001
100000
000010
,
001000
001000
001000
000000
000100
000100
000100
000000
,
100000
000010
100000
000000
000010
000000
000000
000000
,
000001
010001
100000
100010
,
000010
001000
000001
100000
,
000010
000010
000010
000000
010000
010000
010000
000000
,
000001
001000
000010
000000
000010
000000
000000
000000
,
100000
100000
100000
100000
,
000001
000001
000001
000001
,
010000
000000
000010
000000
,
000100
001000
000100
001100
,
010000
001000
100000
001000
,
000001
010001
100000
100010
,
001100
001000
001100
000100
,
100001
000010
010000
001000
,
100001
000100
001000
000100
,
100001
000000
001000
000000
000100
000100
001000
000000
,
000010
000110
010000
010100
,
000001
000000
100000
000000
100000
100000
000001
000000
,
001000
001010
001000
011000
,
001001
000000
000100
000000
001000
001000
000100
000000
,
100000
001001
000100
000101
,
100001
001000
000010
010000
,
010010
100000
100001
001100
,
100001
000000
001000
000000
000010
000010
001000
000000
,
100001
001000
000001
001000
,
100000
000000
001100
000000
010000
010000
000001
000000
,
100000
100010
010001
001000
,
000100
000000
001000
000000
000100
000100
100000
000000
,
000001
001000
000100
100000
,
000001
001000
100000
001000
000001
000000
000000
000000
,
001100
000000
000000
000000
;

//---------------dance-solo - ----------------
#NOTEDATA:;
#CHARTNAME:;
#STEPSTYPE:dance-solo;
#DESCRIPTION:;
#CHARTSTYLE:;
#DIFFICULTY:Hard;
#METER:7;
#RADARVALUES:0.468074,0.497105,0.050023,0.000000,0.187587,262.000000,258.000000,4.000000,0.000000,0.000000,0.000000,0.000000,0.000000,0.000000,0.468074,0.497105,0.050023,0.000000,0.187587,262.000000,258.000000,4.000000,0.000000,0.000000,0.000000,0.000000,0.000000,0.000000;
#CREDIT:;
#DISPLAYBPM:165.000000;
#NOTES:
000000
000000
000000
000000
,
000000
000000
000000
000000
,
000000
000000
000000
000000
,
000000
000000
000000
000000
,
000000
000000
000000
000000
,
100000
000000
000010
000000
100000
000010
000000
100000
000000
000000
000000
000000
000000
000000
000000
000000
,
001000
000000
000100
000000
100000
000001
000000
010000
000000
000000
000000
000000
000000
000000
000000
000000
,
001000
000100
001000
000000
000001
010000
000001
000000
,
010000
000000
001000
000000
010000
000000
001000
010000
000000
000000
000000
000000
000000
000000
000000
000000
,
000100
000000
100000
000000
000100
100000
000000
000100
000000
000000
000000
000000
000000
000000
000000
000000
,
000010
000000
000010
000000
010000
000010
000000
010000
000000
000000
000000
000000
000000
000000
000000
000000
,
000001
100000
000001
000000
100000
000001
100000
000000
,
000100
000000
001000
000000
000100
000000
001000
000001
000000
000000
000000
000000
000000
000000
000000
000000
,
001000
000000
000100
000000
001000
000100
000000
001000
000000
000000
000000
000000
000000
000000
000000
000000
,
000001
000000
100000
000000
000001
100000
000000
000001
000000
000000
000000
000000
000000
000000
000000
000000
,
001000
000100
001000
000100
001000
000100
001000
000000
,
001000
000000
000100
000000
001000
000000
000100
100000
000000
000000
000000
000000
000000
000000
000000
000000
,
000010
000000
001000
000000
000010
001000
000000
000001
000000
000000
000000
000000
000000
000000
000000
000000
,
000100
000000
010000
000000
000100
100000
000000
000001
000000
000000
000000
000000
000000
000000
000000
000000
,
100000
100000
100000
000000
000001
000001
000001
000000
,
001000
000000
001000
000000
001000
000000
001000
010000
000000
000000
000000
000000
000000
000000
000000
000000
,
000010
000000
100000
000000
000010
100000
000000
000001
000000
000000
000000
000000
000000
000000
000000
000000
,
000100
000000
001000
000000
000001
001000
000000
000001
000000
000000
000000
000000
000000
000000
000000
000000
,
100000
000001
100000
000001
001000
001000
001000
001000
,
000010
000000
000010
000000
000010
000000
000010
001000
000000
000000
000000
000000
000000
000000
000000
000000
,
100000
000000
010000
000000
100000
010000
000000
100000
000000
000000
000000
000000
000000
000000
000000
000000
,
000100
000000
001000
000000
000010
001000
000000
000010
000000
000000
000000
000000
000000
000000
000000
000000
,
100000
100000
100000
100000
000100
000100
000100
000100
,
001000
000000
001000
000000
001000
000000
001000
000001
000000
000000
000000
000000
000000
000000
000000
000000
,
000001
000001
100000
100000
,
000001
000001
100000
100000
,
000010
001000
000001
001000
,
000100
000010
000100
000000
001000
010000
001000
000000
,
000001
000000
100000
000000
000001
001000
000001
000000
,
100000
000100
100000
000100
010000
001000
010000
000000
,
001000
000000
100000
000000
000001
001000
100000
000000
,
000010
001000
000010
000000
000010
000000
000000
000000
,
100000
000000
001000
000000
010000
000100
001100
000000
,
000001
000000
100000
000000
001000
010000
010001
000000
,
000010
000000
001000
000000
000001
001000
100000
000000
,
000100
000000
000010
000000
000001
100000
001000
000000
,
010000
000000
001000
000000
000010
001000
000001
000000
,
100000
000000
000001
000000
001000
000100
100000
100000
,
000001
000000
001000
000000
000100
100000
000100
000000
,
100000
000000
000001
000000
001000
000100
100000
100000
,
000010
000010
001000
000000
000001
010000
000001
000000
,
100000
001000
000001
001000
010000
001000
000010
000000
,
010000
001000
100000
001000
000010
001000
000001
000000
,
000001
000000
001000
000000
100000
001000
000001
000000
,
000100
000000
001000
000000
000001
001000
100000
000000
,
000100
000000
001000
000000
000001
100000
000001
000000
,
001000
001000
000100
000000
100000
000001
100000
000000
,
000100
000100
001100
001000
000000
000000
000000
000000
,
010010
000000
000000
000000
;

//---------------dance-single - edit----------------
#NOTEDATA:;
#CHARTNAME:;
#STEPSTYPE:dance-single;
#DESCRIPTION:edit;
#CHARTSTYLE:;
#DIFFICULTY:Edit;
#METER:16;
#RADARVALUES:0.959372,0.965603,0.450208,0.375174,1.369383,537.000000,501.000000,36.000000,30.000000,0.000000,0.000000,0.000000,0.000000,0.000000,0.959372,0.965603,0.450208,0.375174,1.369383,537.000000,501.000000,36.000000,30.000000,0.000000,0.000000,0.000000,0.000000,0.000000;
#CREDIT:;
#DISPLAYBPM:165.000000;
#NOTES:
// measure 0
0000
0000
0000
0000
,  // measure 1
0000
0000
0000
0000
,  // measure 2
0000
0000
0000
0000
,  // measure 3
0000
0000
0000
0000
,  // measure 4
0000
0000
0000
0000
0000
0000
0001
1000
,  // measure 5
0001
0000
0010
0000
0100
1000
0000
0020
0000
0000
0000
0130
0010
0000
0001
0000
,  // measure 6
1000
0000
0001
0000
0010
0100
0000
2000
0000
0000
0000
3001
0010
0000
0100
0000
,  // measure 7
1000
0000
0001
0010
0000
0100
0000
0010
1000
0000
0100
0010
0000
0100
0000
0001
,  // measure 8
0010
0000
0100
0000
0001
0000
1000
0020
0000
0000
0000
0130
0010
0000
1000
0000
,  // measure 9
0001
0000
1000
0000
0100
1000
0000
0200
0000
0000
0000
0301
0100
0000
1000
0000
,  // measure 10
0010
0000
0001
0000
1000
0010
0000
0002
0000
0000
0000
0013
0001
0000
0010
0000
,  // measure 11
0100
0000
1000
0100
0000
0010
0000
0001
0010
0000
0001
0010
0000
0100
0000
1000
,  // measure 12
0010
0100
0010
0100
0010
0100
0010
0100
0001
1000
0001
1000
0001
1000
0001
1000
,  // measure 13
0001
0000
0010
0000
0100
1000
0000
1010
0000
0000
0000
0100
0001
0000
0101
0000
,  // measure 14
0001
0000
1000
0000
0010
0001
0000
0011
0000
0000
0000
0100
1000
0000
1100
0000
,  // measure 15
0100
0000
1000
0010
0000
1010
0000
1000
0001
0000
0010
0001
0000
0011
0000
0010
,  // measure 16
0100
0000
1000
0000
0100
0000
0001
0200
0000
0000
0000
0310
1000
0000
1001
0000
,  // measure 17
0001
0000
1000
0000
0001
0010
0000
1010
0000
0000
0000
0100
0001
0000
0101
0000
,  // measure 18
0100
0000
0010
0000
1000
0001
0000
0101
0000
0000
0000
0100
1000
0000
1100
0000
,  // measure 19
0100
0000
1000
0010
0000
1001
0000
0001
0010
0000
0100
0010
0000
1001
0000
0010
,  // measure 20
0100
0010
0100
0010
0100
0010
0100
0010
1000
0001
1000
0001
1000
0001
1000
0001
,  // measure 21
1000
0000
0200
0000
0301
0010
0000
1010
0000
0010
0000
0100
0001
0000
1001
0000
,  // measure 22
0001
0000
0020
0000
1030
0100
0000
0110
0000
0010
0000
1000
0001
0000
0011
0000
,  // measure 23
0001
0000
0020
1030
0000
1010
0000
1000
0001
0000
0200
0301
0000
1001
0000
1000
,  // measure 24
0100
0001
0100
0001
0100
0001
0100
0001
1000
0100
1000
0100
1000
0100
1000
0100
,  // measure 25
0010
0000
0002
0000
0103
0010
0000
1010
0000
0011
0000
0010
0001
0000
1001
0000
,  // measure 26
0001
0000
2000
0000
3010
1000
0000
1100
0000
1010
0000
0010
0100
0000
0101
0000
,  // measure 27
0002
0000
0103
0010
0000
1010
0000
1000
0200
0000
0310
1000
0000
1001
0000
0001
,  // measure 28
0010
0100
0010
0100
0010
0100
0010
0100
0010
0000
1000
0000
0100
0000
0001
1000
,  // measure 29
0020
0000
1000
0030
0001
0010
1000
0000
0020
0000
0000
0001
0000
0000
0130
0010
,  // measure 30
2000
0000
0001
0000
3100
1000
0010
0000
2000
0000
0000
0010
0000
0000
3100
1000
,  // measure 31
0002
0000
0100
0000
0013
1000
0100
0000
0002
0000
0000
0010
0000
0000
1003
0001
,  // measure 32
0200
0000
0001
0000
1300
0010
0100
0000
0200
0000
0000
1000
0000
0000
0310
0000
,  // measure 33
0001
0000
0011
0000
0010
0100
1000
0000
0100
0000
0000
1100
0000
0000
1001
0000
,  // measure 34
0001
0000
0011
0000
0100
0010
1000
0000
1010
0000
0000
1001
0000
0000
1100
0000
,  // measure 35
0000
0000
0100
0000
0001
0000
0100
0000
2000
0000
0000
0000
3000
0000
0001
0100
,  // measure 36
0000
1000
0000
0100
0000
0001
0000
0100
1000
0001
0010
1000
0001
0010
0100
1000
,  // measure 37
0010
0001
1000
0000
0010
1000
0001
1000
0010
0000
0100
0001
0000
1000
0100
1000
,  // measure 38
0010
1000
0001
0000
0010
0001
1000
0001
0010
0000
0001
0010
0000
1000
0100
0010
,  // measure 39
0100
1000
0001
0000
0100
0001
1000
0010
0100
0000
0010
0100
0000
0001
1000
0001
,  // measure 40
0100
0010
1000
0000
0001
0010
0100
1000
0010
0000
0100
0001
0000
1000
0100
1000
,  // measure 41
0010
0001
0100
0000
0010
1000
0001
0010
0100
0000
1000
0001
0000
0010
1000
0010
,  // measure 42
0001
0100
1000
0000
0100
0010
1000
0001
0010
0000
0100
0001
0000
1000
0001
0010
,  // measure 43
0100
1000
0010
0000
0001
0010
1000
0001
0100
0000
1000
0010
0000
0001
0010
0001
,  // measure 44
0100
1000
0100
0000
0100
0001
1000
0100
0010
0000
0001
0010
0000
1000
0010
1000
,  // measure 45
0002
0000
1003
0000
0001
0010
0100
1000
0010
0000
0010
1000
0000
0001
0010
0001
,  // measure 46
0200
0000
0310
0000
1000
0100
0010
0001
0100
0000
0010
1000
0000
0100
0010
0100
,  // measure 47
1000
0000
1010
0000
0001
0010
0100
1000
0010
0000
1000
0010
0000
0100
0001
0100
,  // measure 48
0010
0000
0110
0000
0100
0001
1000
0001
0010
0000
0100
0010
0000
1000
0001
1000
,  // measure 49
0200
0000
0310
0000
0001
0010
0100
1000
0010
0000
0100
0010
0000
0001
0010
0001
,  // measure 50
2000
0000
3100
0000
0010
1000
0001
0010
0100
0000
1000
0100
0000
0010
0001
0000
,  // measure 51
0000
0000
0100
0000
1000
0000
0100
0000
0002
0000
0000
0000
0003
0000
1000
0100
,  // measure 52
0000
0001
0000
0100
0000
1000
0000
0100
0000
0001
0100
1000
0010
0001
0100
2000
,  // measure 53
0002
3003
0000
0000
;
