#VERSION:0.83;
#TITLE:Uranus;
#SUBTITLE:;
#ARTIST:Tatsh SN 2 Style;
#TITLETRANSLIT:;
#SUBTITLETRANSLIT:;
#ARTISTTRANSLIT:;
#GENRE:;
#ORIGIN:;
#CREDIT:;
#BANNER:Uranus.png;
#BACKGROUND:Uranus-bg.png;
#PREVIEWVID:;
#JACKET:Uranus-jacket.png;
#CDIMAGE:;
#DISCIMAGE:;
#LYRICSPATH:;
#CDTITLE:;
#MUSIC:Uranus.ogg;
#OFFSET:0.000000;
#SAMPLESTART:33.150002;
#SAMPLELENGTH:15.000000;
#SELECTABLE:YES;
#DISPLAYBPM:81.000000:162.000000;
#BPMS:0.000=162.162,
4.000=161.994,
56.000=162.025,
120.000=80.990,
136.000=161.975,
175.000=162.042;
#STOPS:56.000=0.373,
120.000=1.480,
136.000=1.480,
175.000=0.373;
#DELAYS:;
#WARPS:;
#TIMESIGNATURES:0.000=4=4;
#TICKCOUNTS:0.000=4;
#COMBOS:0.000=1;
#SPEEDS:0.000=1.000=0.000=0;
#SCROLLS:0.000=1.000;
#FAKES:;
#LABELS:0.000=Song Start;
#BGCHANGES:;
#KEYSOUNDS:;
#ATTACKS:
;

//---------------dance-single - ----------------
#NOTEDATA:;
#CHARTNAME:;
#STEPSTYPE:dance-single;
#DESCRIPTION:;
#CHARTSTYLE:;
#DIFFICULTY:Beginner;
#METER:3;
#RADARVALUES:0.178126,0.252072,0.075000,0.000000,0.000000,133.000000,125.000000,8.000000,0.000000,0.000000,0.000000,0.000000,0.000000,0.000000,0.178126,0.252072,0.075000,0.000000,0.000000,133.000000,125.000000,8.000000,0.000000,0.000000,0.000000,0.000000,0.000000,0.000000;
#CREDIT:;
#DISPLAYBPM:81.000000:162.000000;
#NOTES:
0000
0000
0000
0000
,
0000
0000
0000
0000
,
0000
1000
0000
0010
,
0000
0001
0000
0010
,
0000
1000
0000
0010
,
0010
0000
0000
0000
,
0010
0010
0010
0000
,
0001
0001
0001
0000
,
0010
0010
0010
0000
,
1000
1000
1000
0000
,
0001
0001
0001
0000
,
0100
0100
0100
0000
,
1000
1000
1000
0000
,
0010
0010
0010
0010
,
0010
0000
0000
1000
,
0000
0100
0000
0001
,
0000
0100
0000
1000
,
0000
0001
0001
0001
,
0000
0100
0000
0100
,
0000
0010
0000
0010
,
0000
0001
0000
1000
,
0000
1001
1001
1001
,
0000
0000
0100
0000
,
0000
0000
0001
0000
,
0000
0000
0010
0000
,
0000
0000
1000
0000
,
0000
0000
0001
0000
,
0000
0000
0100
0000
,
0000
0000
1000
0000
,
0000
0000
0010
0000
,
0000
0001
0001
0001
,
0000
0010
0010
0010
,
0000
0100
0100
0100
,
0000
1000
1000
1000
,
0000
0000
0001
0000
,
1000
0000
0100
0000
,
1001
0000
0100
0000
,
0010
0000
0000
1001
,
1001
0000
0010
0000
,
0001
0000
1000
0000
,
0110
0000
1001
0000
,
0010
0000
0100
0000
,
0010
0010
0010
0010
,
0010
0000
0000
0000
,
0000
0001
0000
0001
,
0000
0100
0000
1000
,
0000
1000
0000
0010
,
0000
0000
1000
1000
,
0000
0100
0000
0100
,
0000
0001
0000
0010
,
0000
0010
0000
0100
,
0000
0001
0001
0001
,
0000
1000
0000
1000
,
0000
0010
0000
0001
,
0000
0001
0000
0100
,
0000
1000
1000
1000
,
0000
0010
0000
0100
,
0000
0001
0000
0010
,
0000
0100
0000
1000
,
0000
0001
0001
0001
,
0000
0000
0000
0000
;

//---------------dance-single - ----------------
#NOTEDATA:;
#CHARTNAME:;
#STEPSTYPE:dance-single;
#DESCRIPTION:;
#CHARTSTYLE:;
#DIFFICULTY:Easy;
#METER:6;
#RADARVALUES:0.312056,0.420120,0.271877,0.000000,0.000000,233.000000,204.000000,29.000000,0.000000,0.000000,0.000000,0.000000,0.000000,0.000000,0.312056,0.420120,0.271877,0.000000,0.000000,233.000000,204.000000,29.000000,0.000000,0.000000,0.000000,0.000000,0.000000,0.000000;
#CREDIT:;
#DISPLAYBPM:81.000000:162.000000;
#NOTES:
0000
0000
0000
0000
,
0000
0000
0000
0000
,
0001
0010
0001
0010
,
0100
0010
0100
0010
,
1000
0010
1000
0010
,
1001
0000
0000
0000
,
0100
0010
0100
0010
,
1000
0100
1000
0100
,
0001
0100
0001
0100
,
1000
0010
1000
0010
,
0001
0010
0001
0010
,
0100
1000
0100
1000
,
0010
0100
0010
0100
,
0010
1001
1001
1001
,
0100
1000
0001
0100
,
0010
0001
1000
0100
,
0001
1000
0010
0100
,
1000
0001
0010
1001
,
0010
0011
0010
1010
,
0100
0101
0100
1100
,
0010
0110
0100
1001
,
0100
0101
1100
0101
,
0000
1000
0000
0000
1000
0000
0000
0001
,
0000
0100
0000
0000
0100
0000
0000
0010
,
0000
0001
0000
0000
0001
0000
0000
0010
,
0000
1000
0000
0000
1000
0000
0000
0100
,
0000
1000
0000
0000
0010
0000
0000
0001
,
0000
0100
0000
0000
0001
0000
0000
0010
,
0000
0100
0000
0000
1000
0000
0000
0010
,
0000
1000
0000
0000
0001
0000
0000
0100
,
0000
0000
0010
0010
0000
0000
0100
0100
,
0000
0000
0001
0001
0000
0000
1000
1000
,
0000
0000
0001
0010
0000
0000
1000
0100
,
0000
0000
0001
0100
0000
0000
1000
0010
,
0000
0000
0001
0000
,
0100
0000
1000
0000
,
1001
0000
0010
0000
,
0100
0000
0001
0110
,
1001
0000
1000
0000
,
0100
0000
0001
0000
,
1001
0000
0110
0000
,
0001
1000
0001
1000
,
1010
0011
0101
1100
,
1001
0000
0000
0000
,
0001
0010
0001
0100
,
1000
0010
0001
1000
,
1000
0010
1000
0100
,
0001
0010
1000
0001
,
0001
0100
1000
0100
,
0001
0010
0100
1000
,
1000
0100
0001
0100
,
1000
1010
0101
1000
,
0100
0001
0100
1000
,
0010
0100
0001
0010
,
0100
1000
0010
0100
,
0001
0011
1100
0001
,
0010
1000
0010
0001
,
0001
0100
1000
1000
,
0100
0010
0010
1000
,
0001
0010
0010
1001
,
0000
0000
0000
0000
;

//---------------dance-single - ----------------
#NOTEDATA:;
#CHARTNAME:;
#STEPSTYPE:dance-single;
#DESCRIPTION:;
#CHARTSTYLE:;
#DIFFICULTY:Medium;
#METER:9;
#RADARVALUES:0.393752,0.448128,0.112501,0.056250,0.075000,294.000000,282.000000,12.000000,6.000000,0.000000,0.000000,0.000000,0.000000,0.000000,0.393752,0.448128,0.112501,0.056250,0.075000,294.000000,282.000000,12.000000,6.000000,0.000000,0.000000,0.000000,0.000000,0.000000;
#CREDIT:;
#DISPLAYBPM:81.000000:162.000000;
#NOTES:
0000
0000
0000
0000
,
0000
0000
0000
0000
,
0001
0010
0100
0010
,
1000
0000
0010
0000
0001
0000
0100
0010
,
0001
0010
1000
0100
,
1001
0000
0000
0000
,
0010
0001
0010
0000
0010
0001
0010
0000
,
0001
0100
0001
0000
0001
0100
0001
0000
,
1000
0010
1000
0000
1000
0010
1000
0000
,
0100
1000
0100
0000
0100
1000
0100
0010
,
0100
1000
0010
0000
0100
0001
0010
0000
,
0100
1000
0010
0000
0100
0001
0010
0000
,
0001
0100
1000
0000
1000
0100
0001
0000
,
0010
0001
0010
0001
1000
0100
1000
0100
,
0010
0001
0100
1000
,
0100
0001
0010
1000
,
0100
0001
0010
0100
,
1000
0010
1000
0000
0010
0000
0101
0000
,
1000
0001
0010
0000
0100
0000
1000
0000
,
0001
1000
0010
0000
0100
0000
0001
0000
,
1000
0010
0100
0000
0001
0000
0010
0000
,
0100
1000
1000
1000
0001
0100
0100
0100
,
0000
0000
0010
0000
0000
1000
0000
0000
0001
0000
0000
0010
0000
0000
0100
0000
,
0000
0000
1000
0000
0000
0100
0000
0000
0001
0000
0000
0100
0000
0000
1000
0000
,
0000
0000
0010
0000
0000
0100
0000
0000
0001
0000
0000
0100
0000
0000
1000
0000
,
0000
0000
0100
0000
0000
0100
0000
0000
0001
0000
0000
1000
0000
0000
0100
0000
,
0000
0000
0010
0000
0000
0001
0000
0000
1000
0000
0000
0010
0000
0000
0100
0000
,
0000
0000
0001
0000
0000
0100
0000
0000
1000
0000
0000
0100
0000
0000
0001
0000
,
0000
0000
0010
0000
0000
0100
0000
0000
1000
0000
0000
0100
0000
0000
0001
0000
,
0000
0000
0100
0000
0000
0100
0000
0000
1000
0000
0000
0001
0000
0000
0100
0000
,
0000
1000
0200
0010
,
2300
0001
3020
0100
,
0001
0130
0002
0010
,
2003
0100
3020
0031
,
0000
0100
1000
0001
,
1000
0100
1000
0010
,
0101
0010
0001
1000
,
0001
0010
0001
1100
,
1010
0001
0100
0010
,
0100
0000
0001
0000
0100
0000
0000
0001
,
0100
0000
0000
1000
0010
0000
0000
0001
,
0010
1001
1010
1001
,
0010
0001
0010
0001
0010
0100
0010
0100
,
1000
0000
0000
0000
,
0010
0000
0100
0000
0001
0000
1000
0100
,
1000
0100
0010
0000
0001
0010
0001
0000
,
0100
1000
0100
0001
,
1000
0000
0100
0000
0010
0001
0010
0000
,
0010
0000
0100
0000
1000
0000
0001
0100
,
0001
0100
0010
0000
1000
0010
1000
0000
,
0100
0001
0100
1000
,
0001
0110
1001
0100
,
0010
0000
0001
0000
0100
0000
0010
1000
,
0010
1000
0001
0000
0100
0010
0100
0000
,
0001
0000
0010
0000
0100
1000
0100
0000
,
0010
1001
0110
1000
,
0010
0000
1000
0000
0100
0000
0010
0001
,
0010
0001
0010
0001
0010
0000
0100
0000
,
1000
0000
0001
0000
0010
0000
0001
1000
,
0001
1000
0010
1000
0010
0100
0001
0000
,
0000
0000
0000
0000
;

//---------------dance-single - ----------------
#NOTEDATA:;
#CHARTNAME:;
#STEPSTYPE:dance-single;
#DESCRIPTION:;
#CHARTSTYLE:;
#DIFFICULTY:Hard;
#METER:11;
#RADARVALUES:0.499557,0.476136,0.271877,0.065625,0.075000,373.000000,344.000000,29.000000,7.000000,0.000000,0.000000,0.000000,0.000000,0.000000,0.499557,0.476136,0.271877,0.065625,0.075000,373.000000,344.000000,29.000000,7.000000,0.000000,0.000000,0.000000,0.000000,0.000000;
#CREDIT:;
#DISPLAYBPM:81.000000:162.000000;
#NOTES:
0000
0000
0000
0000
,
0000
0000
0000
0000
,
1000
0000
1000
0100
0010
0000
0001
0100
,
0010
0000
0010
1000
0100
0000
1000
0010
,
0100
0000
0100
0001
0010
0000
0100
0000
,
1001
0000
0000
0000
,
0010
0001
0010
0001
0010
0100
0010
0000
,
0001
0010
0001
0010
0001
1000
0001
0000
,
1000
0010
1000
0010
1000
0001
1000
0000
,
0100
0010
0100
0010
0100
1000
0100
0010
,
0001
1000
0010
1000
0010
0100
0010
0000
,
1000
0001
0010
0001
0010
0100
0010
0000
,
0001
0100
0010
1000
0010
0100
0001
0000
,
1100
0101
0011
1010
,
0000
0001
1000
0101
,
0010
1000
0001
1100
,
0010
0001
1000
0110
,
0001
0100
1000
0000
0100
0000
1001
0000
,
0010
1000
0100
0000
0100
1000
0010
0000
,
0100
0001
0010
0000
0010
0001
0100
0000
,
0010
1000
0100
0000
0001
0100
1000
0000
,
0001
1000
0001
1000
0010
0100
0001
1000
,
0000
0000
0011
0000
0000
0001
0000
0000
0100
0000
0000
0001
0000
0000
1000
0000
,
0000
0000
1010
0000
0000
1000
0000
0000
0100
0000
0000
1000
0000
0000
0001
0000
,
0000
0000
0101
0000
0000
0010
0000
0000
0100
0000
0000
1000
0000
0000
0001
0000
,
0000
0000
1100
0000
0000
0010
0000
0000
0100
0000
0000
0001
0000
0000
1000
0000
,
0000
0000
0011
0000
0000
0100
0000
0000
1000
0000
0000
0010
0000
0000
0001
0000
,
0000
0000
1010
0000
0000
0100
0000
0000
0001
0000
0000
0100
0000
0000
1000
0000
,
0000
0000
0101
0000
0000
0010
0000
0000
1000
0000
0000
0100
0000
0000
0001
0000
,
0000
0000
1100
0000
0000
0010
0000
0000
0001
0000
0000
0010
0000
0000
1000
0000
,
0000
0000
0010
0100
0002
0000
0010
0100
,
0023
0000
0100
0001
0230
0000
1000
0010
,
2300
0000
0010
0001
3020
0000
0100
0001
,
0230
0000
0001
1000
0302
0000
0010
1003
,
0000
0000
0010
1000
0010
1000
0001
0010
,
0001
0010
0100
0010
0100
1000
0100
0000
,
1001
0000
0010
0001
0010
0001
1000
0010
,
1000
0010
0100
0010
0100
0000
0110
0000
,
1001
0000
1000
0100
1000
0001
0100
0001
,
0010
0100
0010
0100
1000
0001
1000
0010
,
0100
0000
0000
0001
1000
0000
0000
0100
,
0010
0011
1100
1010
,
0010
1000
0010
0100
0010
0001
0010
1000
,
0100
0000
0000
0000
,
1000
0001
0010
0001
0010
0100
0010
0001
,
1000
0001
0100
0000
0010
0100
0001
0000
,
1000
0010
0100
0010
0100
0001
1000
0100
,
1000
0001
0010
0001
0010
0000
0001
0000
,
0100
0010
0100
0001
1000
0100
1000
0100
,
0010
0001
0010
0000
0100
0010
0001
0000
,
0100
0010
1000
0010
1000
0100
0010
0100
,
1000
0011
0101
1010
,
0001
0100
0010
0100
0001
0010
0001
1000
,
0100
1000
0010
0100
0010
0000
1000
0000
,
0100
0010
0100
0010
0001
1000
0001
0100
,
0010
1001
0110
1001
,
0010
1000
0010
0100
0001
0100
0001
0010
,
0001
0010
0100
0010
0100
1000
0001
0000
,
1000
0010
0100
0001
1000
0010
0100
0000
,
0001
0010
0100
1000
0001
0010
0100
0000
,
0000
0000
0000
0000
;

//---------------dance-single - ----------------
#NOTEDATA:;
#CHARTNAME:;
#STEPSTYPE:dance-single;
#DESCRIPTION:;
#CHARTSTYLE:;
#DIFFICULTY:Challenge;
#METER:13;
#RADARVALUES:0.585271,0.700200,0.328127,0.000000,0.225001,437.000000,402.000000,35.000000,0.000000,0.000000,0.000000,0.000000,0.000000,0.000000,0.585271,0.700200,0.328127,0.000000,0.225001,437.000000,402.000000,35.000000,0.000000,0.000000,0.000000,0.000000,0.000000,0.000000;
#CREDIT:;
#DISPLAYBPM:81.000000:162.000000;
#NOTES:
0000
0000
0000
0000
,
0000
0000
0000
0000
,
1000
0100
1000
0000
0010
0100
0010
0000
,
0001
0000
0010
0000
0001
0000
0000
0000
0010
0000
0100
0000
0010
0000
0000
0100
,
0001
0010
0001
0000
0010
0100
0010
0000
,
1001
0000
0000
0000
,
0010
0001
0010
0100
0010
0001
0010
0100
,
0001
0000
0010
0000
0001
0000
0100
0000
0001
0000
0010
0000
0001
0000
0000
1000
,
0100
1000
0001
1000
0100
1000
0001
1000
,
0010
0000
0100
0000
1000
0000
0100
0000
0010
0000
0100
0000
0100
0010
0000
0100
,
0001
1000
0001
0010
0001
1000
0001
0010
,
1000
0010
0100
0010
1000
0010
0100
1000
,
0010
0100
0010
0001
0010
0100
0010
0001
,
1000
0100
0100
0001
1000
1000
0001
0010
,
0100
1000
0011
1100
,
0010
0100
1010
0101
,
0010
0100
1001
0110
,
1000
0010
0000
0100
0001
0000
0010
0000
0100
0000
0000
0000
1100
0000
0000
0000
,
0010
0000
0001
0000
0011
0000
0000
0000
0100
1000
0100
0000
1000
0000
0000
0000
,
0010
0000
1000
0000
1010
0000
0000
0000
0100
0001
0100
0000
0001
0000
0000
0010
,
0100
0000
0000
0000
0110
0000
0000
0000
0001
1000
0001
0000
1000
0000
0000
0000
,
1010
1001
1001
0011
0110
1100
1001
0101
,
0000
0000
0110
0000
0000
0001
1000
0000
0100
0000
0000
0010
0000
0000
0001
0000
,
0000
0000
1100
0000
0000
0100
0010
0000
0001
0000
0000
1000
0000
0000
0100
0000
,
0000
0000
0110
0000
0000
1000
0001
0000
0100
0000
0000
0010
0000
0000
1000
0000
,
0000
0000
0101
0000
0000
0100
0010
0000
1000
0000
0000
0001
0000
0000
0100
0000
,
0000
0000
0010
0000
0000
1000
0100
0000
0001
0000
0000
0100
0000
0000
0010
0000
,
0000
0000
0001
0000
0000
0100
1000
0000
0001
0000
0000
0010
0000
0000
1000
0000
,
0000
0000
0100
0000
0000
0001
0010
0000
1000
0000
0000
0010
0000
0000
0100
0000
,
0000
0000
1000
0000
0000
0100
0001
0000
1000
0000
0000
0010
0000
0000
0001
0000
,
0000
1000
0000
0001
0010
0000
0001
0000
0000
0100
0000
1000
0010
0000
0100
0000
,
0000
0001
0000
1000
0010
0000
1000
0000
0000
0100
0000
0001
0010
0000
0100
0000
,
0000
0001
0000
1000
0100
0000
0001
0000
0000
1000
0000
0001
0100
0000
1000
0000
,
0000
0010
0000
0100
0001
0000
0010
0000
0000
0100
0000
1000
0010
0000
0100
0000
,
0001
0000
1000
0010
1000
0100
0010
0100
,
1000
0010
0001
0010
0100
0001
1000
0001
,
1001
0000
0010
0001
0100
0010
0100
0001
,
1000
0100
0010
0001
0100
0010
1001
0000
,
0110
0000
0001
0010
0100
1000
0010
0100
,
0001
0010
0001
0100
0010
1000
0001
0010
,
1001
0000
0000
0010
0100
0000
0000
1000
,
0010
0101
0011
1100
,
0010
1000
0010
0100
0010
0001
0010
1000
,
0100
0000
0000
0000
,
0001
0100
0010
1000
0001
0010
0100
1000
,
0100
0000
1000
0000
0010
0000
0100
0000
0001
0010
0001
0000
1000
0000
0010
0000
,
1000
0010
0100
0001
0010
0001
1000
0100
,
0001
0000
0100
0000
1000
0000
0010
0000
0100
0001
0000
0001
1000
0000
0100
0000
,
0010
0100
1000
0010
0001
0010
0100
0001
,
0100
0000
0001
0000
0010
0000
0100
0000
1000
0010
1000
0000
0001
0000
0100
0000
,
0010
0100
0001
1000
0100
1000
0010
0100
,
0001
0010
1100
0000
0101
0000
0010
0001
,
0100
1000
0100
0001
0010
0001
0100
0010
,
0100
0000
0010
0000
1000
0000
0001
0000
0100
0010
0100
0000
0001
0000
0010
0000
,
1000
0010
0001
0100
1000
0100
0001
0010
,
0100
1000
0101
0000
1100
0000
0001
0010
,
0001
0010
1000
0010
1000
0010
0001
0001
,
0100
0010
0010
0010
1000
0100
0100
0010
,
0001
0000
1000
0000
1000
0000
0010
0000
0010
0000
0100
0000
0001
1000
0001
0000
,
1000
0010
0001
0010
0010
0100
1001
0000
,
0000
0000
0000
0000
;

//---------------dance-double - ----------------
#NOTEDATA:;
#CHARTNAME:;
#STEPSTYPE:dance-double;
#DESCRIPTION:;
#CHARTSTYLE:;
#DIFFICULTY:Easy;
#METER:6;
#RADARVALUES:0.308038,0.420120,0.243752,0.000000,0.000000,230.000000,204.000000,26.000000,0.000000,0.000000,0.000000,0.000000,0.000000,0.000000,0.308038,0.420120,0.243752,0.000000,0.000000,230.000000,204.000000,26.000000,0.000000,0.000000,0.000000,0.000000,0.000000,0.000000;
#CREDIT:;
#DISPLAYBPM:81.000000:162.000000;
#NOTES:
00000000
00000000
00000000
00000000
,
00000000
00000000
00000000
00000000
,
00000001
00000010
00000001
00000010
,
00001000
00010000
00001000
00010000
,
01000000
10000000
01000000
10000000
,
10010000
00000000
00000000
00000000
,
01000000
00100000
01000000
00100000
,
00010000
00001000
00010000
00001000
,
00000100
00000010
00000100
00000010
,
00001000
00000100
00001000
00000100
,
00000010
00001000
00000010
00001000
,
00010000
00100000
00010000
00100000
,
10000000
01000000
10000000
01000000
,
00010000
00011000
00011000
00011000
,
00000100
00000001
00000001
00000010
,
00001000
00010000
00010000
01000000
,
10000000
00100000
00100000
00010000
,
00001000
00000100
00000100
00001001
,
00000010
00001000
00010000
00010100
,
00000010
00001000
00010000
01001000
,
00100000
00110000
00001000
00001010
,
00001000
00011000
01001000
00010100
,
00000000
00000010
00000000
00000000
00000010
00000000
00000000
00001000
,
00000000
00010000
00000000
00000000
00010000
00000000
00000000
00100000
,
00000000
00010000
00000000
00000000
00010000
00000000
00000000
00001000
,
00000000
00000010
00000000
00000000
00000010
00000000
00000000
00000100
,
00000000
00010000
00000000
00000000
00100000
00000000
00000000
10000000
,
00000000
01000000
00000000
00000000
00010000
00000000
00000000
00001000
,
00000000
01000000
00000000
00000000
00010000
00000000
00000000
00001000
,
00000000
00000100
00000000
00000000
00000001
00000000
00000000
00000010
,
00000000
00000000
01000000
00100000
00000000
00000000
00010000
00001000
,
00000000
00000000
00000001
00000100
00000000
00000000
00001000
00010000
,
00000000
00000000
10000000
00100000
00000000
00000000
00001000
00000010
,
00000000
00000000
00000001
00000100
00000000
00000000
00010000
01000000
,
00000000
00000000
10000000
00000000
,
01000000
00000000
00010000
00000000
,
00011000
00000000
00000100
00000000
,
00000001
00000000
00000010
00001000
,
00011000
00000000
10000000
00000000
,
00100000
00000000
00010000
00000000
,
00011000
00000000
00000110
00000000
,
00000001
00000010
00000100
00001000
,
00011000
00101000
00011000
00010100
,
00000110
00000000
00000000
00000000
,
00001000
00100000
00010000
00001000
,
00000100
00000001
00000010
00001000
,
00010000
00000010
00001000
00010000
,
01000000
10000000
00100000
00010000
,
00001000
01000000
00001000
00000010
,
00001000
00010000
01000000
00001000
,
00010000
00000100
00010000
00100000
,
10000000
01010000
00011000
00001000
,
00000100
00000001
00000100
00001000
,
00010000
01000000
00010000
00001000
,
00010000
00100000
00010000
00001000
,
00000010
00000011
00001100
00010000
,
00100000
10000000
00100000
00010000
,
00010000
01000000
00100000
00100000
,
00010000
00001000
00001000
00000010
,
00000001
00000100
00000100
00001001
,
00000000
00000000
00000000
00000000
;

//---------------dance-double - ----------------
#NOTEDATA:;
#CHARTNAME:;
#STEPSTYPE:dance-double;
#DESCRIPTION:;
#CHARTSTYLE:;
#DIFFICULTY:Medium;
#METER:9;
#RADARVALUES:0.393752,0.448128,0.112501,0.065625,0.075000,294.000000,282.000000,12.000000,7.000000,0.000000,0.000000,0.000000,0.000000,0.000000,0.393752,0.448128,0.112501,0.065625,0.075000,294.000000,282.000000,12.000000,7.000000,0.000000,0.000000,0.000000,0.000000,0.000000;
#CREDIT:;
#DISPLAYBPM:81.000000:162.000000;
#NOTES:
00000000
00000000
00000000
00000000
,
00000000
00000000
00000000
00000000
,
00000001
00000010
00000100
00001000
,
00010000
00000000
00100000
00000000
01000000
00000000
10000000
00100000
,
01000000
00100000
00010000
00001000
,
00011000
00000000
00000000
00000000
,
00000010
00000001
00000010
00000000
00000010
00000100
00000010
00000000
,
00001000
00010000
00001000
00000000
00001000
01000000
00001000
00000000
,
00100000
00010000
00100000
00000000
00100000
01000000
00100000
00000000
,
10000000
01000000
10000000
00000000
01000000
00010000
01000000
00010000
,
00001000
00010000
00000010
00000000
00000100
00001000
00010000
00000000
,
00010000
00001000
00000100
00000000
00000100
00001000
00010000
00000000
,
00100000
00010000
00001000
00000000
00001000
00010000
00100000
00000000
,
10000000
00100000
10000000
00100000
00010000
00001000
00010000
00001000
,
00010000
00000001
00000100
00001000
,
00010000
01000000
10000000
01000000
,
00010000
00001000
00000010
00000100
,
00010000
00001000
01000000
00000000
00001000
00000000
00011000
00000000
,
00001000
00000100
00000001
00000000
00000010
00000000
00000100
00000000
,
00000001
00000100
00001000
00000000
00010000
00000000
00001000
00000000
,
00010000
01000000
10000000
00000000
01000000
00000000
00010000
00000000
,
00001000
00010000
00010000
00010000
00000010
00000100
00000100
00000100
,
00000000
00000000
00000010
00000000
00000000
00001000
00000000
00000000
00000001
00000000
00000000
00000010
00000000
00000000
00001000
00000000
,
00000000
00000000
00010000
00000000
00000000
00001000
00000000
00000000
00010000
00000000
00000000
01000000
00000000
00000000
10000000
00000000
,
00000000
00000000
00100000
00000000
00000000
10000000
00000000
00000000
00100000
00000000
00000000
00010000
00000000
00000000
00001000
00000000
,
00000000
00000000
00000100
00000000
00000000
00000100
00000000
00000000
00000001
00000000
00000000
00000100
00000000
00000000
00001000
00000000
,
00000000
00000000
00010000
00000000
00000000
00001000
00000000
00000000
00010000
00000000
00000000
00001000
00000000
00000000
00100000
00000000
,
00000000
00000000
01000000
00000000
00000000
10000000
00000000
00000000
01000000
00000000
00000000
00010000
00000000
00000000
00001000
00000000
,
00000000
00000000
00000010
00000000
00000000
00000100
00000000
00000000
00010000
00000000
00000000
00001000
00000000
00000000
00010000
00000000
,
00000000
00000000
00000010
00000000
00000000
00000100
00000000
00000000
00000001
00000000
00000000
00001000
00000000
00000000
00000100
00000000
,
00000000
00000010
00020000
01000000
,
00032000
00100000
00003200
00000001
,
00002300
00010000
02003000
10000000
,
03200000
00010000
20300000
31000000
,
00000000
00000100
00001000
00010000
,
00001000
00010000
00100000
10000000
,
01010000
00100000
00010000
00001000
,
00000010
00000001
00000100
00001010
,
00000101
00000010
00001000
00010000
,
01000000
00000000
10000000
00000000
00100000
00000000
00000000
00010000
,
00001000
00000000
00000000
00000010
00001000
00000000
00000000
00010000
,
00001000
00011000
01001000
01100000
,
00100000
10000000
00100000
10000000
01000000
00010000
00001000
00010000
,
00001000
00000000
00000000
00000000
,
00000010
00000000
00000100
00000000
00000001
00000000
00000010
00001000
,
00000010
00001000
00010000
00000000
00100000
00010000
00100000
00000000
,
10000000
01000000
10000000
00100000
,
00010000
00000000
00001000
00000000
00000100
00000010
00000100
00000000
,
00001000
00000000
00010000
00000000
01000000
00000000
00010000
00001000
,
00010000
00001000
00000100
00000000
00000001
00000010
00000001
00000000
,
00000100
00000001
00000100
00001000
,
00010000
00010010
00011000
01000000
,
10000000
00000000
00100000
00000000
00010000
00000000
00001000
00010000
,
00001000
00010000
00000010
00000000
00000100
00000001
00000100
00000000
,
00000001
00000000
00000010
00000000
00001000
00010000
00001000
00000000
,
00100000
00110000
01010000
10000000
,
01000000
00000000
00010000
00000000
00001000
00000000
00000010
00000001
,
00000010
00000001
00000010
00000100
00000010
00000000
00001000
00000000
,
00010000
00000000
00001000
00000000
00010000
00000000
00100000
01000000
,
00100000
01000000
00100000
00010000
00001000
00000100
00001000
00000000
,
00000000
00000000
00000000
00000000
;

//---------------dance-double - ----------------
#NOTEDATA:;
#CHARTNAME:;
#STEPSTYPE:dance-double;
#DESCRIPTION:;
#CHARTSTYLE:;
#DIFFICULTY:Hard;
#METER:11;
#RADARVALUES:0.499557,0.476136,0.271877,0.065625,0.075000,373.000000,344.000000,29.000000,7.000000,0.000000,0.000000,0.000000,0.000000,0.000000,0.499557,0.476136,0.271877,0.065625,0.075000,373.000000,344.000000,29.000000,7.000000,0.000000,0.000000,0.000000,0.000000,0.000000;
#CREDIT:;
#DISPLAYBPM:81.000000:162.000000;
#NOTES:
00000000
00000000
00000000
00000000
,
00000000
00000000
00000000
00000000
,
10000000
00000000
10000000
01000000
00010000
00000000
00001000
00000100
,
00000010
00000000
00000010
00001000
00000100
00000000
00000010
00001000
,
00010000
00000000
00010000
01000000
10000000
00000000
00010000
00000000
,
01100000
00000000
00000000
00000000
,
00100000
00010000
00100000
00010000
00100000
00001000
00010000
00000000
,
00000010
00001000
00000010
00001000
00000010
00010000
00001000
00000000
,
00000100
00000010
00000100
00000010
00000100
00000001
00000010
00000000
,
00001000
00010000
00001000
00010000
00001000
01000000
00100000
00010000
,
00001000
00010000
00000010
00001000
00000010
00000100
00000010
00000000
,
00001000
00000100
00000010
00001000
00000010
00001000
00010000
00000000
,
01000000
10000000
00010000
10000000
00100000
00010000
00001000
00000000
,
00011000
00010100
00011000
01001000
,
00000000
00100000
10000000
01010000
,
00100000
00010000
00001000
00010010
,
00000100
00000001
00000010
00001100
,
00000010
00001000
00010000
00000000
00001000
00000000
00101000
00000000
,
00001000
00010000
00000100
00000000
00000100
00010000
00001000
00000000
,
00000100
00000001
00000010
00000000
00000010
00000001
00000100
00000000
,
00001000
00010000
01000000
00000000
01000000
10000000
00100000
00000000
,
00010000
00001000
00010000
00001000
00000100
00001000
00010000
00001000
,
00000000
00000000
00011000
00000000
00000000
00000100
00000000
00000000
00000001
00000000
00000000
00000010
00000000
00000000
00000100
00000000
,
00000000
00000000
00001010
00000000
00000000
00000001
00000000
00000000
00000100
00000000
00000000
00001000
00000000
00000000
00010000
00000000
,
00000000
00000000
00011000
00000000
00000000
01000000
00000000
00000000
10000000
00000000
00000000
00100000
00000000
00000000
01000000
00000000
,
00000000
00000000
00110000
00000000
00000000
10000000
00000000
00000000
01000000
00000000
00000000
00010000
00000000
00000000
00001000
00000000
,
00000000
00000000
00011000
00000000
00000000
01000000
00000000
00000000
00100000
00000000
00000000
00010000
00000000
00000000
00001000
00000000
,
00000000
00000000
00000110
00000000
00000000
00000001
00000000
00000000
00000010
00000000
00000000
00001000
00000000
00000000
00010000
00000000
,
00000000
00000000
00011000
00000000
00000000
00000100
00000000
00000000
00000010
00000000
00000000
00001000
00000000
00000000
00010000
00000000
,
00000000
00000000
01100000
00000000
00000000
10000000
00000000
00000000
00100000
00000000
00000000
00010000
00000000
00000000
00001000
00000000
,
00000000
00000000
00000010
00001000
00020000
00000000
00001000
01000000
,
00032000
00000000
00000100
00010000
00003200
00000000
00000001
00000010
,
00000302
00000000
00000010
00001000
00000023
00000000
00000100
00001000
,
00000230
00000000
00010000
00001000
00020300
00000000
00100000
00031000
,
00000000
00000000
00000001
00000010
00000001
00000010
00000100
00001000
,
00000100
00010000
00001000
00000100
00001000
00010000
00000100
00000000
,
00011000
00000000
01000000
10000000
01000000
10000000
00100000
01000000
,
00100000
00010000
00100000
00010000
00001000
00000000
00000110
00000000
,
00001001
00000000
00000010
00001000
00000010
00001000
00010000
01000000
,
00010000
00001000
00010000
01000000
00010000
00001000
00000010
00000001
,
00000100
00000000
00000000
00000001
00001000
00000000
00000000
00000100
,
00000010
00001010
00011000
00101000
,
00100000
00001000
00010000
00001000
00010000
00000010
00001000
00000001
,
00000100
00000000
00000000
00000000
,
00001000
00000001
00000010
00000001
00000010
00000100
00000010
00001000
,
00010000
00001000
00010000
00000000
01000000
00100000
00010000
00000000
,
10000000
00100000
01000000
00100000
01000000
00010000
00100000
00001000
,
00010000
00000100
00000010
00000001
00000010
00000000
00000001
00000000
,
00000100
00000010
00000100
00001000
00010000
00001000
00000100
00001000
,
00010000
00100000
00010000
00000000
00001000
00010000
00100000
00000000
,
01000000
00100000
10000000
00100000
10000000
01000000
00100000
01000000
,
00010000
00011000
00010100
00001010
,
00000001
00000100
00000010
00000100
00000001
00000010
00001000
00010000
,
00000100
00000010
00001000
00010000
00001000
00000000
00010000
00000000
,
01000000
00100000
01000000
00100000
00010000
10000000
00010000
01000000
,
00100000
00110000
00011000
00001010
,
00000010
00001000
00000010
00000100
00000001
00000100
00000001
00000010
,
00001000
00010000
00000100
00000010
00000100
00010000
00001000
00000000
,
00010000
00100000
01000000
10000000
01000000
00100000
00010000
00000000
,
00001000
00000100
00000010
00000001
00000010
00000100
00001000
00000000
,
00000000
00000000
00000000
00000000
;

//---------------dance-double - ----------------
#NOTEDATA:;
#CHARTNAME:;
#STEPSTYPE:dance-double;
#DESCRIPTION:;
#CHARTSTYLE:;
#DIFFICULTY:Challenge;
#METER:13;
#RADARVALUES:0.585271,0.700200,0.328127,0.000000,0.225001,437.000000,402.000000,35.000000,0.000000,0.000000,0.000000,0.000000,0.000000,0.000000,0.585271,0.700200,0.328127,0.000000,0.225001,437.000000,402.000000,35.000000,0.000000,0.000000,0.000000,0.000000,0.000000,0.000000;
#CREDIT:;
#DISPLAYBPM:81.000000:162.000000;
#NOTES:
00000000
00000000
00000000
00000000
,
00000000
00000000
00000000
00000000
,
10000000
00100000
10000000
00000000
00100000
00010000
00100000
00000000
,
00010000
00000000
00001000
00000000
00010000
00000000
00000000
00000000
00001000
00000000
00000100
00000000
00001000
00000000
00000000
00000100
,
00000001
00000010
00000001
00000000
00000010
00001000
00010000
00000000
,
00011000
00000000
00000000
00000000
,
00100000
00010000
00100000
01000000
00100000
00010000
00100000
01000000
,
00010000
00000000
00001000
00000000
00010000
00000000
00000010
00000000
00010000
00000000
00001000
00000000
00010000
00000000
00000000
00001000
,
00000100
00000001
00000010
00000001
00000100
00000001
00000010
00001000
,
00010000
00000000
00100000
00000000
00010000
00000000
00001000
00000000
00000100
00000000
00000010
00000000
00000100
00000001
00000000
00000100
,
00000001
00000010
00001000
00010000
00001000
00000010
00001000
00010000
,
00100000
10000000
01000000
10000000
00100000
10000000
01000000
00010000
,
00001000
00010000
00001000
00000100
00001000
00010000
00001000
00000100
,
00000010
00000100
00000100
00001000
00010000
00010000
00001000
00000010
,
00000001
00000010
00001100
00011000
,
00100000
10000000
01010000
00011000
,
00000100
00000010
00001001
00000110
,
00000010
00001000
00000000
00010000
00001000
00000000
00010000
00000000
01000000
00000000
00000000
00000000
11000000
00000000
00000000
00000000
,
00100000
00000000
00010000
00000000
00011000
00000000
00000000
00000000
00001000
00010000
00001000
00000000
00010000
00000000
00000000
00000000
,
00000100
00000000
00000010
00000000
00000110
00000000
00000000
00000000
00000001
00000010
00000001
00000000
00000010
00000000
00000000
00000100
,
00001000
00000000
00000000
00000000
00011000
00000000
00000000
00000000
00010000
00001000
00010000
00000000
00001000
00000000
00000000
00000000
,
00110000
00101000
00011000
00010010
00001010
00000110
00000101
00001001
,
00000000
00000000
00000110
00000000
00000000
00001000
00010000
00000000
01000000
00000000
00000000
00100000
00000000
00000000
00010000
00000000
,
00000000
00000000
10100000
00000000
00000000
01000000
00100000
00000000
00010000
00000000
00000000
00001000
00000000
00000000
00000100
00000000
,
00000000
00000000
00001001
00000000
00000000
00000010
00000100
00000000
00000001
00000000
00000000
00000010
00000000
00000000
00001000
00000000
,
00000000
00000000
00011000
00000000
00000000
01000000
00100000
00000000
10000000
00000000
00000000
00010000
00000000
00000000
00100000
00000000
,
00000000
00000000
01000000
00000000
00000000
00010000
00001000
00000000
00000010
00000000
00000000
00001000
00000000
00000000
00010000
00000000
,
00000000
00000000
00001000
00000000
00000000
00000100
00000001
00000000
00000100
00000000
00000000
00001000
00000000
00000000
00010000
00000000
,
00000000
00000000
00000100
00000000
00000000
00000010
00001000
00000000
00010000
00000000
00000000
00100000
00000000
00000000
10000000
00000000
,
00000000
00000000
00010000
00000000
00000000
01000000
00100000
00000000
00010000
00000000
00000000
00001000
00000000
00000000
00000010
00000000
,
00000000
10000000
00000000
00100000
00010000
00000000
00001000
00000000
00000000
00000010
00000000
00001000
00010000
00000000
01000000
00000000
,
00000000
00010000
00000000
00001000
00000010
00000000
00000001
00000000
00000000
00000100
00000000
00001000
00010000
00000000
00100000
00000000
,
00000000
10000000
00000000
01000000
00010000
00000000
00001000
00000000
00000000
01000000
00000000
00010000
00001000
00000000
00000100
00000000
,
00000000
00000001
00000000
00000010
00001000
00000000
00010000
00000000
00000000
00000010
00000000
00001000
00010000
00000000
01000000
00000000
,
10000000
00000000
10000000
00100000
10000000
01000000
00010000
01000000
,
00010000
00001000
00000100
00001000
00000100
00000001
00000010
00000100
,
00001001
00000000
00000010
00001000
00010000
00001000
00010000
00001000
,
00000100
00000001
00000010
00001000
00010000
01000000
10010000
00000000
,
01100000
00000000
10000000
00100000
01000000
00010000
00100000
00001000
,
00010000
00001000
00000010
00001000
00000010
00000001
00000100
00001000
,
00011000
00000000
00000000
00100000
01000000
00000000
00000000
10000000
,
00100000
01010000
00011000
00010100
,
00000010
00000001
00000100
00001000
00010000
01000000
10000000
00100000
,
00010000
00000000
00000000
00000000
,
00010000
01000000
00100000
00010000
00001000
00100000
01000000
10000000
,
01000000
00000000
10000000
00000000
00100000
00000000
00010000
00000000
00001000
00010000
00001000
00000000
00010000
00000000
01000000
00000000
,
00010000
00001000
00000100
00000001
00000010
00000001
00001000
00000100
,
00000010
00000000
00000100
00000000
00001000
00000000
00010000
00000000
00100000
00010000
00000000
00010000
10000000
00000000
01000000
00000000
,
00010000
01000000
10000000
00100000
00010000
00001000
00010000
00100000
,
00010000
00000000
00001000
00000000
00000100
00000000
00000001
00000000
00000010
00000100
00000010
00000000
00000001
00000000
00000100
00000000
,
00001000
00000100
00001000
00010000
01000000
00100000
10000000
00100000
,
00010000
00100000
11000000
00000000
01010000
00000000
00100000
00010000
,
00001000
00000010
00001000
00010000
00100000
00010000
00001000
00000100
,
00001000
00000000
00000100
00000000
00000001
00000000
00000010
00000000
00000100
00001000
00000100
00000000
00000010
00000000
00001000
00000000
,
00010000
01000000
10000000
01000000
00010000
00001000
00000100
00000001
,
00000010
00001000
00011000
00000000
01100000
00000000
10000000
00100000
,
00010000
00100000
10000000
00100000
00010000
00001000
00010000
00010000
,
00001000
00000100
00000100
00000100
00000001
00000010
00000010
00001000
,
00010000
00000000
00001000
00000000
00001000
00000000
00100000
00000000
00100000
00000000
01000000
00000000
10000000
00010000
10000000
00000000
,
00100000
00010000
00001000
00000100
00000001
00000010
00001100
00000000
,
00000000
00000000
00000000
00000000
;

//---------------dance-single - Edit----------------
#NOTEDATA:;
#CHARTNAME:;
#STEPSTYPE:dance-single;
#DESCRIPTION:Edit;
#CHARTSTYLE:;
#DIFFICULTY:Edit;
#METER:18;
#RADARVALUES:1.110275,1.331493,0.000000,0.150001,1.996887,829.000000,829.000000,0.000000,16.000000,0.000000,0.000000,0.000000,0.000000,0.000000,1.110275,1.331493,0.000000,0.150001,1.996887,829.000000,829.000000,0.000000,16.000000,0.000000,0.000000,0.000000,0.000000,0.000000;
#CREDIT:;
#DISPLAYBPM:81.000000:162.000000;
#NOTES:
// measure 0
0000
0000
0000
0000
,  // measure 1
0000
0000
0000
0000
,  // measure 2
0000
0000
0000
0000
,  // measure 3
0000
0000
0000
0000
,  // measure 4
0000
0000
0000
0000
,  // measure 5
0000
0000
0000
0000
,  // measure 6
1000
0010
0100
0001
1000
0100
0010
0001
1000
0010
0100
0001
1000
0100
0010
0001
,  // measure 7
0010
0100
1000
0001
0010
0100
1000
0001
0010
0100
1000
0001
0010
0100
1000
0100
,  // measure 8
0010
0001
1000
0100
0010
0001
1000
0100
0010
0001
1000
0100
0010
0001
1000
0100
,  // measure 9
0001
0010
0100
1000
0001
0010
0100
1000
0001
0010
0100
1000
0001
0010
0100
1000
,  // measure 10
0010
0001
0100
1000
0010
0001
0100
1000
0010
0001
0100
1000
0010
0001
0100
1000
,  // measure 11
0100
0001
0010
1000
0100
0001
0010
1000
0100
0001
0010
1000
0100
0001
0010
1000
,  // measure 12
0001
0100
0001
0000
0100
0000
0010
0000
1000
0000
0100
0000
0010
0000
0001
0000
1000
0001
1000
0000
0001
0000
0100
0000
0010
0000
0001
0000
0100
0000
0010
0000
,  // measure 13
1000
0100
1000
0000
0100
1000
0100
0000
1000
0010
1000
0000
0010
1000
0010
0000
1000
0001
1000
0000
0001
1000
0001
0000
1000
0000
0100
0000
0010
0000
0001
0000
,  // measure 14
0100
0000
0010
1000
0010
0000
0001
0100
0001
0000
0010
1000
0010
0000
0001
0100
,  // measure 15
0001
0000
1000
0100
1000
0000
0010
0001
0010
0000
1000
0100
1000
0000
0010
0001
,  // measure 16
0010
0000
1000
0010
1000
0000
0001
0100
0001
0000
1000
0010
1000
0000
0001
0100
,  // measure 17
0001
0010
0000
0010
0100
0000
0100
1000
0000
1000
0010
0000
0010
0001
0100
0010
,  // measure 18
1000
0100
0000
0100
0010
0001
0100
0010
1000
0100
0000
0010
0001
0010
0100
1000
,  // measure 19
0010
0100
0000
0010
1000
0100
0010
0001
0100
1000
0000
0001
0010
0100
1000
0010
,  // measure 20
0100
0001
1000
0100
0001
1000
0010
0100
0001
0010
1000
0100
0010
0001
1000
0010
,  // measure 21
0100
0010
0000
0000
0100
0010
0000
0000
1000
0001
0000
0000
1000
0001
0000
0000
0010
0100
0000
0000
0010
0100
0000
0000
0001
0000
0010
0000
0100
0000
1000
0000
,  // measure 22
0010
0000
0001
0010
0000
0010
1000
0000
1000
0010
0000
0010
0001
0000
0010
0100
,  // measure 23
1000
0000
0100
0010
0000
0010
0001
0000
0001
0100
0000
0100
1000
0000
0100
0010
,  // measure 24
1000
0010
0100
0010
1000
0010
0100
0010
0001
0010
0100
0010
0001
0010
0100
0010
,  // measure 25
1000
0010
0100
0010
0001
0010
0100
0010
1000
0010
0100
0010
0001
0010
0100
0010
,  // measure 26
1000
0000
0010
1000
0000
1000
0100
0000
0100
0001
0000
0001
0010
0000
0100
0001
,  // measure 27
0010
0000
0010
0001
0000
0001
0100
0000
0100
1000
0000
1000
0010
0000
0010
1000
,  // measure 28
0100
1000
0010
1000
0100
1000
0010
1000
0001
1000
0010
1000
0001
1000
0010
1000
,  // measure 29
0001
1000
0010
1000
0100
1000
0010
1000
0001
1000
0010
1000
0100
1000
0020
0030
,  // measure 30
0000
0020
0000
0000
0000
0000
0000
0000
0000
0000
0000
0000
0000
0000
0000
0000
1000
0000
0000
0000
0000
0000
0000
0000
0100
0000
0000
0000
0100
0000
0000
0000
0100
0000
0000
0000
0000
0000
0000
0000
0001
0000
0000
0000
0000
0000
0000
0000
1000
0000
0000
0000
0000
0000
0000
0000
1000
0000
0000
0000
1000
0000
0000
0000
,  // measure 31
1000
0000
0100
0000
0001
0000
0001
0001
0001
0000
0100
0000
1000
0000
1000
1000
,  // measure 32
0100
0000
0000
0000
0000
0100
0000
0000
0000
1000
0000
0000
0000
0000
0000
0100
0000
0000
0000
0000
0000
1000
0000
0000
0000
0000
0000
0000
0000
0000
0100
0000
0000
0000
0000
0000
0001
0000
0000
0000
0000
0000
0100
0000
0000
0100
0000
0000
,  // measure 33
0100
0000
0000
0000
0000
0000
1000
0000
0000
0000
0000
0000
0001
0000
0000
0000
0000
0000
0100
0000
0000
0000
0000
0000
2000
0000
0000
0000
0000
0000
0000
0000
0000
0000
0000
0000
3030
0000
0000
0000
0000
0000
1000
0100
1000
0100
0010
0001
,  // measure 34
0010
0000
0010
0001
0000
0000
0010
0000
0000
0100
0000
0000
0010
0000
0000
0001
0000
0000
0010
0000
0000
0100
0000
0000
0010
0000
0000
0001
0000
0000
0010
0000
0000
0100
0000
0000
0010
0000
0000
0001
0000
0000
0010
0000
0000
0100
0000
0000
,  // measure 35
0010
1000
0010
0100
0010
1000
0010
0100
0010
1000
0010
0100
0010
1000
0010
0100
,  // measure 36
1000
0010
0000
0100
0000
0000
0010
0000
0000
0100
0000
0000
1000
0000
0000
0100
0000
0000
0010
0000
0000
0100
0000
0000
1000
0000
0000
0100
0000
0000
0010
0000
0000
0100
0000
0000
1000
0000
0000
0100
0000
0000
0010
0000
0000
0100
0000
0000
,  // measure 37
1000
0000
0000
0001
0000
0000
0010
0000
0000
0001
0000
0000
1000
0000
0000
0001
0000
0000
0010
0000
0000
0001
0000
0000
1000
0000
0000
0001
0000
0000
0010
0000
0000
0001
0000
0000
1000
0000
0010
0001
0000
0000
0010
0000
0000
0001
0000
0000
,  // measure 38
1000
0000
0010
0100
0000
0000
0010
0000
0000
0100
0000
0000
1000
0000
0000
0100
0000
0000
0010
0000
0000
0100
0000
0000
1000
0000
0000
0100
0000
0000
0010
0000
0000
0100
0000
0000
1000
0000
0000
0100
0000
0000
0010
0000
0000
0100
0000
0000
,  // measure 39
1000
0010
0001
0010
1000
0010
0001
0010
1000
0100
0010
0100
1000
0100
0010
0100
,  // measure 40
1000
0000
0010
0100
0000
0000
0001
0000
0000
0100
0000
0000
1000
0000
0000
0100
0000
0000
0001
0000
0000
0100
0000
0000
1000
0000
0100
0010
0000
0000
0100
0000
0000
0010
0000
0000
1000
0000
0000
0010
0000
0000
0100
0000
0000
0010
0000
0000
,  // measure 41
0001
0010
0000
0001
0000
0000
0100
0000
0000
1000
0000
0000
0001
0100
0000
0001
0000
0000
0010
0000
0000
1000
0000
0000
0001
0000
1000
0001
0000
0000
0010
0000
0000
0100
0000
0000
0001
0000
0010
0100
0000
0000
0010
0000
0000
1000
0000
0000
,  // measure 42
0001
0100
0000
0000
0010
1000
0000
0000
0001
0010
0000
0000
0100
1000
0000
0000
1000
0100
1000
0000
0100
0010
0100
0000
0010
0001
0010
0000
0001
0100
0001
0100
,  // measure 43
0020
0000
0000
0000
0000
0000
0000
0000
0000
0000
0000
0000
0000
0000
0000
0000
0000
0000
0000
0000
0000
0000
0000
0000
0000
0000
0000
0000
0000
0000
0000
0000
0000
0000
0000
0000
0030
0100
0000
0010
0000
0000
1000
0000
0000
0100
0000
0000
,  // measure 44
0010
0100
1000
0100
0010
0100
1000
0100
0010
0100
1000
0100
0010
0100
1000
0100
,  // measure 45
0010
0000
0000
0100
0000
0000
1000
0000
0000
0100
0000
0000
0020
0000
0000
0130
0000
0000
1000
0000
0000
0100
0000
0000
0010
0000
0000
0100
0000
0000
1000
0000
0000
0100
0000
0001
0020
0000
0000
0031
0000
0000
0100
0000
0000
0001
0000
0000
,  // measure 46
0010
0001
0100
0001
0010
0001
0100
0001
0010
0001
0100
0001
0010
0001
0100
0001
,  // measure 47
0010
0001
0100
0001
0010
0001
0100
0001
0010
0001
0100
0001
2000
3010
0100
0010
,  // measure 48
1000
0010
0100
0010
1000
0010
0100
0010
1000
0010
0100
0010
1000
0010
0100
0010
,  // measure 49
1000
0010
0100
0010
2000
3010
0100
0010
1000
0010
0100
0010
0002
0103
0010
0100
,  // measure 50
0001
0100
0010
0100
0001
0100
0010
0100
0001
0100
0010
0100
0001
0100
0010
0100
,  // measure 51
0001
0000
0000
0100
0000
0000
0010
0000
0000
0100
0000
0010
0002
0000
0000
0103
0000
0000
0010
0000
0000
0100
0000
0000
0002
0000
0000
0103
0000
0000
0010
0000
0000
0100
0000
0000
0002
0000
0000
0013
0000
0000
1000
0000
0000
0010
0000
0000
,  // measure 52
0001
0010
1000
0010
0001
0010
1000
0010
0001
0010
1000
0010
0001
0010
1000
0010
,  // measure 53
0001
0010
1000
0010
0001
0010
1000
0010
0001
0010
1000
0010
0200
1300
0100
0001
,  // measure 54
0100
1000
0100
0001
0100
1000
0100
0001
0100
1000
0100
0001
0100
1000
0100
0001
,  // measure 55
0100
0000
1000
0000
0100
0000
0001
0000
0200
0000
1300
0000
0100
0000
0001
0000
0200
0000
1300
0000
0100
0000
0001
0000
0010
1000
0000
0000
0010
1000
0000
0000
,  // measure 56
0001
0100
0000
0000
0001
0100
0000
0000
0010
0001
0000
0000
0010
0001
0000
0000
1000
0100
0000
0000
1000
0100
0000
0000
0010
0001
0010
0000
0001
0010
0001
0000
,  // measure 57
1000
0001
1000
0000
0001
1000
0001
0000
0100
1000
0100
0000
1000
0100
1000
0000
0100
0010
0100
0000
0010
0100
0010
0000
0100
0010
0100
0010
0100
0000
0010
0000
,  // measure 58
1000
0000
0001
0000
0010
0000
0100
0000
1000
0010
1000
0010
1000
0000
0010
0000
0100
0000
0010
0000
0001
0000
1000
0000
0010
0100
0010
0100
0010
0000
0100
0000
,  // measure 59
1000
0000
0000
0000
0000
0000
0000
0000
0000
0000
0000
0000
0001
0000
0000
0000
0000
0000
0000
0000
0000
0000
0000
0000
0010
0000
0000
0000
0000
0000
0000
0000
0000
0000
0000
0000
0100
0000
0000
0000
0000
0000
0000
0000
0000
0000
0000
0000
1000
0000
0000
0000
0000
0000
0100
0000
0000
0000
0000
0000
0010
0000
0000
0000
0000
0000
0001
0000
0000
0000
0000
0000
0100
0000
0000
0000
0000
0000
0000
0000
0000
0000
0000
0000
0010
0000
0000
0000
0000
0000
0000
0000
0000
0000
0000
0000
0001
0000
0000
0000
0000
0000
0010
0000
0000
0000
0000
0000
0100
0000
0000
0000
0000
0000
1000
0000
0000
0000
0000
0000
0001
0000
0000
0000
0000
0000
0100
0000
0000
0000
0000
0000
0010
0000
0000
0000
1000
0000
0000
0000
0000
0000
0000
0000
0200
0000
0000
0000
0000
0000
0000
0000
0000
0000
0000
0000
0000
0000
0000
0000
0000
0000
0000
0000
0000
0000
0000
0000
0000
0000
0000
0000
0000
0000
0000
0000
0000
0000
0000
0000
0000
0000
0000
0000
0000
0000
0000
0000
0000
0000
0000
0000
,  // measure 60
0000
0000
0000
0000
,  // measure 61
0000
0000
0000
0300
;
