#TITLE:Unwritten (Vicious Club Mix);
#SUBTITLE:;
#ARTIST:Natasha Bedingfield;
#TITLETRANSLIT:;
#SUBTITLETRANSLIT:;
#ARTISTTRANSLIT:;
#GENRE:;
#CREDIT:;
#BANNER:Unwritten (Vicious Club Mix).png;
#BACKGROUND:Unwritten (Vicious Club Mix)-bg.png;
#LYRICSPATH:;
#CDTITLE:;
#MUSIC:Unwritten (Vicious Club Mix).ogg;
#OFFSET:0.000000;
#SAMPLESTART:31.385000;
#SAMPLELENGTH:15.000000;
#SELECTABLE:YES;
#DISPLAYBPM:130.000000;
#BPMS:0.000000=129.800003
,4.000000=130.000000
;
#STOPS:
;
#BGCHANGES:0.000=Unwritten (Vicious Club Mix).avi=1.000=0=0=0=StretchNoLoop====,
99999=-nosongbg-=1.000=0=0=0 // don't automatically add -songbackground-
;
#KEYSOUNDS:;
#ATTACKS:;

//---------------dance-single - ----------------
#NOTES:
     dance-single:
     :
     Beginner:
     1:
     0.072658,0.149530,0.050861,0.000000,0.000000,50.000000,45.000000,5.000000,0.000000,0.000000,0.000000,0.072658,0.149530,0.050861,0.000000,0.000000,50.000000,45.000000,5.000000,0.000000,0.000000,0.000000:
0000
0000
0000
0000
,
0000
0000
0000
0000
,
0000
0000
0000
0000
,
0000
0000
0000
0000
,
0000
0000
0000
0000
,
0100
0000
0000
0000
,
1000
0000
0000
0000
,
0001
0000
0000
0000
,
1000
0000
0000
0000
,
0010
0000
0000
0000
,
0100
0000
0000
0000
,
0010
0000
0000
0000
,
0100
0000
0000
0000
,
0010
0000
0000
0000
,
0010
0000
0000
0000
,
0100
0000
0000
0000
,
0100
0000
0000
0000
,
0001
0000
0000
0000
,
1000
0000
0000
0000
,
0010
0000
0000
0000
,
0100
0000
0000
0000
,
0001
0000
0000
0000
,
1000
0000
0000
0000
,
0010
0000
0000
0000
,
0100
0000
0000
0000
,
0010
0000
0000
0000
,
0010
0000
0000
0000
,
0100
0000
0000
0000
,
0100
0000
0000
0000
,
1000
0000
0000
0000
,
1000
0000
0000
0000
,
0001
0000
0000
0000
,
0001
0000
0000
0000
,
1001
0000
0000
0000
,
1001
0000
0000
0000
,
1001
0000
0000
0000
,
1001
0000
0000
0000
,
0001
0000
0000
0000
,
1000
0000
0000
0000
,
0100
0000
0000
0000
,
0010
0000
0000
0000
,
1000
0000
0000
0000
,
0001
0000
0000
0000
,
0100
0000
0000
0000
,
0010
0000
0000
0000
,
0010
0000
0000
0000
,
0010
0000
0000
0000
,
0100
0000
0000
0000
,
0100
0000
0000
0000
,
0110
0000
0000
0000
;

//---------------dance-single - ----------------
#NOTES:
     dance-single:
     :
     Easy:
     5:
     0.167113,0.224295,0.010172,0.020344,0.000000,115.000000,114.000000,1.000000,2.000000,0.000000,0.000000,0.167113,0.224295,0.010172,0.020344,0.000000,115.000000,114.000000,1.000000,2.000000,0.000000,0.000000:
0000
0000
0000
0000
,
0000
0000
0000
0000
,
0000
0000
0000
0000
,
0000
0000
0000
0000
,
0000
0000
0000
0000
,
1000
0000
0010
0000
,
0001
0000
0010
0000
,
2000
0000
3000
0000
,
0002
0000
0003
0000
,
0010
0100
0100
0000
,
1000
0000
0001
0000
,
0100
0010
0010
0000
,
1000
0000
0100
0000
,
0001
0010
0010
0000
,
0100
0000
1000
0000
,
0001
0100
0100
0000
,
0010
0000
1000
0000
,
0100
0000
0001
0010
,
0001
0000
1000
0000
,
0100
0000
1000
0000
,
0010
0000
1000
0000
,
0100
0000
0001
1000
,
0001
0000
0010
0000
,
0001
0000
0100
0000
,
1000
0100
0001
0001
,
1000
0000
0001
0000
,
0010
0100
0010
0000
,
1000
0000
0010
0000
,
0100
0001
1000
1000
,
0001
0010
0100
0000
,
1000
0010
0100
0000
,
0001
1000
0010
0001
,
0100
0100
0100
0100
,
0001
0000
0001
0000
,
1000
0000
1000
0000
,
0100
0000
0010
0000
,
0100
1000
0010
1000
,
0100
0000
0100
0000
,
0010
0000
0010
0000
,
0001
0000
0001
0000
,
1000
0010
0100
0010
,
1000
0000
0000
0001
,
0100
0000
0000
1000
,
0100
0000
0001
0000
,
1000
0100
0010
0100
,
1000
0000
0001
0001
,
0100
0000
0010
1000
,
1000
0000
0001
0010
,
0010
0000
0100
0100
,
1001
0000
0000
0000
;

//---------------dance-single - ----------------
#NOTES:
     dance-single:
     :
     Medium:
     8:
     0.303710,0.348903,0.193270,0.020344,0.000000,209.000000,190.000000,19.000000,2.000000,0.000000,0.000000,0.303710,0.348903,0.193270,0.020344,0.000000,209.000000,190.000000,19.000000,2.000000,0.000000,0.000000:
0000
0000
0000
0000
,
0000
0000
0000
0000
,
0000
0000
0000
0000
,
0000
0000
0000
0000
,
0000
0000
0000
0000
,
0001
0010
0000
0000
,
1000
0010
0001
0001
,
0000
0100
0000
0000
0000
0010
0010
0000
,
1000
0000
0001
0000
0100
0000
0100
0001
,
1000
0100
0010
0001
,
0010
0000
0100
0000
1000
0000
0001
0100
,
1000
0010
0100
0001
,
0100
0000
0010
0000
1000
0000
0010
0100
,
0001
1000
0010
0100
,
0001
0000
0001
0000
0010
0000
0100
1000
,
0100
0010
1000
0001
,
0002
2000
0000
3003
,
0010
0001
1000
1100
,
0100
0010
0001
0110
,
0010
0001
1000
1100
,
0100
0000
0010
0000
1000
0001
0100
0000
,
0010
1000
0010
1010
,
0100
0001
0100
0101
,
0001
1000
0001
1001
,
0010
1000
0010
0000
0100
0001
0100
0000
,
0001
1000
0010
1001
,
0100
0010
1000
1100
,
0100
0010
0001
0101
,
0001
0010
0001
0000
1000
0100
1000
0000
,
1000
0001
0100
1001
,
0010
0100
0001
0011
,
0010
0100
1000
1010
,
1000
1000
0001
0001
,
0110
0000
0000
1000
0000
1000
0000
0010
,
0001
0000
0000
0001
0000
0001
0000
0010
,
1000
0000
0000
1000
0000
1000
0000
0100
,
0001
0000
0000
0001
0000
0001
0000
0100
,
1000
0000
0000
0001
0000
1000
0000
0010
,
0100
0000
0000
0001
0000
1000
0000
0100
,
0010
0000
0000
0100
0000
0001
0000
1000
,
0010
0000
0100
0010
1000
0000
0001
0000
,
0110
0000
1000
0010
0000
0010
0000
0010
,
1000
0000
0100
0001
0000
0001
0000
0001
,
0010
0000
1000
0100
0000
0100
0000
0100
,
1000
0000
0001
0100
1000
0000
0010
0000
,
1001
0000
0100
0000
0010
0100
0001
0000
,
0011
0000
1000
0000
0010
0100
1000
0000
,
1100
0000
0001
0000
0100
0010
0001
0000
,
0010
0000
0101
0000
0100
0001
0010
0000
,
1001
0000
0000
0000
;

//---------------dance-single - ----------------
#NOTES:
     dance-single:
     :
     Hard:
     10:
     0.367649,0.398747,0.152582,0.111893,0.025430,253.000000,238.000000,15.000000,11.000000,0.000000,0.000000,0.367649,0.398747,0.152582,0.111893,0.025430,253.000000,238.000000,15.000000,11.000000,0.000000,0.000000:
0000
0000
0000
0000
,
0000
0000
0000
0000
,
0000
0000
0000
0000
,
0000
0000
0000
0000
,
0000
0000
0000
0000
,
0200
0301
0200
1300
,
0002
0013
2000
3100
,
0001
0000
0010
0000
0000
0000
0000
0010
0000
0000
0001
0000
1000
0000
0000
0000
,
0000
0000
0100
0000
0000
0001
0000
0000
0000
0000
2000
0000
0000
0000
0000
0000
,
3010
0000
0100
0001
1000
0000
0100
0000
,
1000
0010
0001
0000
0001
0010
1000
0000
,
0020
0000
0130
0000
0001
0100
1000
0000
,
0010
0001
0100
0010
,
1000
0000
0001
0010
0100
0000
0001
0000
,
1000
0100
0001
0000
0001
0100
1000
0000
,
1200
0000
0310
0000
0010
0001
0100
0000
,
0020
0000
2030
0000
3020
0000
1030
0001
,
1000
0000
0110
0000
0001
0000
1000
0100
,
1000
0000
0110
0000
0100
0000
0001
1000
,
0001
1100
0001
1000
,
0010
0001
1000
0000
0010
1000
0100
0000
,
0001
0000
1010
0000
0100
0000
1000
0010
,
1000
0000
0101
0000
0100
0000
0001
0010
,
0001
0110
0010
0001
,
1000
0100
0010
0000
0001
0010
0100
1000
,
0010
0000
0110
0000
0100
0000
0101
0001
,
0100
0000
0110
0000
0010
0000
1010
1000
,
0100
1100
0001
0101
,
1000
0010
0100
0000
0001
0010
0001
0000
,
0100
0010
0001
0000
0010
0000
0100
1000
,
0010
0000
1000
0001
0010
0001
0100
0001
,
2000
0000
3001
0000
0010
0001
0100
1000
,
0100
0001
0010
0100
1000
0010
0001
0010
,
0100
0001
0010
0100
,
1000
0010
0000
1000
0000
0010
0000
0001
,
0100
0000
0010
0000
0000
0000
1000
0100
0000
0000
1000
0000
0000
0000
0010
0000
,
0100
0001
0000
0010
0001
0100
0010
0000
,
1000
0001
0010
1000
,
0010
0000
0100
0000
0000
0000
0001
0010
0000
0000
0001
0000
0000
0000
1000
0000
,
0010
0000
0100
0000
0000
0000
1000
0100
0000
0000
1000
0000
0000
0000
0010
0000
,
0100
0010
0001
0001
1000
0100
0100
0010
,
0001
1000
0001
0100
,
0010
0001
0000
1000
0100
0010
1000
0001
,
0100
0010
0000
0001
0010
0100
0001
1000
,
0010
0100
0000
0010
1000
0000
0001
0000
,
0101
1000
0110
1000
,
0001
0010
0000
1000
0010
0100
0000
0010
,
0100
0001
0000
0100
0001
1000
0000
0001
,
1000
0100
1000
0010
0100
0001
0010
0100
,
1000
0000
0000
0000
;

//---------------dance-double - ----------------
#NOTES:
     dance-double:
     :
     Easy:
     3:
     0.167113,0.224295,0.111893,0.000000,0.000000,115.000000,104.000000,11.000000,0.000000,0.000000,0.000000,0.167113,0.224295,0.111893,0.000000,0.000000,115.000000,104.000000,11.000000,0.000000,0.000000,0.000000:
00000000
00000000
00000000
00000000
,
00000000
00000000
00000000
00000000
,
00000000
00000000
00000000
00000000
,
00000000
00000000
00000000
00000000
,
00000000
00000000
00000000
00000000
,
01000000
00000000
00100000
00000000
,
00001000
00000000
00010000
00000000
,
00000100
00000000
00000010
00000000
,
00000001
00000000
00000100
00000000
,
00000010
00000100
00000100
00000000
,
00010000
00000000
00001000
00000000
,
00100000
01000000
01000000
00000000
,
00010000
00000000
10000000
00000000
,
00100000
01000000
01000000
00000000
,
00001000
00000000
00010000
00000000
,
00000010
00000100
00000100
00000000
,
00000001
00000000
00001000
00000000
,
00000010
00000000
00000000
00001000
,
00010000
00000000
00010000
00000000
,
01000000
00000000
10000000
00000000
,
00100000
00000000
10000000
00000000
,
01000000
00000000
00010000
00000000
,
00001000
00000000
00010000
00000000
,
00000010
00000000
00000100
00000000
,
00000010
00000100
00000100
00000000
,
00000001
00001000
00000001
00000000
,
00000010
00000100
00001000
00000000
,
00010000
00001000
00100000
00000000
,
01000000
01000000
01000000
00000000
,
00010000
00100000
01000000
00000000
,
10000000
00100000
01000000
00000000
,
01000000
00010000
00001000
00000000
,
00000100
00000100
00000100
00000100
,
00001001
00000000
00000000
00000000
,
00001001
00000000
00000000
00000000
,
00011000
00000000
00000000
00000000
,
10010000
00000000
00100000
01000000
,
10010000
00000000
00000000
00000000
,
10010000
00000000
00000000
00000000
,
00011000
00000000
00000000
00000000
,
00001001
00000000
00000010
00000100
,
00001001
00000000
00000000
00000010
,
00001000
00000000
00000000
00010000
,
01000000
00000000
00000000
01000000
,
00010000
00000000
00100000
00100000
,
10010000
00000000
00010000
00010000
,
01000000
00000000
00001000
00010000
,
00010000
00000000
00000010
00001000
,
00001000
00000000
00000010
00000010
,
00001001
00000000
00000000
00000000
;

//---------------dance-double - ----------------
#NOTES:
     dance-double:
     :
     Medium:
     6:
     0.286272,0.348903,0.071205,0.345852,0.000000,197.000000,190.000000,7.000000,34.000000,0.000000,0.000000,0.286272,0.348903,0.071205,0.345852,0.000000,197.000000,190.000000,7.000000,34.000000,0.000000,0.000000:
00000000
00000000
00000000
00000000
,
00000000
00000000
00000000
00000000
,
00000000
00000000
00000000
00000000
,
00000000
00000000
00000000
00000000
,
00000000
00000000
00000000
00000000
,
00000001
00000100
00010000
00001000
,
00010000
01000000
10000000
00100000
,
00010000
00000100
00000010
00000001
,
00000100
00000000
00001000
00000000
00010000
00001000
00100000
00000000
,
00010000
00000000
10000000
00000000
00100000
00000000
01000000
00001000
,
00010000
00001000
00010000
00000100
,
00000010
00000100
00000001
00000010
,
00001000
00000000
00010000
00001000
01000000
00000000
00010000
10000000
,
00100000
10000000
00100000
01000000
,
00001000
00010000
00000010
00000000
00001000
00000000
00000001
00000000
,
00001000
00000100
00002000
00000000
00023000
00000000
00230000
00000000
,
02300000
00000000
00000000
03000000
,
20000000
30010000
00100000
01000000
,
00020000
00031000
00000100
00000001
,
00000200
00000310
00000001
00001000
,
00000200
00001300
00010000
00100000
,
20000000
30020000
00130000
01000000
,
00020000
00032000
00013000
00001000
,
00000020
00000230
00001300
00000001
,
00000200
00020300
00031000
00100000
,
20000000
30020000
01030000
00010000
,
00020000
00032000
00013000
00010000
,
00000020
00020030
00030100
00000010
,
00000002
00000023
00002030
00103000
,
10000000
01010000
00001000
00010000
,
00000010
00001001
00000100
00001000
,
00100000
11000000
00110000
00011000
,
00002002
00000000
00000000
00003003
,
00000001
00000000
00000100
00000000
00001000
00000000
00010000
00010000
,
00001000
00000000
00100000
00000000
00010000
00000000
10000000
10000000
,
01000000
00000000
00100000
00000000
00001000
00000000
00010000
00010000
,
00000100
00000000
00001000
00001000
00000000
00000010
00000001
00000000
,
00000100
00000000
00000001
00000000
00000010
00000000
00000100
00000100
,
00010000
00000000
01000000
00000000
00100000
00000000
10000000
10000000
,
00100000
00000000
01000000
00000000
00001000
00000000
00010000
00010000
,
00000010
00000000
00001000
00001000
00000000
00000001
00000001
00000000
,
00000010
00000100
00000000
00010000
00000000
00001000
00000000
00100000
,
00000000
10000000
00000000
00010000
00000000
00100000
00000000
00001000
,
00000000
00000010
00000000
00000001
00000000
00001000
00000000
00000010
,
00020000
00032000
00203000
02300000
,
13000000
00100000
00000000
01000000
00000000
00001000
00000000
00010000
,
00001000
00010000
00000000
00000010
00000000
00001000
00000000
00000001
,
00000100
00000001
00000000
00001000
00000000
00000010
00000100
00010000
,
00200000
20300000
30020000
01030000
,
10010000
00000000
00000000
00000000
;

//---------------dance-double - ----------------
#NOTES:
     dance-double:
     :
     Hard:
     8:
     0.390900,0.448590,0.071205,0.152582,0.188184,269.000000,262.000000,7.000000,15.000000,0.000000,0.000000,0.390900,0.448590,0.071205,0.152582,0.188184,269.000000,262.000000,7.000000,15.000000,0.000000,0.000000:
00000000
00000000
00000000
00000000
,
00000000
00000000
00000000
00000000
,
00000000
00000000
00000000
00000000
,
00000000
00000000
00000000
00000000
,
00000000
00000000
00000000
00000000
,
00000000
00000000
10000000
00000000
01000000
00000000
00000000
00000000
00100000
00000000
00000000
10000000
00000000
00000000
01000000
00000000
,
00000000
00000000
00010000
00000000
00010000
00000000
00000000
00000000
00100000
00000000
00000000
00010000
00000000
00000000
01000000
00000000
,
00000000
00000000
00100000
00000000
00000000
00000000
00000000
00001000
00000000
00000000
01000000
00000000
00010000
00000000
00000000
00000000
,
00000000
00000000
00001000
00000000
00000000
00010000
00000000
00000000
00000000
00000000
00000100
00000000
00000100
00000000
00000000
00000000
,
00000000
00000000
00001000
00000001
00000000
00001000
00000000
00000010
,
00000000
00000100
00000100
00000000
00000001
00001000
00000010
00010000
,
00002000
00003000
00011000
00000000
00100000
01000000
01000000
00100000
,
00010000
00100000
00000000
00010000
00000000
00011000
00000000
00001100
,
00000000
00000000
00000010
00000001
00001000
00000100
00000010
00000000
,
00001000
00000001
00000100
00000000
00000100
00000010
00001000
00020000
,
00000000
00000000
00000000
00000000
00030000
00000000
00010000
00001000
00000000
00001000
00000000
00010000
00000000
00001000
00000000
00020000
,
00000000
00000000
00000000
00030000
01000000
00000000
00000000
00000000
00100000
00000000
00000000
00000000
10000000
00000000
00000000
00000000
,
01000000
00000000
00000000
00100000
00000000
00000000
00000000
00000000
00010000
00000000
01000000
00000000
00001000
00000000
00000000
00000000
,
00010000
00000000
00000000
00000010
00000000
00000000
00000000
00000000
00001000
00000000
00000010
00000000
00001000
00000000
00000000
00000000
,
00000100
00000000
00000000
00000001
00000000
00000000
00000000
00000000
00000010
00000000
00000000
00000000
00000100
00000000
00000000
00000000
,
00000010
00001000
00010000
00000000
00001000
00010000
01000000
00000000
,
10000000
00000000
00000000
10000000
00000000
00000000
00100000
00000000
01000000
00000000
00010000
00000000
10000000
00000000
00000000
00000000
,
00100000
00000000
00000000
00100000
00000000
00000000
10000000
00000000
00010000
00000000
01000000
00000000
00010000
00000000
00000000
00000000
,
00100000
00000000
00000000
00100000
00000000
00000000
00001000
00000000
00010000
00000000
00001000
00000000
01000000
00000000
00000000
00000000
,
00001000
00000000
00000000
00010000
00000000
00000010
00000000
00000000
00001000
00000000
00000000
00000100
00000000
00001000
00000000
00000000
,
00000001
00000000
00000000
00000001
00000000
00000000
00001000
00000000
00000100
00000000
00000010
00000000
00000001
00000000
00001000
00000000
,
00000010
00000000
00000000
00000010
00000000
00000000
00001000
00000000
00000010
00000000
00000100
00000000
00000001
00000000
00000010
00000000
,
00000100
00000000
00000000
00000100
00000000
00000000
00001000
00000000
00000010
00000000
00001000
00000000
00000010
00000000
00010000
00000000
,
00001000
00000000
00000000
00100000
00000000
00100000
00000000
00000000
00010000
00000000
00000000
01000000
00000000
01000000
00000000
00000000
,
00200000
00000000
00000000
10300000
00000000
00000000
10000000
00000000
01000000
00000000
00100000
00000000
00010000
00000000
00100000
00000000
,
02000000
00000000
00000000
13000000
00000000
00000000
10000000
00000000
00010000
00000000
01000000
00000000
00100000
00000000
10000000
00000000
,
00020000
00000000
00000000
00130000
00000000
00000000
00001000
00000000
00010000
00000000
00001000
00000000
00010000
00000000
00001000
00020000
,
00000000
00002000
00000000
00000000
00000000
00000000
00000000
00000000
00000000
00000000
00000000
00000000
00033000
00000000
00000000
00000000
,
00000020
00000000
00000000
00000000
00001030
00000000
00000100
00000001
00000000
00000000
00000001
00000000
00000010
00000000
00000010
00000000
,
00000200
00000000
00000000
00000000
00000310
00000000
00000100
00001000
00000000
00000000
00001000
00000000
00000010
00000000
00000010
00000000
,
00020000
00000000
00000000
00000000
00031000
00000000
00100000
00010000
00000000
00000000
10000000
00000000
00010000
00000000
00010000
00000000
,
01000000
00000000
00100000
10000000
00010000
01000000
00100000
00000000
,
20000000
00000000
00000000
00000000
30100000
00000000
00010000
01000000
00000000
00000000
00010000
00000000
00100000
00000000
00100000
00000000
,
02000000
00000000
00000000
00000000
13000000
00000000
00100000
00010000
00000000
00000000
00010000
00000000
00100000
00000000
00100000
00000000
,
00002000
00000000
00000000
00000000
00013000
00000000
00000010
00001000
00000000
00000000
00000001
00000000
00001000
00000000
00001000
00000000
,
00000001
00000000
00000010
00000001
00001000
00000100
00000010
00000000
,
00000001
00000100
00001000
00000000
00000100
00001000
00010000
00000000
,
00001000
00010000
00100000
00000000
00010000
00100000
10000000
00010000
,
10000000
01000000
00010000
00000000
01000000
00010000
00001000
00000000
,
00010000
00001000
00000010
00000000
00001000
00000010
00000002
00000000
,
00001003
00000010
00010000
00001000
00100000
00000000
00110000
00010000
,
10000000
01000000
00100000
00010000
10000000
00000000
01010000
01000000
,
00100000
01000000
00010000
00100000
00010000
00000000
00011000
00010000
,
00000010
00001000
00000001
00000100
00000010
00001000
00000001
00000000
,
00001001
00000000
00000000
00000000
;

//---------------dance-single - ----------------
#NOTES:
     dance-single:
     :
     Challenge:
     16:
     0.874802,0.839199,0.203442,0.040688,1.281686,602.000000,582.000000,20.000000,4.000000,0.000000,0.000000,0.874802,0.839199,0.203442,0.040688,1.281686,602.000000,582.000000,20.000000,4.000000,0.000000,0.000000:
// measure 0
0000
0000
0000
0000
,  // measure 1
0000
0000
0000
0000
,  // measure 2
0000
0000
0000
0000
,  // measure 3
0000
0000
0000
0000
,  // measure 4
0000
0000
0000
0000
,  // measure 5
0100
0001
0100
0001
1000
0010
1000
0010
0100
0001
0100
0001
1000
0010
1000
0010
,  // measure 6
0001
0100
0001
0100
1000
0010
1000
0010
0001
0100
0001
0100
1000
0010
1000
0010
,  // measure 7
0100
0000
0020
0000
0000
0000
0000
0100
0000
0000
0100
0000
0130
0000
0010
0000
,  // measure 8
0001
0000
0200
0000
0000
0010
0000
0000
0000
0000
0310
1000
0010
0100
0001
0010
,  // measure 9
0001
0000
0010
0001
0010
0000
1000
0001
0100
0000
0001
0010
0100
0000
1000
0000
,  // measure 10
0010
0000
0100
1000
0100
0000
0010
0000
0100
0010
0001
0010
0100
0000
0001
0000
,  // measure 11
1000
0100
0010
0100
1000
0000
0010
0001
0100
0000
0010
0000
1000
0000
0100
0001
,  // measure 12
0010
0000
0100
1000
0010
0000
0100
0001
0010
0000
0100
1000
0001
1000
0100
1000
,  // measure 13
0010
0000
0100
0000
0001
0010
0100
1000
0010
0000
1000
0010
0100
0001
0010
0000
,  // measure 14
0100
0000
0001
0000
1000
0000
0001
0010
0001
0000
0100
0010
1000
0100
0010
0001
,  // measure 15
0100
0000
0001
0000
0101
0000
1000
0100
0000
0101
0000
1100
0000
1010
0000
0100
,  // measure 16
0001
0010
0001
0010
0100
1000
0100
0000
0001
0100
0001
0100
0010
1000
0010
1000
,  // measure 17
0100
1000
0100
0001
0100
0000
1000
0100
1000
0000
0100
0010
0000
0001
0010
0100
,  // measure 18
1000
0010
0100
0010
1000
0000
0010
1000
0100
0000
0010
0001
0000
0001
0100
0010
,  // measure 19
1000
0100
0010
0001
0100
0000
0001
0010
0100
0000
1000
0010
0000
0100
0001
0000
,  // measure 20
0010
0001
0010
1000
0010
0000
0110
0000
0010
1000
0010
0001
0010
0000
0110
0000
,  // measure 21
0100
0001
1000
0001
0100
0000
0010
0001
0100
0000
0010
1000
0000
1000
0100
0010
,  // measure 22
0001
1000
0100
0010
0001
0000
0010
1000
0100
0000
0010
1000
0000
1000
0100
0010
,  // measure 23
0001
0100
0010
1000
0100
0000
0010
0001
0100
0000
0010
1000
0000
0001
0010
0000
,  // measure 24
0100
0001
0100
1000
0100
0000
1001
0000
0100
1000
0100
0001
0100
0000
1001
0000
,  // measure 25
0001
0010
0100
1000
0010
0000
0100
0010
1000
0000
0100
0001
0000
0100
1000
0010
,  // measure 26
0100
0001
0010
1000
0100
0000
0010
0001
0100
0000
0010
1000
0000
0100
0010
0001
,  // measure 27
0010
1000
0100
0010
0001
0000
0100
0001
0010
0000
1000
0010
0000
0100
0001
0000
,  // measure 28
1000
0100
0001
0100
1000
0000
0110
0000
0001
0010
1000
0010
0001
0000
1001
0000
,  // measure 29
1000
0100
0010
0100
1000
0000
0001
0010
0100
0010
0001
0100
0010
1000
0001
0000
,  // measure 30
0200
0000
0310
0001
0000
0100
0010
1000
0010
0100
0001
0010
0001
0100
0010
0000
,  // measure 31
0200
0000
1300
0100
0000
1000
0100
0010
0001
0100
0010
1000
0001
0010
1000
0010
,  // measure 32
0001
0100
1000
0100
0001
0100
1000
0100
0001
0100
1000
0100
0001
0100
1000
0100
,  // measure 33
0001
0010
0100
1000
0010
0000
1000
0010
0000
0000
0101
0000
0010
0100
1000
0010
,  // measure 34
0100
0001
0010
1000
0100
0000
0010
1000
0000
0000
1100
0000
1000
0010
0100
0001
,  // measure 35
0010
0001
0100
0010
1000
0000
0100
1000
0000
0000
1100
0000
0100
0010
0001
0010
,  // measure 36
0100
1000
0100
0001
0100
1000
0100
0001
0100
1000
0100
0001
0100
1000
0100
0001
,  // measure 37
1000
0100
0010
0100
1000
0100
0010
0100
0001
0100
0010
0100
0001
0100
0010
0100
,  // measure 38
1000
0100
0001
0100
1000
0100
0001
0100
0001
0100
1000
0100
0001
0100
1000
0100
,  // measure 39
0001
0010
1000
0010
0001
0010
1000
0010
0001
0010
1000
0010
0001
0010
1000
0010
,  // measure 40
0001
0010
0100
1000
0010
0100
0001
0010
0100
1000
0010
0100
0001
0010
0100
1000
,  // measure 41
0010
0001
0100
0010
1000
0000
0010
1000
0000
0000
1010
0000
0010
0001
1000
0001
,  // measure 42
0010
1000
0010
0001
0010
0000
0001
0100
0000
0000
0101
0000
1000
0100
0010
0001
,  // measure 43
0100
0010
1000
0010
0001
0000
0010
0001
0000
0000
1001
0000
1000
0100
0001
0010
,  // measure 44
0100
1000
0100
0001
0100
1000
0100
0001
0100
1000
0100
0001
0100
1000
0100
0001
,  // measure 45
0100
0010
0001
0010
1000
0000
0010
1000
0000
0000
1010
0000
0010
0001
1000
0001
,  // measure 46
0010
0001
0100
0010
1000
0000
0010
1000
0000
0000
1010
0000
0001
0010
1000
0100
,  // measure 47
0010
0001
0100
0010
1000
0000
0010
1000
0000
0000
1001
0000
0001
0100
0010
1000
,  // measure 48
0010
0001
0010
1000
0010
0001
0010
1000
0010
0001
0010
1000
0010
0001
0010
1000
,  // measure 49
0010
0001
0100
0010
1000
0000
0100
1000
0000
0000
1100
0000
1000
0100
0010
0001
,  // measure 50
0100
0000
0000
0000
;
