#TITLE:U Can't Touch This;
#SUBTITLE:;
#ARTIST:MC Hammer;
#TITLETRANSLIT:;
#SUBTITLETRANSLIT:;
#ARTISTTRANSLIT:;
#GENRE:;
#CREDIT:;
#BANNER:U Can't Touch This.png;
#BACKGROUND:U Can't Touch This-bg.png;
#LYRICSPATH:;
#CDTITLE:;
#MUSIC:U Can't Touch This.ogg;
#OFFSET:0.000000;
#SAMPLESTART:10.760000;
#SAMPLELENGTH:15.000000;
#SELECTABLE:YES;
#DISPLAYBPM:134.000000;
#BPMS:0.000000=133.828995
,4.000000=133.391006
,157.000000=133.445999
;
#STOPS:157.000000=1.353000
;
#BGCHANGES:;
#KEYSOUNDS:;
#ATTACKS:;

//---------------dance-single - ----------------
#NOTES:
     dance-single:
     :
     Beginner:
     2:
     0.094262,0.128365,0.009293,0.000000,0.000000,71.000000,70.000000,1.000000,0.000000,0.000000,0.000000,0.094262,0.128365,0.009293,0.000000,0.000000,71.000000,70.000000,1.000000,0.000000,0.000000,0.000000:
0000
0000
0000
0000
,
0000
0000
0000
0000
,
0000
0000
0000
0000
,
0000
0000
0000
0000
,
1000
0000
0000
0000
,
0001
0000
0000
0000
,
1000
0000
0000
0000
,
0100
0000
0000
0000
,
0100
0000
0000
0000
,
0010
0000
0000
0000
,
0010
0000
0000
0000
,
0001
0000
0000
0000
,
0001
0000
0000
0000
,
1000
0000
0000
0000
,
1000
0000
1000
0000
,
0010
0000
0000
0000
,
0001
0000
0001
0000
,
0010
0000
0000
0000
,
1000
0000
0000
0000
,
1000
0000
1000
0000
,
1000
0000
0000
0000
,
0001
0000
0001
0000
,
0001
0000
0000
0000
,
0010
0000
0010
0000
,
0010
0000
0000
0000
,
0100
0000
0100
0000
,
0100
0000
0000
0000
,
1000
0000
0000
0000
,
0001
0000
0000
0000
,
1000
0000
0001
0000
,
0100
0000
0000
0000
,
0010
0000
1000
0000
,
0001
0000
0000
0000
,
1000
0000
0000
0000
,
0100
0000
0000
0000
,
0010
0000
0000
0000
,
0001
0000
0001
0000
,
1000
0000
1000
0000
,
0001
0000
1000
0000
,
0001
0000
0000
0001
,
0000
0100
0000
0001
,
0000
0000
0000
0100
,
0000
1000
0000
0100
,
0000
0000
0000
0010
,
0000
0001
0000
0010
,
0000
0000
0000
1000
,
0000
0010
0000
1000
,
0000
1000
0000
0010
,
0000
0100
0000
0000
,
0000
0001
0000
0010
,
0000
0100
0000
0000
,
0000
0010
0000
0000
,
0000
0100
0000
0000
,
0000
0010
0000
0000
,
0000
0100
0000
0000
,
0000
1001
0000
0000
,
0000
0000
0000
0000
;

//---------------dance-single - ----------------
#NOTES:
     dance-single:
     :
     Easy:
     3:
     0.161971,0.256731,0.037174,0.018587,0.000000,122.000000,118.000000,4.000000,2.000000,0.000000,0.000000,0.161971,0.256731,0.037174,0.018587,0.000000,122.000000,118.000000,4.000000,2.000000,0.000000,0.000000:
0000
0000
0000
0000
,
0000
0000
0000
0000
,
0000
0000
0000
0000
,
0000
0000
0000
0000
,
0000
0010
0000
0100
,
0001
1000
0001
1001
,
1000
0000
0001
0000
,
1000
0000
0010
0000
,
0100
0000
0100
0100
,
0000
0010
0000
1000
,
0001
0000
1000
0000
,
0100
0000
0010
0000
,
0001
0000
0001
0001
,
0000
1000
0000
0000
,
0000
0001
0000
0100
,
0000
1000
0000
0000
,
0000
1000
0000
0100
,
0000
0001
0000
0000
,
0010
0010
0000
1000
,
0000
0001
0000
1000
,
0100
0000
0010
0000
,
0001
0000
0100
0000
,
0010
0000
0010
0010
,
0000
0100
0000
0001
,
1000
0000
0001
0000
,
0010
0000
0100
0000
,
1000
0000
1000
1000
,
0000
0001
0000
0000
,
0000
1000
0000
0010
,
0000
0001
0000
0000
,
0000
0001
0000
0010
,
0000
2000
0000
3000
,
0000
0100
0000
0010
,
0000
0100
0000
0010
,
0000
0001
0000
0001
,
0000
1000
0000
1000
,
0010
0010
0010
0010
,
0100
0100
0100
0100
,
0010
0010
0010
0010
,
0010
0110
0000
0100
,
0000
0010
0010
0010
,
0000
0100
0000
0010
,
0000
0100
0100
0100
,
0000
1000
0000
0001
,
0000
1000
1000
1000
,
0000
0001
0000
1000
,
0000
0001
0001
0001
,
0000
0100
0000
1000
,
0000
0100
0000
0001
,
0000
0100
0100
0100
,
0100
0100
0000
1001
,
0000
0000
0001
0000
,
1000
0000
0001
0000
,
1000
0010
0010
0010
,
0010
0200
0000
0300
,
0000
1001
0000
0000
,
0000
0000
0000
0000
;

//---------------dance-single - ----------------
#NOTES:
     dance-single:
     :
     Medium:
     6:
     0.280130,0.359423,0.167282,0.083641,0.000000,211.000000,193.000000,18.000000,9.000000,0.000000,0.000000,0.280130,0.359423,0.167282,0.083641,0.000000,211.000000,193.000000,18.000000,9.000000,0.000000,0.000000:
0000
0000
0000
0000
,
0000
0000
0000
0000
,
0000
0000
0000
0000
,
0000
0000
0000
0000
,
0100
0000
0001
0000
1000
0010
0010
0000
,
0100
0100
0100
0110
,
0100
0000
0010
0000
0000
1000
0001
0000
,
1000
0001
0010
0100
,
1000
0000
0001
0100
,
0010
0001
0010
1000
,
0001
0000
0010
0100
,
1000
0010
0100
0010
,
1000
0000
0001
1000
,
0100
0000
0010
0000
0000
0001
1000
0000
,
0010
0000
1000
0000
0100
0000
0000
0001
,
0100
0000
0000
1000
0020
0000
0030
0000
,
0100
0000
0001
0000
0010
0000
0000
1000
,
0010
0000
0000
0001
0200
0000
0300
0000
,
0010
0000
2000
0000
3000
0001
1000
0000
,
0100
0001
0100
1000
,
0002
0003
0100
0010
,
1000
0100
1000
0001
,
0020
0030
0100
1000
,
0010
0100
0001
0100
,
0020
0000
0030
0000
0000
0100
0010
0000
,
1000
0100
0010
0100
,
2000
3000
0010
0100
,
0001
0000
1000
1000
0000
0001
0001
0000
,
0010
0000
0001
0000
0100
0000
0000
1000
,
0100
0000
0000
0001
0020
0000
0000
0000
,
0130
0000
1000
0000
0010
0000
0000
0001
,
0010
0000
0000
1000
0200
0000
0300
0000
,
0010
0001
1000
0100
,
0001
0100
1000
0010
,
0100
0001
0010
0100
,
0001
0100
0010
0001
,
1000
0010
0100
1000
,
0100
0001
0010
0100
,
1000
0010
0100
0001
,
1000
1001
0101
1100
,
0000
1000
0011
1010
,
0001
1000
0101
0011
,
1000
0001
1100
1010
,
0000
0000
0001
0000
0100
0000
0010
1000
,
0000
0100
0010
0001
,
0000
0000
1000
0000
0100
0000
0010
0001
,
0000
0110
1001
0110
,
0000
0010
0001
0100
,
0000
1000
0100
0000
0001
0000
0010
0000
,
0000
0000
1000
0001
1000
0000
0010
0001
,
1000
0010
0100
1001
,
0000
0010
0100
1000
,
0010
0001
0011
1000
,
1100
0010
0001
1000
,
0100
0001
0100
1000
,
0110
1001
0000
0000
,
0000
0000
0000
0000
;

//---------------dance-single - ----------------
#NOTES:
     dance-single:
     :
     Hard:
     10:
     0.451395,0.462115,0.381030,0.232336,0.027880,340.000000,299.000000,41.000000,25.000000,0.000000,0.000000,0.451395,0.462115,0.381030,0.232336,0.027880,340.000000,299.000000,41.000000,25.000000,0.000000,0.000000:
0000
0000
0000
0000
,
0000
0000
0000
0000
,
0000
0000
0000
0000
,
0000
0000
0000
0000
,
0010
0000
1000
0001
0010
0100
0100
0000
,
1001
0110
1001
0110
,
1001
0100
0010
0100
0000
0001
1000
0000
,
0010
0100
0001
0000
1001
0100
1001
0000
,
1000
0100
0000
0001
0100
1000
0010
0100
,
1000
0100
0001
1000
0100
0100
0100
0000
,
2001
0000
3100
0000
0010
0001
1000
0000
,
0010
1000
0100
0001
0100
1000
0001
0000
,
2001
0000
3010
0000
0100
0001
0010
0000
,
1000
0001
0010
0100
0000
1000
0001
0000
,
1001
0000
1000
0010
0100
0001
0001
0000
,
2000
0000
3000
0002
0000
0013
0010
0010
,
1001
0000
0001
0010
0100
1000
1000
0000
,
0002
0000
0003
2000
0000
3010
0010
0010
,
1001
0100
0010
0000
0000
1000
0100
0000
,
0010
0100
1000
0001
0100
0100
0100
0000
,
2010
0000
3001
0000
1000
0100
0010
0000
,
0100
1000
0010
0100
0001
0010
0010
0000
,
2100
0000
3001
0000
0010
0001
0100
0000
,
0010
0100
0001
1000
0100
0100
0100
0000
,
0012
0000
1003
0000
0010
1000
0100
0000
,
0001
0100
1000
0001
0100
0010
0010
0000
,
0102
0000
1003
0000
0100
1000
0010
0000
,
0100
1000
0100
0001
0000
1100
0101
0000
,
1000
0000
0010
0100
0001
1000
1000
0000
,
0020
0000
0030
0200
0000
0301
0010
0001
,
1000
0000
0100
0010
0001
1000
1000
0000
,
0200
0000
0000
0310
0000
0110
1001
0000
,
1000
0000
1000
0000
0100
0000
0000
0002
0000
0000
0100
0000
0103
0000
0000
2000
,
0000
0000
0100
0000
3100
0000
0000
0002
0000
0000
0100
0000
0103
0000
0000
0000
,
1000
0000
1000
0000
0010
0000
0000
0002
0000
0000
0010
0000
0013
0000
0000
2000
,
0000
0000
0010
0000
3010
0000
0000
0002
0000
0000
0010
0000
1003
0000
0000
0000
,
0010
0100
0010
0100
0010
0100
0010
0100
,
0001
1000
0001
1000
0001
1000
0001
0000
,
1001
1100
1001
0101
,
0110
1001
0110
1001
,
0000
0001
1000
0010
0100
0010
1000
0000
,
0001
0010
0100
0000
0010
0001
1000
0000
,
0100
0010
0100
1000
0001
0010
0100
1000
,
1000
0101
1100
0101
,
0000
1010
0011
1010
,
0000
0100
1000
0010
0100
0001
1000
1000
,
0000
0100
1001
0000
0110
0000
1001
0000
,
0100
1000
0010
0001
0010
0100
1000
0000
,
0100
0001
0010
1000
0010
0100
0001
0000
,
1001
0000
0001
0010
0010
1000
0010
0010
,
0001
0010
0010
1000
0001
1000
1001
0000
,
0110
2000
3200
0302
,
0023
0000
0032
0000
0203
0000
1300
0100
,
0001
0010
0100
0000
1000
0010
0001
0000
,
0010
0100
0001
0000
0010
0100
1000
0001
,
1000
0001
1001
0000
0000
0000
0000
0000
,
0000
0000
0000
0000
;

//---------------dance-double - ----------------
#NOTES:
     dance-double:
     :
     Easy:
     3:
     0.160643,0.256731,0.055761,0.018587,0.000000,121.000000,115.000000,6.000000,2.000000,0.000000,0.000000,0.160643,0.256731,0.055761,0.018587,0.000000,121.000000,115.000000,6.000000,2.000000,0.000000,0.000000:
00000000
00000000
00000000
00000000
,
00000000
00000000
00000000
00000000
,
00000000
00000000
00000000
00000000
,
00000000
00000000
00000000
00000000
,
00000000
00001000
00000000
00010000
,
00001000
00010000
00001000
00011000
,
00010000
00000000
00100000
00000000
,
01000000
00000000
10000000
00000000
,
01000000
00000000
01000000
01000000
,
00000000
00010000
00000000
00001000
,
00010000
00000000
00001000
00000000
,
00000100
00000000
00000001
00000000
,
00000010
00000000
00000010
00000010
,
00000000
00001000
00000000
00000000
,
00000000
00100000
00000000
01000000
,
00000000
00100000
00000000
00000000
,
00000000
10000000
00000000
00010000
,
00000000
10000000
00000000
00000000
,
00010000
00010000
00000000
00100000
,
00000000
00001000
00000000
00010000
,
00001000
00000000
00000100
00000000
,
00000010
00000000
00000100
00000000
,
00000001
00000000
00000001
00000001
,
00000000
00000010
00000000
00000100
,
00000110
00000000
00000000
00000110
,
00000000
00001000
00000000
00010000
,
00001000
00000000
00100000
00100000
,
00000000
00010000
00000000
00000000
,
00000000
01000000
00000000
00100000
,
00000000
01000000
00000000
00000000
,
00000000
00001000
00000000
00010000
,
00000000
00002000
00000000
00003000
,
00000000
00010000
00000000
00001000
,
00000000
00010000
00000000
00001000
,
00000000
00010000
00000000
00001000
,
00000000
00010000
00000000
00000000
,
00000100
00000100
00000100
00000100
,
00000010
00000010
00000010
00000010
,
00000100
00000100
00000100
00000100
,
00000010
00000110
00000000
00000001
,
00000000
00001000
00000001
00001000
,
00000000
00000100
00000000
00010000
,
00000000
00001000
00010000
00001000
,
00000000
00100000
00000000
00010000
,
00000000
10000000
00010000
10000000
,
00000000
00100000
00000000
01000000
,
00000000
00001000
00010000
00001000
,
00000000
00010000
00000000
00000100
,
00000000
00001000
00000000
00000001
,
00000000
00000100
00000000
00001000
,
00000000
00010000
00000000
00011000
,
00000000
00000000
00010000
00000000
,
00001000
00000000
00010000
00000000
,
00001000
00100000
00100000
00100000
,
00100000
02000000
00000000
03000000
,
00000000
10010000
00000000
00000000
,
00000000
00000000
00000000
00000000
;

//---------------dance-double - ----------------
#NOTES:
     dance-double:
     :
     Medium:
     6:
     0.289424,0.333750,0.241629,0.000000,0.000000,218.000000,192.000000,26.000000,0.000000,0.000000,0.000000,0.289424,0.333750,0.241629,0.000000,0.000000,218.000000,192.000000,26.000000,0.000000,0.000000,0.000000:
00000000
00000000
00000000
00000000
,
00000000
00000000
00000000
00000000
,
00000000
00000000
00000000
00000000
,
00000000
00000000
00000000
00000000
,
10000000
01000000
00010000
00001000
,
00011000
00011000
00011000
00011000
,
00001000
00000100
00000001
00000010
,
00000001
00000000
00000100
00000000
00000010
00001000
00000100
00000000
,
00010000
00001000
00100000
00010000
,
10000000
00000000
01000000
00000000
00100000
00010000
01000000
00000000
,
00100000
00010000
00001000
00000100
,
00001000
00000000
00010000
00000000
01000000
00010000
00001000
00000000
,
00010000
00001000
00000100
00000010
,
00001000
00000000
00000001
00000000
00001000
00000001
00001000
00000000
,
00000100
00000000
00001000
00000000
00001010
00000000
00000000
00010000
,
00001000
00000000
00000000
01000000
00010000
00000000
10000000
00000000
,
01000000
00000000
00100000
00000000
00110000
00000000
00000000
00001000
,
00010000
00000000
00000000
00000100
00001000
00000000
00000000
00000000
,
00000010
00000100
00000001
00000001
,
00001000
00000000
00000100
00000000
00010000
00001000
00010000
00000000
,
00001000
01000000
00100000
00100000
,
10000000
00000000
00010000
00000000
01000000
00100000
01000000
00000000
,
00001000
00010000
00000100
00000100
,
00001000
00000000
00000001
00000000
00000010
00000100
00000010
00000000
,
00000110
00000000
00000000
00000110
,
00001000
00000100
00010000
00010000
,
00001000
00000000
00010000
00000000
00001000
00010000
00001000
00000000
,
00100000
00010000
00110000
00000000
,
01000000
00000000
10000000
00000000
00010000
00000000
00000000
00100000
,
00001000
00000000
00000000
00010000
00000100
00000000
00000000
00000000
,
00001000
00000000
00000001
00000000
00000010
00000000
00000000
00000100
,
00010000
00000000
00000000
00001000
00010000
00000000
00000000
00000000
,
00010000
00000000
10010000
00000000
,
00010000
00000000
00011000
00000000
,
00001000
00000000
00001001
00000000
,
00001000
00000000
00011000
00000000
,
00100000
00100000
00100000
00100000
,
00100000
00010000
00001000
00000100
,
00000010
00000010
00000010
00000010
,
00000010
00000110
00000001
00001000
,
00000001
00000100
00000010
00000110
,
00000000
00000000
00010000
00000000
00001000
00000000
00010000
00100000
,
00010000
01000000
00100000
01100000
,
00000000
00000000
10000000
00000000
00010000
00000000
01000000
00100000
,
00000000
00011000
00001100
00000110
,
00000000
00000000
00000001
00000000
00001000
00000000
00000100
00000010
,
00000000
00001000
00010000
01000000
,
01100000
00100000
00010000
01000000
,
00000000
00100000
10000000
00000000
00000000
00010000
00100000
00000000
,
00001000
00000000
00010000
00001000
00010000
00000000
00001000
00010000
,
00001000
00010000
00001000
00011000
,
00001000
00000000
00001001
00000000
,
00001000
00000000
00011000
00000000
,
00010000
00000000
10010000
00000000
,
00010000
00000000
00011000
00000000
,
00001000
00001001
00000000
00000000
,
00000000
00000000
00000000
00000000
;

//---------------dance-double - ----------------
#NOTES:
     dance-double:
     :
     Hard:
     10:
     0.446084,0.462115,0.473964,0.195162,0.051114,336.000000,285.000000,51.000000,21.000000,0.000000,0.000000,0.446084,0.462115,0.473964,0.195162,0.051114,336.000000,285.000000,51.000000,21.000000,0.000000,0.000000:
00000000
00000000
00000000
00000000
,
00000000
00000000
00000000
00000000
,
00000000
00000000
00000000
00000000
,
00000000
00000000
00000000
00000000
,
00000100
00000000
00010000
00001000
00000100
00000010
00000010
00000000
,
00001010
00000101
00001010
00000101
,
00000010
00000001
00000100
00000010
00000000
00001000
00000100
00000000
,
00010000
00001000
00000100
00000000
00001000
00010000
01000000
00000000
,
00100000
01000000
00000000
00010000
01000000
10000000
00100000
00000000
,
01000000
00010000
10000000
01000000
00010000
00001000
00010000
00000000
,
01001000
00000000
00011000
00000000
00000010
00010000
00001000
00000000
,
00010000
00000100
00001000
00000010
00000100
00000001
00000001
00000000
,
00000011
00000000
00001001
00000000
00000000
00000010
00001000
00000000
,
00000001
00000100
00001000
00010000
00000000
00011000
00011000
00000000
,
00010000
00000000
00001000
00100000
00010000
01000000
01000000
00000000
,
00100000
10000000
10000000
00000000
20020000
00000000
30030000
00000000
,
00010000
00000000
00100000
00001000
00010000
00000100
00000100
00000000
,
00000010
00000001
00000001
00000000
00002002
00000000
00003003
00000000
,
00000001
00000100
00000010
00000000
00000000
00000100
00001000
00000000
,
00010000
00100000
00010000
00001000
00100000
00010000
00100000
00000000
,
00110000
00000000
10010000
00000000
01000000
00010000
00100000
00000000
,
01000000
10000000
00100000
01000000
00001000
00010000
00001000
00000000
,
00011000
00000000
00010100
00000000
00001000
00000100
00000010
00000000
,
00000001
00000100
00000010
00001000
00000001
00000010
00000100
00000000
,
00001100
00000000
00010100
00000000
00000000
00011000
00011000
00000000
,
01000000
00010000
00100000
01000000
10000000
00010000
00010000
00000000
,
10100000
00000000
10010000
00000000
01000000
00010000
00100000
00000000
,
00001000
00010000
00000100
00001000
00000000
00001001
00001001
00000000
,
00001000
00000000
00000001
00000100
00000010
00001000
00000100
00000000
,
00000010
00000100
00001000
00000000
00022000
00000000
00033000
00000000
,
00010000
00000000
00100000
00010000
10000000
01000000
00100000
00000000
,
00010000
01000000
00100000
00000000
00000000
01100000
01100000
00000000
,
10000000
00000000
00100000
00000000
00010000
00000000
00000000
00002000
00000000
00000000
00003100
00000000
00001000
00000000
00000000
00020000
,
00000000
00000000
00130000
00000000
00010000
00000000
00000000
00002000
00000000
00000000
00003100
00000000
00000001
00000000
00000010
00000000
,
00000001
00000000
00000100
00000000
00001000
00000000
00000000
00020000
00000000
00000000
01030000
00000000
00010000
00000000
00000000
00002000
,
00000000
00000000
00003010
00000000
00001000
00000000
00000000
00020000
00000000
00000000
01030000
00000000
10000000
00000000
01000000
00000000
,
00100000
00000000
00010000
00000000
01000000
00000000
00000000
01001000
00000000
00000000
00010000
00000000
00001000
00000000
00000000
00010100
,
00000000
00000000
00001000
00000000
00010000
00000000
00000000
01001000
00000000
00000000
00010000
00000000
00000100
00000000
00010000
00000000
,
00000010
00000000
00001000
00000000
00000100
00000000
00000000
00010100
00000000
00000000
00001000
00000000
00010000
00000000
00000000
01001000
,
00000000
00010000
00001000
00000000
00001100
00000000
00000101
00000000
,
00000010
00001000
00000100
00001000
00000001
00001000
00000010
00000000
,
00000000
00000100
00001000
00000000
00010000
00001000
00000100
00000000
,
00001000
00010000
00000100
00010000
00001000
00100000
00010000
01000000
,
01000000
10100000
01100000
01010000
,
00000000
00101000
00011000
00010010
,
00000000
00001100
00000110
00000011
,
00000000
00001001
00000110
00001001
,
00000000
00000010
00001000
00000001
00001000
00000100
00010000
00000000
,
00001000
00100000
00010000
10000000
00010000
01000000
00001000
00000000
,
00011000
00000000
00000100
00010000
00001000
01000000
00010000
10000000
,
01000000
00100000
00001000
00010000
00000010
00000100
00000002
00000000
,
00001003
00002001
00003200
00020300
,
00032000
02003000
03020000
10030000
,
10010000
00000000
10000000
00000000
01000000
00100000
00010000
00000000
,
01000000
00100000
00010000
00000000
00001000
00000000
00022000
00000000
,
00033000
00011000
00000000
00000000
,
00000000
00000000
00000000
00000000
;

//---------------dance-single - ----------------
#NOTES:
     dance-single:
     :
     Challenge:
     17:
     0.945274,0.993234,0.994396,0.009293,1.212791,712.000000,605.000000,107.000000,1.000000,252.000000,0.000000,0.945274,0.993234,0.994396,0.009293,1.212791,712.000000,605.000000,107.000000,1.000000,252.000000,0.000000:
// measure 0
0000
0000
0000
0000
,  // measure 1
0000
0000
0000
0000
,  // measure 2
0000
0000
0000
0000
,  // measure 3
0000
0000
0000
0000
,  // measure 4
0100
0000
MMMM
0001
0100
0000
1010
0000
MMMM
0000
0011
0000
0110
0000
0000
0000
,  // measure 5
1100
1100
1100
0000
0101
0101
0101
0000
0110
0110
0110
0000
1001
1001
1001
0000
,  // measure 6
1000
0010
0100
0001
1000
0100
0010
0000
MMMM
0000
0001
0010
1100
0000
MMMM
0000
,  // measure 7
0010
0001
0100
0010
1000
0000
MMMM
0000
0001
0010
0100
1000
1010
1010
1010
0000
,  // measure 8
1000
0010
0001
0100
1000
0000
0001
0100
1000
0100
0010
0000
MMMM
0000
0001
0010
,  // measure 9
0100
0000
1000
0001
0100
0000
0010
0100
0001
1000
0010
0100
0110
0110
0110
0000
,  // measure 10
1001
0000
MMMM
0001
0100
0000
1000
0010
0100
0000
0011
0000
1001
0000
MMMM
1000
,  // measure 11
0100
0000
0110
0000
0011
0000
1001
0000
1100
0000
0110
0000
0010
0001
0100
0010
,  // measure 12
0110
0000
0000
0000
1100
0000
MMMM
0000
1010
0000
0010
1000
0100
0000
0010
0001
,  // measure 13
0100
0000
0110
0000
1010
0000
1001
0000
0101
0000
0001
0010
0100
1000
0010
0000
,  // measure 14
1000
0010
1000
0010
0100
0001
0100
0001
1000
0010
1000
0010
0100
0001
0100
0001
,  // measure 15
1000
0100
0001
0100
1000
0100
0001
0100
1010
0000
0101
0000
1100
0000
0011
0000
,  // measure 16
0001
0010
0001
0010
0100
1000
0100
1000
0001
0010
0001
0010
0100
1000
0100
1000
,  // measure 17
0001
0010
1000
0010
0001
0010
1000
0010
0101
0000
1010
0000
1100
0000
0011
0000
,  // measure 18
1000
0100
0010
0100
1000
0001
0010
0000
1000
0000
0101
0101
0101
0000
MMMM
1000
,  // measure 19
0100
0010
0100
1000
0001
0010
0100
1000
0010
0000
0100
0000
0001
0010
0100
1000
,  // measure 20
0010
0000
0000
0000
0101
0000
MMMM
0000
1100
0110
1100
0110
1100
0000
0000
1000
,  // measure 21
0100
0000
0010
1000
0001
0000
0101
0000
0010
0000
0100
0000
0001
0010
0100
1000
,  // measure 22
0010
0000
0000
0000
0101
0000
0000
0000
MMMM
MMMM
MMMM
MMMM
MMMM
MMMM
MMMM
MMMM
MMMM
0000
0000
0000
1000
0000
0001
0000
0110
0000
0000
0000
MMMM
0000
0000
0000
,  // measure 23
0010
0100
0001
1000
0100
0010
1000
0001
0010
0100
0001
1000
0100
0010
0001
1000
,  // measure 24
0010
0000
0000
0000
MMMM
MMMM
MMMM
MMMM
MMMM
MMMM
MMMM
MMMM
MMMM
MMMM
MMMM
MMMM
MMMM
0000
0000
0000
0001
0100
0000
0000
0001
0100
0000
0000
0000
0000
0000
0000
,  // measure 25
1000
0010
0001
0100
1000
0010
0100
0001
1000
0100
0001
0010
1000
0100
0010
0001
,  // measure 26
0100
0000
0000
0000
MMMM
MMMM
MMMM
MMMM
MMMM
MMMM
MMMM
0000
0000
0000
0010
0000
1000
0000
0000
0000
0011
0000
0000
0000
1100
0000
0000
0000
0001
0000
1000
0000
,  // measure 27
0100
0000
0010
1000
0001
0000
0101
0000
MMMM
0000
1000
0100
1010
0000
MMMM
0000
,  // measure 28
0001
0010
1000
0100
0001
0010
0100
1000
0001
0100
1000
0010
0001
0100
0010
1000
,  // measure 29
0100
0000
0101
0000
1010
0000
0011
0000
1100
0000
0110
0010
0100
1001
0100
0000
,  // measure 30
0100
0010
0001
1000
0010
0100
0001
0010
0100
1000
0001
0100
0010
1000
0100
0010
,  // measure 31
1000
0000
0010
0000
0100
0000
0001
0000
MMMM
0000
0010
0010
1001
0000
MMMM
0000
,  // measure 32
1000
0000
0000
0100
0000
0000
0010
0000
0000
0100
0000
0000
1000
0000
0000
0010
0000
0000
0100
0000
0010
0000
0001
0000
0010
0000
0100
0000
1000
0000
0010
0000
0000
0100
0000
0000
0001
0000
0000
0100
0000
0000
1000
0000
0010
0000
0100
0000
,  // measure 33
0001
0000
0010
0000
0100
0000
1000
0000
0000
0100
0000
0000
0010
0000
0000
0001
0000
0000
1000
0000
0010
0000
0100
0000
0001
0000
1000
0000
0100
0000
0010
0000
0000
0001
0000
0000
0110
0000
0000
0000
0000
0000
MMMM
0000
0000
0000
0000
0000
,  // measure 34
0010
0000
0000
0100
0000
0000
0001
0000
0000
1000
0000
0000
0100
0000
0000
0010
0000
0000
0100
0000
0010
0000
1000
0000
0001
0000
0010
0000
0100
0000
1000
0000
0000
0010
0000
0000
0100
0000
0000
0001
0000
0000
1000
0000
0010
0000
0001
0000
,  // measure 35
0100
0000
1000
0000
0100
0000
0010
0000
0000
0001
0000
0000
0100
0000
0000
0010
0000
0000
1000
0000
0010
0000
0100
0000
0001
0000
1000
0000
0100
0000
0010
0000
0000
0001
0000
0000
1100
0000
0000
0000
0000
0000
MMMM
0000
0000
0000
0000
0000
,  // measure 36
1000
0000
0000
0010
0000
0000
0100
0000
0000
0001
0000
0000
1000
0000
0000
0100
0000
0000
0010
0000
0001
0000
0100
0000
0010
0000
1000
0000
0100
0000
0010
0000
0000
0001
0000
0000
0100
0000
0000
0010
0000
0000
1000
0000
0100
0000
0010
0000
,  // measure 37
0001
0000
0010
0000
0100
0000
1000
0000
0000
0010
0000
0000
0001
0000
0000
0100
0000
0000
0001
0000
0010
0000
0100
0000
1000
0000
0100
0000
0010
0000
0001
0000
0000
0100
0000
0000
1010
0000
0000
0000
0000
0000
MMMM
0000
0000
0000
0000
0000
,  // measure 38
1000
0000
0000
0010
0000
0000
0100
0000
0000
0001
0000
0000
1000
0000
0000
0100
0000
0000
0010
0000
0100
0000
1000
0000
0100
0000
0010
0000
0001
0000
0010
0000
0000
0001
0000
0000
0100
0000
0000
0010
0000
0000
1000
0000
0010
0000
0100
0000
,  // measure 39
0001
0000
0000
0000
0000
0000
0000
0000
0010
0000
0000
0000
0000
0000
0000
0000
0100
0000
0000
0000
0000
0000
0000
0000
1000
0000
0000
0000
0000
0000
0000
0000
0000
0000
0000
0000
0010
0000
0000
0000
0000
0000
0000
0000
0000
0000
0000
0000
0011
0001
0000
0000
0000
0000
0000
0000
0000
0000
0000
0000
0000
0000
0000
0000
0000
0000
0000
0000
0000
0000
0000
0000
0010
0000
0000
0000
0000
0000
0000
0000
0000
0000
0000
0000
0000
0000
0000
0000
0000
0000
0000
0000
0000
0000
0000
0000
0001
0000
0000
0000
0000
0000
0000
0000
0000
0000
0000
0000
0000
0000
0000
0000
0000
0000
0000
0000
0000
0000
0000
0000
0100
0000
0000
0000
0000
0000
0000
0000
0000
0000
0000
0000
0000
0000
0000
0000
0000
0000
0000
0000
0000
0000
0000
0000
0001
0000
0000
0000
0000
0000
0000
0000
0000
0000
0000
0000
0000
0000
0000
0000
0000
0000
0000
0000
0000
0000
0000
0000
1100
0000
0000
0000
0000
0000
0000
0000
0000
0000
0000
0000
0000
0000
0000
0000
0000
0000
0000
0000
0000
0000
0000
0000
,  // measure 40
MMMM
1000
0010
0100
0001
1000
0100
0010
,  // measure 41
0100
0001
0010
0001
0100
0000
0000
0000
0110
0000
MMMM
0000
1001
0000
0000
0000
,  // measure 42
1010
0000
0110
0000
0100
0001
1000
0000
0010
0100
0001
1000
0100
0000
0110
0000
,  // measure 43
0010
1000
0001
0010
0100
0000
MMMM
0000
1000
0100
0010
0000
0101
0000
0011
0000
,  // measure 44
MMMM
0000
1000
0010
0001
0000
0100
0010
1000
0000
0001
0010
1100
0000
0110
0000
,  // measure 45
1010
1010
1010
0000
0100
0010
0001
1000
0010
0100
0001
0000
0011
0000
MMMM
0000
,  // measure 46
0001
0100
0010
1000
0100
0000
MMMM
0000
0110
0000
MMMM
0000
1001
0000
0101
0000
,  // measure 47
1000
0100
0010
0100
1000
0000
0010
0000
0011
1010
0101
0110
1001
0000
MMMM
0000
,  // measure 48
1000
0010
0100
0001
0010
0000
0011
0000
0101
0000
1100
0000
1000
0100
0001
0100
,  // measure 49
1000
0000
MMMM
0000
0010
0100
0001
0000
1000
0100
0010
0000
0001
0010
0100
1000
,  // measure 50
0010
0100
0001
1000
0100
0010
0001
0010
0100
1000
0010
0100
0001
0010
0100
1000
,  // measure 51
0001
1000
0100
0010
0001
0000
MMMM
0000
0101
0000
MMMM
0000
1010
0000
MMMM
0000
,  // measure 52
1100
0000
MMMM
0000
1001
0000
MMMM
0000
0110
0000
0100
0100
1001
0000
0011
0000
,  // measure 53
1000
0010
0100
0001
0010
0100
1000
0000
MMMM
0000
1000
0100
0010
0000
0001
0100
,  // measure 54
0010
0000
1000
0001
0010
0100
0001
1000
0100
0000
0110
0000
1001
0000
0001
0100
,  // measure 55
0010
1000
0100
0000
0120
0000
0000
0000
1000
0000
0000
0000
0001
0000
0000
0000
,  // measure 56
1000
0031
0000
0000
;
