#TITLE:Two Months Off;
#SUBTITLE:;
#ARTIST:TECHNO MASTERS;
#TITLETRANSLIT:;
#SUBTITLETRANSLIT:;
#ARTISTTRANSLIT:;
#GENRE:;
#CREDIT:;
#BANNER:Two Months Off.png;
#BACKGROUND:Two Months Off-bg.png;
#LYRICSPATH:;
#CDTITLE:;
#MUSIC:Two Months Off.ogg;
#OFFSET:0.000000;
#SAMPLESTART:1.720000;
#SAMPLELENGTH:15.000000;
#SELECTABLE:YES;
#DISPLAYBPM:140.000000;
#BPMS:0.000000=140.078003
,4.000000=140.007996
;
#STOPS:
;
#BGCHANGES:;
#KEYSOUNDS:;
#ATTACKS:;

//---------------dance-single - ----------------
#NOTES:
     dance-single:
     :
     Beginner:
     3:
     0.104497,0.163889,0.037037,0.000000,0.000000,79.000000,75.000000,4.000000,0.000000,0.000000,0.000000,0.104497,0.163889,0.037037,0.000000,0.000000,79.000000,75.000000,4.000000,0.000000,0.000000,0.000000:
0000
0000
0000
0000
,
0000
0000
0000
0000
,
0000
0000
0000
0000
,
0010
0000
0000
0000
,
0001
0000
0000
0000
,
0100
0000
0000
0000
,
0010
0000
0000
0000
,
1000
0000
0000
0000
,
0100
0000
0000
0000
,
1001
0000
0000
0000
,
0001
0000
0000
0000
,
1000
0000
0000
0000
,
0010
0000
0100
0000
,
0010
0000
0000
0000
,
0100
0000
0000
0000
,
0001
0000
0000
0000
,
0010
0000
0000
0000
,
0110
0000
0000
0000
,
1000
0000
0000
0000
,
0001
0000
0000
0000
,
0100
0000
0000
0000
,
0010
0000
0000
0000
,
1000
0000
0000
0000
,
0001
0000
0000
0000
,
1000
0000
0001
0000
,
0100
0000
0100
0000
,
0010
0000
0010
0000
,
1000
0000
0000
0000
,
0001
0000
0000
0000
,
0010
0000
0010
0000
,
0100
0000
0100
0000
,
1000
0000
1000
0000
,
0001
0000
0001
0000
,
0100
0000
0000
0000
,
0010
0000
0000
0000
,
1000
0000
0001
0000
,
1000
0000
0010
0000
,
0100
0000
0000
0000
,
0010
0000
0000
0000
,
0100
0000
0001
0000
,
1000
0000
0001
0000
,
0010
0000
0000
0000
,
0100
0000
0000
0000
,
1000
0000
0000
0000
,
0100
0000
0000
0000
,
0010
0000
0100
0000
,
0010
0000
0001
0000
,
1000
0000
0010
0000
,
0100
0000
0010
0000
,
0110
0000
0000
0000
,
0001
0000
0000
0000
,
1000
0000
0100
0000
,
0001
0000
0100
0000
,
1000
0000
0000
0000
,
0010
0000
0000
0000
,
0100
0000
0000
0000
,
0001
0000
0000
0000
,
1000
0000
0000
0000
,
0100
0000
0000
0000
,
1001
0000
0000
0000
,
0000
0000
0000
0000
;

//---------------dance-single - ----------------
#NOTES:
     dance-single:
     :
     Easy:
     4:
     0.193122,0.248437,0.027778,0.046296,0.000000,146.000000,143.000000,3.000000,5.000000,0.000000,0.000000,0.193122,0.248437,0.027778,0.046296,0.000000,146.000000,143.000000,3.000000,5.000000,0.000000,0.000000:
0000
0000
0000
0000
,
0000
0000
0000
0000
,
0000
0000
0000
0000
,
0010
0000
0100
0000
,
1000
0010
1000
0010
,
0100
0000
0001
0000
,
1000
0000
0100
0000
,
0010
0000
0001
0000
,
0100
0010
0100
0010
,
0110
0000
1000
0010
,
0100
0000
1000
0010
,
0001
0000
1000
0100
,
0010
0000
0001
0000
,
0100
0000
0010
1000
,
0100
0000
0010
0100
,
0001
0000
1000
0010
,
0100
0000
0001
0000
,
2002
0000
3003
0000
,
0020
0000
0030
0000
,
0200
0000
0300
0000
,
0002
0000
0003
0000
,
1000
0000
0001
0000
,
1000
0000
0100
0000
,
0001
0000
0010
0000
,
1000
0000
1000
1000
,
1000
0010
0100
0000
,
0001
1000
0010
0000
,
0100
0000
0001
0000
,
0010
0001
0010
0001
,
1000
0100
0010
0000
,
0001
1000
0010
0000
,
0001
0000
0100
0000
,
1000
0001
1000
0001
,
0100
0000
1000
0000
,
0100
0000
0001
0010
,
0100
0000
0001
0000
,
0100
0010
0100
1000
,
0001
0000
0100
0000
,
1000
0100
0001
0000
,
0010
0000
0100
0000
,
1000
0100
0010
0001
,
0000
1000
0000
0001
,
0000
1000
0000
0001
,
0100
1000
0000
0001
,
0000
1000
0000
0001
,
0010
1000
0000
0100
,
0000
0001
0000
0100
,
0010
1000
0000
0100
,
0000
0001
0000
1000
,
0010
0001
0000
0001
,
0010
1000
0000
0100
,
1000
0010
0000
0010
,
1000
0100
0000
0001
,
0100
1000
0000
1000
,
0100
0100
0000
0000
,
0010
0010
0000
0000
,
0001
0001
0000
0000
,
1000
1000
0000
0000
,
0001
0001
0000
0000
,
0100
0000
0000
0000
0000
0110
0000
0000
,
0000
0000
0000
0000
;

//---------------dance-single - ----------------
#NOTES:
     dance-single:
     :
     Medium:
     7:
     0.302910,0.358854,0.129630,0.101852,0.027778,229.000000,215.000000,14.000000,11.000000,0.000000,0.000000,0.302910,0.358854,0.129630,0.101852,0.027778,229.000000,215.000000,14.000000,11.000000,0.000000,0.000000:
0000
0000
0000
0000
,
0000
0000
0000
0000
,
0000
0000
0000
0000
,
0010
1000
0010
0001
,
0010
1000
0010
0001
,
0100
1000
0100
0001
,
0100
1000
0100
0001
,
1000
0100
0010
1000
,
0001
0100
0010
0001
,
1001
0000
0100
1000
,
1010
0000
0010
0100
,
0101
0000
0001
0010
,
1100
0000
0010
0100
,
1002
0100
1000
0100
,
2003
0100
0001
3100
,
1000
0010
0100
0000
0010
1000
0001
0000
,
0010
0000
0100
0000
1000
0100
0010
0001
,
2000
0000
0000
3000
0000
0001
0000
0000
,
0002
0000
0000
0003
0000
0100
0000
0000
,
0200
0000
0000
0300
0000
0010
0000
0000
,
0020
0000
0000
0030
0000
0010
0000
0000
,
2000
0000
0000
3000
0000
0001
0000
0000
,
0020
0000
0000
0030
0000
0100
0000
0000
,
0002
0000
0000
0000
0000
0000
0003
0000
0000
0000
1000
0000
0000
1000
0000
0000
,
2000
0000
0000
0000
0000
0000
3000
0000
0000
0000
0001
0000
0000
0001
0000
0000
,
1001
0001
0010
0010
,
0100
0000
1000
0000
0010
1000
0100
0000
,
0010
0010
0001
0001
,
0100
0000
0010
0000
1000
0100
1000
0001
,
1000
1000
0010
0010
,
0100
0000
0001
0000
0010
0001
0100
0000
,
0010
0010
1000
1000
,
0100
0000
0010
0000
0001
0100
0001
1000
,
0001
1000
0001
1000
,
0100
0000
0010
0000
0001
0000
0100
0001
,
1000
0001
1000
0001
,
0100
0000
1000
0100
0000
0001
0100
0000
,
0010
1000
0010
1000
,
0100
0010
0001
1000
,
0001
0100
0001
0100
,
0010
0000
1000
0100
0000
0001
0100
1000
,
0100
1000
0010
1000
,
0100
1000
0010
1000
,
0001
0100
0001
0010
,
0001
0000
0100
0000
0001
0000
0010
0001
,
0100
1000
0100
0010
,
1000
0001
0100
0010
,
0001
0100
1000
0001
,
0020
0000
0000
0130
,
0110
0001
0100
1000
,
0010
1000
0100
0001
,
0010
0001
0100
1000
,
0010
1000
0100
0001
,
0010
0100
1000
0001
,
1001
0000
0101
0000
,
1100
0000
0110
0000
,
0011
0000
1010
0000
,
0000
0000
1000
0000
0000
1000
0000
0000
0000
0000
1000
0000
0000
1000
0000
0000
,
0000
0000
0001
0000
0000
0001
0000
0000
0000
0000
0001
0000
0000
0001
0000
0000
,
0100
0000
0000
0000
0000
0110
0000
0000
,
0000
0000
0000
0000
;

//---------------dance-single - ----------------
#NOTES:
     dance-single:
     :
     Hard:
     10:
     0.480159,0.552083,0.490741,0.175926,0.166667,363.000000,310.000000,53.000000,19.000000,0.000000,0.000000,0.480159,0.552083,0.490741,0.175926,0.166667,363.000000,310.000000,53.000000,19.000000,0.000000,0.000000:
0000
0000
0000
0000
,
0000
0000
0000
0000
,
0000
0000
0000
0000
,
1000
1000
0001
0001
,
1000
0000
1000
0000
0010
0001
0010
1000
,
0001
0001
1000
1000
,
0001
0000
0001
0000
0010
1000
0010
0001
,
0100
0100
0010
0010
,
0100
0000
0100
0010
1000
0001
1000
0000
,
0011
0000
1000
0000
0100
0010
0001
0000
,
1000
0000
0001
0000
0100
0010
1000
0100
,
1000
0000
0001
0000
0010
0100
1000
0000
,
0001
0000
1000
0000
0010
0100
0001
0100
,
0010
1000
0100
1000
0010
0100
0001
0100
,
0010
1000
0100
1000
0010
0100
0001
0100
,
0010
1000
0100
0010
0001
0010
0100
1000
,
0010
1000
0100
0010
0001
0010
0100
1000
,
0002
0000
0000
0000
0000
0003
0000
0000
0000
0000
0100
0000
0000
0100
0000
0000
,
2000
0000
0000
0000
0000
3000
0000
0000
0000
0000
0100
0000
0000
0100
0000
0000
,
0002
0000
0000
0000
0000
0003
0000
0000
0000
0000
0010
0000
0000
0010
0000
0000
,
2000
0000
0000
0000
0000
3000
0000
0000
0000
0000
0010
0000
0000
0010
0000
0000
,
0022
0000
0000
0000
0000
0033
0000
0000
0000
0000
1000
0000
0000
1000
0000
0000
,
2020
0000
0000
0000
0000
3030
0000
0000
0000
0000
0100
0000
0000
0100
0000
0000
,
0202
0000
0000
0000
0000
0303
0000
0000
0000
0000
0001
0000
0000
0001
0000
0000
,
0022
0000
0000
0000
0000
0033
0000
0000
0000
0000
0100
0000
0000
0100
0000
0000
,
1001
0000
0000
0000
0001
0000
0000
0000
0100
0000
0010
0000
0000
1000
0000
0000
,
1010
0000
0000
0000
0100
0000
0000
0000
0001
0000
0010
0000
0000
0001
0000
0000
,
1001
0000
0000
0000
0100
0000
0000
0000
1000
0000
0010
0000
0000
0100
0000
0000
,
0110
0000
0000
0000
0001
0000
0000
0000
1000
0000
0100
0000
0010
0100
0000
0000
,
0110
0000
0000
0000
0001
0000
0000
0000
1000
0000
0100
0000
0000
0010
0000
0000
,
0011
0000
0000
0000
0001
0000
0000
0000
1000
0000
0010
0000
0000
0100
0000
0000
,
0101
0000
0000
0000
1000
0000
0000
0000
0001
0000
0010
0000
0000
0100
0000
0000
,
1100
0000
0000
0000
0001
0000
0000
0000
1000
0000
0110
0000
0000
0110
0000
0000
,
1001
0000
0000
0000
0010
0000
0100
0000
0010
0000
1000
0000
0000
1000
0000
0000
,
0100
0000
0000
0000
0010
0000
0001
0000
0010
0000
0100
0000
0000
0100
0000
0000
,
1000
0000
0000
0000
0001
0000
0100
0000
1000
0000
0100
0000
0000
0100
0000
0000
,
0010
0000
0000
0000
1000
0000
0001
0000
0010
0000
0100
0000
0000
0100
0000
0000
,
0210
0000
0000
0000
1300
0000
0100
0000
0010
0000
0001
0000
0000
0001
0000
0000
,
2000
0000
0000
0000
3001
0000
0100
0000
0010
0000
1000
0000
0000
1000
0000
0000
,
0002
0000
0000
0000
0013
0000
0100
0000
1000
0000
0001
0000
0000
1000
0000
0000
,
2002
0000
0000
0000
0000
0000
3000
0000
0000
0000
1000
0000
0000
1003
0000
0000
,
1100
0100
0010
0001
1000
0100
0010
0001
,
1000
0100
0010
0100
1000
0100
0010
0100
,
1000
0010
0100
0001
1000
0010
0100
0001
,
1000
0010
0100
0010
1000
0010
0100
0001
,
0010
0100
1000
0100
0010
0001
0100
0001
,
0010
0100
1000
0100
0010
0001
0100
0001
,
0010
0100
1000
0010
0100
0010
1000
0100
,
0010
0100
1000
0010
0100
0010
1000
0100
,
1001
0101
1010
0101
,
1001
0011
1100
0011
,
1000
0000
0100
0000
1000
0000
0001
0000
0010
0000
0001
0000
0000
0100
0000
0000
,
1000
0000
0010
0000
1000
0000
0001
0000
0100
0000
0001
0000
0000
0010
0000
0000
,
1010
0101
0011
1100
,
0001
0000
0101
0000
0000
0101
0000
0000
0000
0000
0101
0000
0000
0101
0000
0000
,
1000
0000
1100
0000
0000
1100
0000
0000
0000
0000
1100
0000
0000
1100
0000
0000
,
0000
0000
0011
0000
0000
0101
0000
0000
0000
0000
1010
0000
0000
1100
0000
0000
,
1000
0000
1001
0000
0000
0110
0000
0000
0000
0000
0011
0000
0000
1100
0000
0000
,
0001
0000
0101
0000
0000
0110
0000
0000
0000
0000
1010
0000
0000
1100
0000
0000
,
2002
0000
0000
0000
3003
1001
0000
0000
,
0000
0000
0000
0000
;

//---------------dance-double - ----------------
#NOTES:
     dance-double:
     :
     Easy:
     4:
     0.194444,0.248437,0.027778,0.046296,0.000000,147.000000,144.000000,3.000000,5.000000,0.000000,0.000000,0.194444,0.248437,0.027778,0.046296,0.000000,147.000000,144.000000,3.000000,5.000000,0.000000,0.000000:
00000000
00000000
00000000
00000000
,
00000000
00000000
00000000
00000000
,
00000000
00000000
00000000
00000000
,
00100000
00000000
00010000
00000000
,
10000000
01000000
10000000
01000000
,
00010000
00000000
00001000
00000000
,
00000100
00000000
00000010
00000000
,
00000001
00000000
00001000
00000000
,
00000100
00000001
00000100
00000001
,
00001001
00000000
00000100
00000100
,
00001000
00000000
00010000
00010000
,
00001000
00000000
01000000
01000000
,
00010000
00000000
10000000
10000000
,
01000000
00000000
00100000
00010000
,
01000000
00000000
00001000
00010000
,
00001000
00000000
00000100
00001000
,
00000010
00000000
00000100
00000000
,
00000220
00000000
00000330
00000000
,
00000002
00000000
00000003
00000000
,
00000200
00000000
00000300
00000000
,
00002000
00000000
00003000
00000000
,
00010000
00000000
01000000
00000000
,
10000000
00000000
00100000
00000000
,
00010000
00000000
00001000
00000000
,
00000100
00000000
00000001
00000001
,
00000001
00001000
00000100
00000000
,
00010000
00001000
00100000
00000000
,
00010000
00000000
01000000
00000000
,
00100000
10000000
00100000
01000000
,
00010000
00100000
00001000
00000000
,
00010000
00000100
00001000
00000000
,
00000010
00000000
00000100
00000000
,
00000001
00001000
00000001
00001000
,
00000100
00000000
00010000
00000000
,
00001000
00000000
01000000
00010000
,
01000000
00000000
00100000
00000000
,
10000000
01000000
00010000
00001000
,
00010000
00000000
00001000
00000000
,
00000100
00000001
00001000
00000000
,
00000100
00000000
00000010
00000000
,
00001000
00010000
00001000
00010000
,
00000000
01000000
00000000
10000000
,
00000000
00100000
00000000
00010000
,
00001000
00000100
00000000
00000001
,
00000000
00000010
00000000
00001000
,
00010000
00100000
00000000
10000000
,
00000000
01000000
00000000
00100000
,
00001000
00010000
00000000
00000100
,
00000000
00001000
00000000
00000010
,
00000100
00000010
00000000
00001000
,
00010000
00001000
00000000
00100000
,
00010000
00100000
00000000
10000000
,
01000000
10000000
00000000
00010000
,
01000000
00010000
00000000
00001000
,
00010000
00010000
00000000
00000000
,
00000100
00000100
00000000
00000000
,
00000010
00000010
00000000
00000000
,
00001000
00001000
00000000
00000000
,
00010000
00010000
00000000
00000000
,
00100000
00000000
00000000
00000000
00000000
10010000
00000000
00000000
,
00000000
00000000
00000000
00000000
;

//---------------dance-double - ----------------
#NOTES:
     dance-double:
     :
     Medium:
     7:
     0.304233,0.331250,0.148148,0.101852,0.023148,230.000000,214.000000,16.000000,11.000000,0.000000,0.000000,0.304233,0.331250,0.148148,0.101852,0.023148,230.000000,214.000000,16.000000,11.000000,0.000000,0.000000:
00000000
00000000
00000000
00000000
,
00000000
00000000
00000000
00000000
,
00000000
00000000
00000000
00000000
,
10000000
00010000
01000000
00010000
,
00100000
00100000
00001000
00010000
,
00000010
00001000
00000100
00000010
,
00000001
00001000
00000010
00000010
,
00010000
00001000
00100000
00010000
,
10000000
00010000
01000000
00100000
,
01100000
00000000
00010000
00001000
,
00011000
00000000
00000100
00000010
,
00000110
00000000
00000001
00000100
,
00000101
00000000
00000100
00001000
,
00021000
00000100
00001000
00030100
,
00002000
00010000
01000000
00013000
,
01000000
00010000
10000000
00000000
01000000
00100000
00010000
00000000
,
01000000
00000000
00001000
00000000
00010000
00001000
00000010
00000000
,
00000200
00000000
00000000
00000300
00000000
00001000
00000000
00000000
,
00000020
00000000
00000000
00000030
00000000
00001000
00000000
00000000
,
00000200
00000000
00000000
00000300
00000000
00001000
00000000
00000000
,
00000020
00000000
00000000
00000030
00000000
00010000
00000000
00000000
,
00002000
00000000
00000000
00003000
00000000
00100000
00000000
00000000
,
00020000
00000000
00000000
00030000
00000000
01000000
00000000
00000000
,
00020000
00000000
00000000
00030000
00000000
00100000
00000000
00000000
,
00002000
00000000
00000000
00000000
00000000
00000000
00003000
00000000
00000000
00000000
00010000
00000000
00000000
00010000
00000000
00000000
,
00011000
00010000
00001000
00001000
,
00000100
00000000
00000010
00000000
00001000
00000001
00000100
00000000
,
00000010
00000010
00010000
00010000
,
00001000
00000000
00100000
00000000
00010000
01000000
00100000
10000000
,
00010000
00010000
00100000
00100000
,
00001000
00000000
00010000
00000000
00000100
00001000
00000010
00000000
,
00000100
00000100
00000001
00000001
,
00001000
00000000
00000100
00000000
00010000
00000100
00010000
00001000
,
00010000
00100000
00010000
00001000
,
00010000
00000000
00100000
00000000
00010000
00000000
00001000
00100000
,
00010000
10000000
01000000
00010000
,
00001000
00000000
00000100
00000001
00000000
00000100
00001000
00000000
,
00010000
01000000
00010000
00001000
,
00010000
00000000
01000000
00000000
00010000
00000000
00001000
01000000
,
00010000
10000000
00100000
00010000
,
00001000
00000000
00000010
00000001
00000000
00000010
00000100
00001000
,
00000001
00000100
00001000
00000100
,
00000010
00010000
00001000
00100000
,
01000000
00010000
01000000
10000000
,
00100000
00000000
00010000
00000000
00001000
00000000
00010000
00001000
,
00010000
00000100
00001000
00000001
,
00000010
00001000
00010000
01000000
,
10000000
00100000
00010000
00001000
,
00000200
00000000
00000000
00000310
,
00000110
00000001
00000100
00001000
,
00010000
01000000
10000000
00100000
,
10100000
10000000
01000000
00010000
,
00001000
00000100
00000001
00000010
,
00000110
00000100
00010000
00001000
,
00011000
00000000
01001000
00000000
,
01010000
00000000
11000000
00000000
,
00110000
00000000
00011000
00000000
,
00000000
00000000
00000100
00000000
00000000
00000100
00000000
00000000
00000000
00000000
00000010
00000000
00000000
00000010
00000000
00000000
,
00000000
00000000
00000001
00000000
00000000
00000001
00000000
00000000
00000000
00000000
00001000
00000000
00000000
00001000
00000000
00000000
,
00000100
00000000
00000000
00000000
00000000
00011000
00000000
00000000
,
00000000
00000000
00000000
00000000
;

//---------------dance-double - ----------------
#NOTES:
     dance-double:
     :
     Hard:
     10:
     0.465608,0.524479,0.212963,0.185185,0.143519,352.000000,329.000000,23.000000,20.000000,0.000000,0.000000,0.465608,0.524479,0.212963,0.185185,0.143519,352.000000,329.000000,23.000000,20.000000,0.000000,0.000000:
00000000
00000000
00000000
00000000
,
00000000
00000000
00000000
00000000
,
00000000
00000000
00000000
00000000
,
00100000
00000000
00010000
00000000
01000000
00010000
01000000
00000000
,
00001000
00000000
00010000
00000000
00000100
00001000
00000100
00000000
,
00000010
00000000
00000001
00000000
00000100
00000001
00000100
00000000
,
00001000
00000000
00010000
00000000
01000000
10000000
01000000
00000000
,
00100000
00010000
00100000
00000000
00001000
00010000
00001000
00000000
,
00000010
00001000
00000001
00000100
00000010
00000100
00001001
00000000
,
00000200
00000000
00000310
00010000
00000010
00001000
00000100
00000000
,
00020000
00000000
00031000
01000000
00001000
00100000
00010000
00000000
,
02000000
00000000
03100000
10000000
00100000
01000000
00001000
00000000
,
00020000
00000000
00030100
00000010
00000001
00001000
00000001
00000000
,
00001001
00000100
00010000
00001000
00100000
00010000
01000000
00001000
,
00010000
00000010
00001000
00000100
00010000
00001000
00100000
00010000
,
01000000
00001000
00010000
00000100
00001000
00000010
00010000
00001000
,
01000000
00010000
00100000
00001000
00010000
00000100
00001000
00000010
,
00000200
00000000
00000000
00000000
00000000
00000000
00000000
00000000
00000000
00000000
00000001
00000000
00000000
00000301
00000000
00000000
,
00000020
00000000
00000000
00000000
00000000
00000000
00000000
00000000
00000000
00000000
00001000
00000000
00000000
00001030
00000000
00000000
,
00020000
00000000
00000000
00000000
00000000
00000000
00000000
00000000
00000000
00000000
00100000
00000000
00000000
00130000
00000000
00000000
,
20000000
00000000
00000000
00000000
00000000
00000000
00000000
00000000
00000000
00000000
01000000
00000000
00000000
31000000
00000000
00000000
,
00020000
00000000
00000000
00000000
00000000
00000000
00000000
00000000
00000000
00000000
00000010
00000000
00000000
00030010
00000000
00000000
,
00000200
00000000
00000000
00000000
00000000
00000000
00000000
00000000
00000000
00000000
00001000
00000000
00000000
00001300
00000000
00000000
,
00200000
00000000
00000000
00000000
00000000
00000000
00000000
00000000
00000000
00000000
01000000
00000000
00000000
01300000
00000000
00000000
,
00020000
00000000
00000000
00000000
00000000
00000000
00000000
00000000
00000000
00000000
00031000
00000000
00000000
00001000
00000000
00000000
,
00010000
00001000
00000100
00000001
00000100
00001000
00000100
00000000
,
00000010
00000001
00000010
00000100
00001000
00010000
00000100
00000000
,
00010000
00001000
01000000
00100000
00010000
00100000
01000000
00000000
,
10000000
01000000
00100000
01000000
10000000
01000000
00010000
00000000
,
00100000
00001000
00010000
00000100
00000010
00000100
00001000
00000000
,
00000001
00000010
00001000
00000010
00000100
00010000
00001000
00000000
,
00100000
01000000
00010000
01000000
10000000
00010000
00100000
00000000
,
01000000
10000000
01000000
00100000
00001000
00010000
00001000
00000000
,
00011000
00000000
00000000
00000000
00001000
00000000
00000100
00000000
00000000
00000000
00000001
00000000
00000000
00000100
00000000
00000000
,
00001000
00000000
00000000
00000000
01000000
00000000
00100000
00000000
00000000
00000000
10000000
00000000
00000000
01000000
00000000
00000000
,
00010000
00000000
00000000
00000000
00000100
00000000
00000010
00000000
00000000
00000000
00000001
00000000
00000000
00000100
00000000
00000000
,
00001000
00000000
00000000
00000000
01000000
00000000
00100000
00000000
00000000
00000000
01000000
00000000
00000000
00001000
00000000
00000000
,
00011000
00000000
00000000
00000000
00000100
00000000
00010000
00000000
00000000
00000000
00001000
00000000
00000000
00000100
00000000
00000000
,
00000010
00000000
00000000
00000000
00010000
00000000
00001000
00000000
00000000
00000000
00100000
00000000
00000000
01000000
00000000
00000000
,
00010000
00000000
00000000
00000000
00001000
00000000
00000100
00000000
00000000
00000000
00000010
00000000
00000000
00000100
00000000
00000000
,
00022000
00000000
00000000
00000000
00000000
00000000
00000000
00000000
00033000
00000000
00011000
00000000
00000000
00011000
00000000
00000000
,
00011000
01000000
00010000
00100000
00001000
01000000
00010000
00100000
,
00001000
01000000
00010000
00100000
00001000
01000000
00010000
00100000
,
00000100
00001000
00000010
00010000
00000100
00001000
00000010
00010000
,
00000100
00001000
00000010
00010000
00000100
00001000
00000010
00010000
,
00001000
00100000
01000000
10000000
00010000
01000000
00001000
00100000
,
01000000
10000000
00010000
01000000
00001000
00100000
01000000
10000000
,
00010000
00100000
00001000
00010000
00000100
00001000
00000010
00010000
,
00001000
01000000
00010000
00100000
00001000
00010000
00000100
00001000
,
00001001
00000000
00000000
00000000
00000001
00000000
00000000
00000000
00000100
00000000
00000010
00000000
00001000
00000010
00000000
00000000
,
00001010
00000000
00000000
00000000
00010000
00000000
00000000
00000000
00001000
00000000
00100000
00000000
00010000
00100000
00000000
00000000
,
00110000
00000000
00000000
00000000
00010000
00000000
00000000
00000000
01000000
00000000
00100000
00000000
10000000
00100000
00000000
00000000
,
10100000
00000000
00000000
00000000
00010000
00000000
01000000
00000000
00001000
00000000
00010000
00000000
00000100
00001000
00000000
00000000
,
00001001
00000000
00000000
00000000
00000100
00000000
00001000
00000000
00000001
00000000
00000010
00000000
00000100
00001000
00000000
00000000
,
00001002
00000000
00000100
00000000
00000000
00000100
00000000
00000000
00000000
00000000
00000100
00000000
00000000
00000103
00000000
00000000
,
00000120
00000000
00001000
00000000
00000000
00001000
00000000
00000000
00000000
00000000
00001000
00000000
00000000
00001030
00000000
00000000
,
00000000
00000000
00010010
00000000
00000000
00011000
00000000
00000000
00000000
00000000
00101000
00000000
00000000
00110000
00000000
00000000
,
20010000
00000000
01000000
00000000
00000000
01000000
00000000
00000000
00000000
00000000
01000000
00000000
00000000
31000000
00000000
00000000
,
01200000
00000000
00010000
00000000
00000000
00010000
00000000
00000000
00000000
00000000
00010000
00000000
00000000
00310000
00000000
00000000
,
00022000
00000000
00000000
00000000
00033000
00011000
00000000
00000000
,
00000000
00000000
00000000
00000000
;

//---------------dance-single - ----------------
#NOTES:
     dance-single:
     :
     Challenge:
     17:
     0.902116,0.974248,0.250000,0.101852,1.189815,682.000000,655.000000,27.000000,11.000000,0.000000,0.000000,0.902116,0.974248,0.250000,0.101852,1.189815,682.000000,655.000000,27.000000,11.000000,0.000000,0.000000:
// measure 0
0000
0000
0000
0000
,  // measure 1
0000
0000
0000
0000
,  // measure 2
0000
0000
0000
0000
,  // measure 3
1000
0100
0001
1000
0001
0100
1000
0001
,  // measure 4
1000
0010
0001
1000
0001
0010
1000
0001
,  // measure 5
1000
0100
0010
1000
0010
0100
1000
0001
,  // measure 6
0100
0010
0001
0100
0001
0010
0100
0001
,  // measure 7
1000
0010
0100
0001
0010
0001
0100
0010
,  // measure 8
1000
0100
0001
0100
0010
1000
0010
0001
,  // measure 9
1000
0010
0100
0010
1000
0001
0010
0001
,  // measure 10
0100
1000
0001
1000
0100
0010
0001
0010
,  // measure 11
0100
0010
1000
0010
0001
0100
1000
0100
,  // measure 12
0001
0010
1000
0100
0010
0001
0100
0010
,  // measure 13
0001
0100
0010
1000
0001
0010
0100
1000
0100
0010
0001
1000
0010
0100
0001
1000
,  // measure 14
0100
0010
0001
0010
0100
1000
0001
0010
0100
1000
0010
0100
0001
1000
0100
0010
,  // measure 15
0001
0010
0100
1000
0001
0010
0100
1000
0010
0100
0001
1000
0100
0010
0001
0100
,  // measure 16
0010
1000
0001
0100
0010
1000
0001
0010
0001
0100
0010
1000
0001
0100
0001
1000
,  // measure 17
0200
0000
0000
0000
0000
0000
0000
0000
0301
0000
1000
0010
0000
0100
0001
0000
,  // measure 18
0002
0000
0000
0000
0000
0000
1000
0000
1003
0000
0001
0100
0000
1000
0010
0000
,  // measure 19
0020
0000
0000
0000
0000
0000
0100
0000
0130
0000
0001
0010
0000
0100
1000
0000
,  // measure 20
2000
0000
0000
0000
0000
0000
0001
0000
3001
0000
1000
0010
0000
0100
0001
0000
,  // measure 21
1000
0000
0001
0000
0100
0000
1000
0000
0001
0000
0100
0010
0000
0010
0100
0000
,  // measure 22
1000
0000
0010
0000
0100
0000
0001
0000
1000
0000
0010
0100
0000
1000
0001
0000
,  // measure 23
0010
0000
0001
0000
0100
0000
0010
0000
1000
0000
0001
0100
0000
1000
0001
0000
,  // measure 24
0011
0000
0001
0100
0000
0010
1000
0000
0100
0000
1000
0010
0000
0100
0001
0000
,  // measure 25
1001
1100
1001
0101
,  // measure 26
1010
1100
1001
1100
,  // measure 27
1010
0011
0101
1100
,  // measure 28
1001
0011
0101
1001
,  // measure 29
1000
0100
0010
0000
1000
0010
0100
0000
1000
0001
0100
0000
0001
1000
0100
0000
,  // measure 30
0010
0001
0100
0000
0001
1000
0100
0000
0001
1000
0010
0000
0100
0001
1000
0000
,  // measure 31
0010
0001
0100
0000
0010
1000
0100
0000
0001
0100
0010
0000
0100
0010
1000
0000
,  // measure 32
0010
0001
1000
0001
0100
0010
1000
0010
0100
0001
0010
0001
0100
1000
0001
1000
,  // measure 33
0100
0010
0001
1000
0010
0100
0001
0010
0100
1000
0001
0100
0010
1000
0100
0010
,  // measure 34
0001
1000
0010
0100
0001
1000
0100
0010
0001
0100
0010
1000
0001
0010
0100
1000
,  // measure 35
0001
0100
0010
1000
0100
0010
0001
1000
0010
0100
0001
1000
0100
0010
0001
0010
,  // measure 36
0100
1000
0001
0010
0001
0100
0010
1000
0100
0010
0001
1000
0010
0100
0001
1000
,  // measure 37
0100
0010
0001
0010
0100
1000
0010
0100
0001
1000
0100
0010
0001
0010
0100
1000
,  // measure 38
0010
0100
0001
1000
0100
0010
0001
0010
0100
1000
0001
0100
0010
1000
0010
0100
,  // measure 39
0001
1000
0001
0010
0100
1000
0100
0010
0001
1000
0010
0100
0001
1000
0001
0100
,  // measure 40
0001
0000
0010
0000
0001
0000
0010
0000
0000
0100
0000
0000
1000
0000
0100
0000
1000
0000
0100
0000
0000
0010
0000
0000
0001
0000
0000
0100
0000
0000
0020
0000
0000
0000
0000
0000
0000
0000
0000
0000
0000
0000
0030
0000
0000
0000
0000
0000
,  // measure 41
1000
0010
0100
0001
1000
0100
0010
0001
0010
0100
1000
0010
0100
0001
1000
0100
,  // measure 42
0010
0001
0100
1000
0100
0001
1000
0001
0010
0100
1000
0100
0001
0010
0100
1000
,  // measure 43
0010
0001
0010
1000
0100
0010
0001
0010
1000
0100
0010
0001
1000
0010
0100
0001
,  // measure 44
1000
0100
0010
0001
0010
0100
1000
0010
0100
0001
1000
0100
0010
0001
0010
0100
,  // measure 45
1000
0010
0001
0010
0100
0010
1000
0100
0010
0001
0010
0100
1000
0001
0100
0010
,  // measure 46
1000
0100
0010
0001
0010
0100
1000
0001
0010
0001
0100
0001
1000
0001
0100
0010
,  // measure 47
1000
0100
0001
0100
1000
0100
0001
0100
1000
0100
0001
0100
1000
0100
0001
0100
,  // measure 48
1000
0010
0100
0010
1000
0010
0100
0010
1000
0010
0100
0010
1000
0010
0100
0010
,  // measure 49
0001
0100
0010
1000
0100
0010
0001
0010
0100
1000
0001
0010
0001
0100
0010
1000
,  // measure 50
0001
0010
0001
0100
0010
1000
0100
0010
0001
0010
0100
1000
0010
0100
0001
1000
,  // measure 51
0100
0010
0001
0010
0100
1000
0001
0010
0001
0100
0010
1000
0010
0100
0001
1000
,  // measure 52
0100
0010
0001
0010
0100
1000
0010
0100
0001
0010
0001
0100
0010
1000
0100
0010
,  // measure 53
0001
1000
0001
0010
0100
0010
1000
0010
0100
0001
1000
0100
0010
0001
0010
0100
,  // measure 54
1000
0000
1100
0000
0000
1100
0000
0100
0001
0000
0101
0000
0000
0101
0000
0100
,  // measure 55
0010
0000
0200
0000
0000
0310
0000
0100
0010
0000
0002
0000
0000
1003
0000
0001
,  // measure 56
1000
0000
1010
0000
0000
1001
0000
0001
0010
0000
0110
0000
0000
1001
0000
0001
,  // measure 57
0010
0000
1000
0010
0000
0010
0100
0000
0010
0000
0001
0010
0000
0010
0100
0000
,  // measure 58
1000
0000
0001
0100
0000
0100
1000
0000
0010
0000
1000
0100
0000
0100
0001
0000
,  // measure 59
2002
0000
0000
3003
0000
0220
0000
0000
,  // measure 60
0000
0330
0000
0000
0000
0000
0000
0000
;
