#VERSION:0.83;
#TITLE:Trickster;
#SUBTITLE:;
#ARTIST:水樹奈々;
#TITLETRANSLIT:;
#SUBTITLETRANSLIT:;
#ARTISTTRANSLIT:Nana Mizuki;
#GENRE:;
#ORIGIN:;
#CREDIT:;
#BANNER:Trickster.png;
#BACKGROUND:Trickster-bg.png;
#PREVIEWVID:;
#JACKET:Trickster-jacket.png;
#CDIMAGE:;
#DISCIMAGE:;
#LYRICSPATH:;
#CDTITLE:;
#MUSIC:Trickster.ogg;
#OFFSET:0.000000;
#SAMPLESTART:35.330002;
#SAMPLELENGTH:15.000000;
#SELECTABLE:YES;
#DISPLAYBPM:62.000000:174.000000;
#BPMS:0.000=174.757,
4.000=173.983,
52.000=173.913,
64.000=173.554,
71.000=176.471,
72.000=174.081,
102.000=173.077,
104.000=174.073,
188.000=174.093,
244.000=171.662,
251.000=160.714,
252.000=153.846,
254.000=166.052,
259.000=155.172,
260.000=160.305,
267.000=150.000,
270.000=164.634,
273.000=155.172,
275.000=120.000,
278.000=109.756,
279.000=100.000,
280.000=90.000,
281.000=62.008;
#STOPS:;
#DELAYS:;
#WARPS:;
#TIMESIGNATURES:0.000=4=4;
#TICKCOUNTS:0.000=4;
#COMBOS:0.000=1;
#SPEEDS:0.000=1.000=0.000=0;
#SCROLLS:0.000=1.000;
#FAKES:;
#LABELS:0.000=Song Start;
#BGCHANGES:;
#KEYSOUNDS:;
#ATTACKS:
;

//---------------dance-single - ----------------
#NOTEDATA:;
#CHARTNAME:;
#STEPSTYPE:dance-single;
#DESCRIPTION:;
#CHARTSTYLE:;
#DIFFICULTY:Beginner;
#METER:2;
#RADARVALUES:0.100816,0.233464,0.009667,0.000000,0.000000,73.000000,72.000000,1.000000,0.000000,0.000000,0.000000,0.000000,0.000000,0.000000,0.100816,0.233464,0.009667,0.000000,0.000000,73.000000,72.000000,1.000000,0.000000,0.000000,0.000000,0.000000,0.000000,0.000000;
#CREDIT:;
#DISPLAYBPM:174.000000;
#NOTES:
0000
0000
0000
0000
,
0000
0000
0000
0000
,
0000
0000
0000
0000
,
0000
0000
0000
0000
,
0000
0000
0000
0000
,
0000
0000
0000
0000
,
0001
0000
0000
0000
,
0000
0000
0000
0000
,
1000
0000
0000
0000
,
0000
0000
0000
0000
,
0001
0000
0000
0000
,
0001
0000
0000
0000
,
1000
0000
0000
0000
,
0000
0000
0000
0000
,
1000
0000
0000
0000
,
1000
0000
0000
0000
,
0001
0000
0000
0000
,
0000
0000
0000
0000
,
0010
0000
0000
0000
,
0010
0000
0000
0000
,
0010
0000
0000
0000
,
0010
0000
0000
0000
,
0010
0000
0000
0000
,
0010
0000
0000
0000
,
0010
0000
0000
0000
,
0000
0000
0000
0000
,
1000
0000
1000
0000
,
1000
0000
0000
0000
,
0001
0000
0001
0000
,
0001
0000
0000
0000
,
1000
0000
1000
0000
,
0001
0000
0000
0000
,
0001
0000
0001
0000
,
1000
0000
0000
0000
,
0001
0000
1000
0000
,
0001
0000
0000
0000
,
1000
0000
0001
0000
,
1000
0000
0000
0000
,
0010
0000
0010
0000
,
0010
0000
0000
0000
,
0010
0000
0010
0000
,
0010
0000
0000
0000
,
0010
0010
0010
0000
,
0010
0010
0010
0000
,
1000
0000
0001
0000
,
1000
0000
0000
0000
,
0000
0000
1001
0000
,
0000
0000
0000
1000
,
0000
0000
0000
1000
,
0000
0000
0000
0001
,
0000
0000
0000
0001
,
0000
0000
0000
1000
,
0000
0000
0000
0001
,
0000
0000
0000
1000
,
0000
0000
0000
0000
,
0000
0001
0000
0001
,
0000
1000
0000
1000
,
0000
0001
0000
0001
,
0000
1000
0000
1000
,
0000
0010
0000
0010
,
0000
0010
0000
0010
,
0000
0000
0000
0000
,
0000
0000
0000
0000
,
1000
0000
0000
0000
,
0000
0000
0000
0000
,
0001
0000
0000
0000
,
0000
0000
0000
0000
,
1000
0000
0000
0000
,
0000
0000
0000
0000
,
0010
0000
0000
0000
,
0000
0000
0000
0000
;

//---------------dance-single - ----------------
#NOTEDATA:;
#CHARTNAME:;
#STEPSTYPE:dance-single;
#DESCRIPTION:;
#CHARTSTYLE:;
#DIFFICULTY:Easy;
#METER:5;
#RADARVALUES:0.183678,0.270683,0.009667,0.096673,0.000000,133.000000,132.000000,1.000000,10.000000,0.000000,0.000000,0.000000,0.000000,0.000000,0.183678,0.270683,0.009667,0.096673,0.000000,133.000000,132.000000,1.000000,10.000000,0.000000,0.000000,0.000000,0.000000,0.000000;
#CREDIT:;
#DISPLAYBPM:174.000000;
#NOTES:
0000
0000
0000
0000
,
0000
0000
0000
0000
,
0000
0000
0000
0000
,
0000
0000
0000
0000
,
0000
0000
0000
0000
,
0000
0000
0000
0000
,
0001
0000
0100
0000
,
1000
0000
0100
0000
,
0001
0000
1000
0000
,
1001
0000
0000
0000
,
0001
0001
0010
0000
,
1000
1000
0010
0000
,
0100
0100
0010
0000
,
1000
0000
0001
0000
,
1000
1000
0010
0000
,
0001
0001
0010
0000
,
1000
0000
0001
0000
,
1000
0000
0000
0000
,
0010
0000
0010
0000
,
1000
0000
1000
0000
,
0100
0000
0100
0000
,
0001
0000
0001
0000
,
0010
0000
0010
0000
,
1000
0000
1000
0000
,
0001
0000
0000
0000
,
1000
0000
0000
0000
,
0010
1000
0001
0000
,
1000
0000
0100
0000
,
0010
0001
1000
0000
,
0001
0000
0100
0000
,
1000
0100
0001
0000
,
0001
0100
1000
0000
,
2000
0000
0000
3000
,
0002
0000
0000
0003
,
0010
0001
1000
0000
,
0001
0000
0100
0000
,
0010
1000
0001
0000
,
1000
0000
0100
0000
,
0020
0000
0000
0030
,
2000
0000
0000
3000
,
0200
0000
0000
0300
,
0002
0000
0000
0003
,
0010
0010
0010
0010
,
0010
0010
0010
0010
,
0000
0100
0000
0100
,
0000
0100
1000
0010
,
0001
1000
0001
0000
,
1000
0001
0100
0000
,
0010
0001
0100
0000
,
0001
0000
0010
0000
,
1000
0000
0100
0000
,
0002
0000
0000
0003
,
2000
0000
0000
3000
,
0001
0001
1000
1000
,
0001
1000
0001
0000
,
0001
1000
0100
0000
,
0010
1000
0100
0000
,
1000
0000
0010
0000
,
0001
0000
0100
0000
,
2000
0000
0000
3000
,
0002
0000
0000
0003
,
1000
0000
0000
0000
,
0001
0001
0000
0001
0000
0000
0000
0000
,
0010
0000
0000
0000
,
0000
0000
0000
0000
,
1000
0000
0001
0000
,
0100
0000
0000
0000
,
0010
0000
0000
0000
,
0000
0000
0000
0000
,
0001
0000
1000
0000
,
0100
0000
0000
0000
,
0000
0000
0000
0000
;

//---------------dance-single - ----------------
#NOTEDATA:;
#CHARTNAME:;
#STEPSTYPE:dance-single;
#DESCRIPTION:;
#CHARTSTYLE:;
#DIFFICULTY:Medium;
#METER:7;
#RADARVALUES:0.325925,0.373518,0.058004,0.193345,0.000000,236.000000,230.000000,6.000000,20.000000,0.000000,0.000000,0.000000,0.000000,0.000000,0.325925,0.373518,0.058004,0.193345,0.000000,236.000000,230.000000,6.000000,20.000000,0.000000,0.000000,0.000000,0.000000,0.000000;
#CREDIT:;
#DISPLAYBPM:174.000000;
#NOTES:
0000
0000
0000
0000
,
0000
0000
0000
0000
,
0000
0000
0000
0000
,
0000
0000
0000
0000
,
0000
0000
0000
0000
,
0000
0000
0000
0000
,
0001
0001
0100
0000
,
1000
1000
0100
0000
,
0001
0000
0100
0000
1000
0000
0001
0010
,
0000
0000
1000
0010
0000
0000
0100
0000
,
0100
0000
0001
0000
0100
0000
0000
0010
,
0000
1000
0100
0000
,
0001
1000
0001
0000
,
0010
0000
0100
0000
,
1000
0000
0010
0000
1000
0000
0000
0100
,
0000
0001
0010
0000
,
1001
0000
0000
0000
0000
0000
0010
0100
,
0000
0000
0001
0000
0100
0010
0100
0000
,
1000
1000
1000
1000
,
0001
0001
0001
0001
,
0100
0100
0100
0100
,
1000
1000
1000
1000
,
0100
0100
0100
0100
,
0010
0010
0010
0010
,
1000
0000
0001
0100
0000
0000
1000
0100
,
0000
0010
0010
0010
0000
0000
0110
0000
,
0010
0000
1000
0000
0001
0000
0010
0100
,
0000
0001
0100
1000
,
0010
0001
0010
1000
,
0001
1000
0000
0110
0000
0000
1000
0000
,
0010
0000
0010
0000
0100
0000
0100
0001
,
0000
0010
0001
0100
,
1000
0000
0001
0000
0010
0000
0001
1000
,
0000
0000
0010
1000
0000
0000
0100
0000
,
0010
0000
0001
0000
1000
0000
0010
0100
,
0000
1000
0100
0001
,
0010
1000
0010
0001
,
1000
0001
0000
0110
0000
0000
0001
0000
,
2000
0010
3200
0010
,
2300
0010
3200
0310
,
0002
0010
0203
0010
,
0302
0010
0203
0310
,
1000
1000
0100
0100
,
0001
0000
0001
0000
0010
0000
0010
0100
,
0000
0000
0010
1000
0000
0000
0010
0001
,
0000
0001
0010
0100
,
1000
0000
0001
0000
0010
0100
0000
1001
,
0000
1000
0001
0100
,
0010
0000
0001
0000
1000
0010
0100
0000
,
0010
0001
0010
1000
,
0002
0100
2003
3100
,
0010
0200
2300
3010
,
0010
0200
0302
0013
,
1000
0010
0001
0100
,
1000
0000
0010
0000
0001
1000
0000
0110
,
0000
0001
1000
0100
,
0010
0000
1000
0000
0001
0010
0100
0000
,
0010
1000
0010
0001
,
2000
0100
3002
0103
,
0010
0200
0302
1003
,
0010
0000
0200
0000
2300
0000
3001
0001
,
0000
0000
0000
0000
,
0001
0100
0000
0100
0000
0000
0000
0000
,
0001
0000
1000
0000
,
0000
0000
0000
0000
,
1000
0000
0001
0000
,
0010
0000
0000
0000
,
0010
0000
1000
0000
,
0000
0000
0000
0000
,
0010
1000
0100
0010
,
0001
0100
0000
0000
,
0000
0000
0000
0000
;

//---------------dance-single - ----------------
#NOTEDATA:;
#CHARTNAME:;
#STEPSTYPE:dance-single;
#DESCRIPTION:;
#CHARTSTYLE:;
#DIFFICULTY:Hard;
#METER:9;
#RADARVALUES:0.425359,0.544266,0.135342,0.116007,0.000000,308.000000,294.000000,14.000000,12.000000,0.000000,0.000000,0.000000,0.000000,0.000000,0.425359,0.544266,0.135342,0.116007,0.000000,308.000000,294.000000,14.000000,12.000000,0.000000,0.000000,0.000000,0.000000,0.000000;
#CREDIT:;
#DISPLAYBPM:174.000000;
#NOTES:
0000
0000
0000
0000
,
0000
0000
0000
0000
,
0000
0000
0000
0000
,
0000
0000
0000
0000
,
0000
0000
0000
0000
,
0000
0000
0000
0000
,
0001
0100
0001
0000
,
1000
0100
1000
0000
,
0001
0000
0100
0000
1000
0100
0001
0010
,
0000
0010
0001
1000
0000
1000
0010
0000
,
0100
0000
0001
0000
0101
0000
0000
0010
,
0000
1000
1100
0000
,
0001
1000
1001
0000
,
0010
0000
0100
0000
,
1000
0000
0010
0000
1010
0000
0000
0100
,
0000
0001
0011
0000
,
1001
0000
0000
0000
0000
0100
0010
0100
,
0000
0100
0001
1000
0100
0010
0100
0000
,
1000
1000
1000
1000
,
0001
0000
0001
0000
0001
0010
0001
0010
,
0100
0100
0100
0100
,
1000
0000
1000
0000
1000
0010
1000
0010
,
0100
0100
0100
0100
,
0010
0010
0010
0010
,
1000
0000
0001
0010
0000
0001
1000
0010
,
0000
0100
0001
0100
0000
0000
0110
0000
,
0010
0000
1000
0000
0001
0100
0010
0100
,
0000
0100
0001
0000
0010
0001
1000
0000
,
0010
1000
0100
0000
0010
0001
0100
0000
,
1000
0001
0000
0110
0000
1000
0001
0000
,
0010
0000
0010
0000
0100
1000
0100
0010
,
0000
0001
0100
0000
0010
0100
0001
0000
,
1000
0100
0001
0000
0001
0100
1000
0010
,
0000
1000
0001
0010
0000
0100
1000
0000
,
0010
0000
0001
0000
1000
0100
0010
0100
,
0000
0100
1000
0000
0010
1000
0001
0000
,
0010
0001
0100
0000
0010
1000
0100
0000
,
0001
1000
0000
0110
0000
0001
1000
0000
,
0010
1000
0010
0000
1000
0100
1000
0000
,
0100
0001
0100
0000
0001
0010
0001
0000
,
0010
1000
0010
0000
1000
0100
1000
0000
,
0100
0001
0100
0000
0001
0010
0001
0000
,
0010
1000
0010
1000
0100
1000
0100
1000
,
0001
0010
0001
0010
0001
0100
0001
0100
,
0000
0100
0010
1000
0000
0100
0010
0001
,
0000
1000
0001
0000
0010
0000
0100
0000
,
1000
0000
0001
0000
0110
0110
0000
1001
,
0000
0010
1000
0000
0001
1000
0100
0000
,
0010
0000
0001
0000
1000
0010
0100
0000
,
0010
0100
0001
0000
0010
0100
1000
0000
,
0002
0100
2003
3100
,
0010
0200
2300
3010
,
0010
0200
0302
0013
,
1000
0010
0001
0100
,
1000
0100
0010
1000
0001
1000
0000
0110
,
0000
0010
0001
0000
1000
0001
0100
0000
,
0010
0000
1000
0000
0001
0010
0100
0000
,
0010
0100
1000
0000
0010
0100
0001
0000
,
2000
0100
3002
0103
,
0010
0200
0302
1003
,
0010
0000
0200
0000
2300
0000
3001
0100
,
0000
0000
0000
0000
,
0001
0100
0000
1100
0000
0000
0000
0000
,
0001
0000
1000
0000
,
0000
0000
0000
0000
,
1000
0000
0001
0000
,
0010
0000
0000
0000
,
0010
0000
1000
0000
,
0000
0000
0000
0000
,
0010
1000
0100
0001
0100
1000
0010
0100
,
0001
0010
0100
1000
0000
0000
0000
0000
,
0000
0000
0000
0000
;

//---------------dance-double - ----------------
#NOTEDATA:;
#CHARTNAME:;
#STEPSTYPE:dance-double;
#DESCRIPTION:;
#CHARTSTYLE:;
#DIFFICULTY:Easy;
#METER:5;
#RADARVALUES:0.165724,0.270683,0.009667,0.096673,0.000000,120.000000,119.000000,1.000000,10.000000,0.000000,0.000000,0.000000,0.000000,0.000000,0.165724,0.270683,0.009667,0.096673,0.000000,120.000000,119.000000,1.000000,10.000000,0.000000,0.000000,0.000000,0.000000,0.000000;
#CREDIT:;
#DISPLAYBPM:174.000000;
#NOTES:
00000000
00000000
00000000
00000000
,
00000000
00000000
00000000
00000000
,
00000000
00000000
00000000
00000000
,
00000000
00000000
00000000
00000000
,
00000000
00000000
00000000
00000000
,
00000000
00000000
00000000
00000000
,
00000001
00000000
00000000
00000000
,
00001000
00000000
00000000
00000000
,
00010000
00000000
00001000
00000000
,
00011000
00000000
00000000
00000000
,
10000000
10000000
00100000
00000000
,
00100000
00100000
00010000
00000000
,
00010000
00010000
00001000
00000000
,
00010000
00000000
00001000
00000000
,
00000010
00000010
00000001
00000000
,
00000001
00000001
00000100
00000000
,
00000100
00000000
00000010
00000000
,
00000100
00000000
00000000
00000000
,
00001000
00000000
00001000
00000000
,
00010000
00000000
00010000
00000000
,
01000000
00000000
01000000
00000000
,
00000100
00000000
00000100
00000000
,
00000010
00000000
00000010
00000000
,
00100000
00000000
00100000
00000000
,
00010000
00000000
00000000
00000000
,
10000000
00000000
00000000
00000000
,
00100000
00100000
00010000
00000000
,
10000000
00000000
00000000
00000000
,
01000000
00000000
00010000
00000000
,
00001000
00000000
00000100
00000000
,
00000010
00000010
00001000
00000000
,
00000001
00000000
00000000
00000000
,
00002000
00000000
00000000
00003000
,
00000002
00000000
00000000
00000003
,
00000010
00000010
00001000
00000000
,
00000001
00000000
00000000
00000000
,
00000100
00000000
00001000
00000000
,
00010000
00000000
01000000
00000000
,
00200000
00000000
00000000
00300000
,
20000000
00000000
00000000
30000000
,
02000000
00000000
00000000
03000000
,
00020000
00000000
00000000
00030000
,
00001000
00001000
00001000
00001000
,
00010000
00010000
00010000
00010000
,
00000000
00000100
00000000
00000100
,
00000000
00000100
00000100
00000100
,
00001000
00000001
00001000
00000000
,
00001000
00001000
00000100
00000000
,
00000001
00000001
00000100
00000000
,
00001000
00000000
00010000
00000000
,
00100000
00000000
10000000
00000000
,
00020000
00000000
00000000
00030000
,
20000000
00000000
00000000
30000000
,
00010000
00000000
01000000
00000000
,
10000000
00000000
01000000
00000000
,
00010000
00010000
00100000
00000000
,
10000000
10000000
00100000
00000000
,
00010000
00000000
00001000
00000000
,
00000100
00000000
00000001
00000000
,
00002000
00000000
00000000
00003000
,
00000002
00000000
00000000
00000003
,
00001000
00000000
00000000
00000000
,
00000001
00000001
00000000
00000001
00000000
00000000
00000000
00000000
,
00000010
00000000
00000000
00000000
,
00000000
00000000
00000000
00000000
,
00001000
00000000
00000000
00000000
,
00010000
00000000
00000000
00000000
,
00100000
00000000
00000000
00000000
,
00000000
00000000
00000000
00000000
,
10000000
00000000
00000000
00000000
,
00010000
00000000
00000000
00000000
,
00000000
00000000
00000000
00000000
;

//---------------dance-double - ----------------
#NOTEDATA:;
#CHARTNAME:;
#STEPSTYPE:dance-double;
#DESCRIPTION:;
#CHARTSTYLE:;
#DIFFICULTY:Medium;
#METER:8;
#RADARVALUES:0.327306,0.373518,0.067671,0.222347,0.000000,237.000000,230.000000,7.000000,23.000000,0.000000,0.000000,0.000000,0.000000,0.000000,0.327306,0.373518,0.067671,0.222347,0.000000,237.000000,230.000000,7.000000,23.000000,0.000000,0.000000,0.000000,0.000000,0.000000;
#CREDIT:;
#DISPLAYBPM:174.000000;
#NOTES:
00000000
00000000
00000000
00000000
,
00000000
00000000
00000000
00000000
,
00000000
00000000
00000000
00000000
,
00000000
00000000
00000000
00000000
,
00000000
00000000
00000000
00000000
,
00000000
00000000
00000000
00000000
,
00100000
10000000
01000000
00000000
,
00100000
00010000
01000000
00000000
,
00001000
00000000
00010000
00000000
00000010
00000000
00001000
00000100
,
00000000
00000000
00000010
00000001
00000000
00000000
00000100
00000000
,
00001000
00000000
00001000
00000000
00010000
00000000
00000000
00100000
,
00000000
10000000
01000000
00000000
,
00010000
00010000
00001000
00000000
,
00000100
00000000
00000001
00000000
,
00000010
00000000
00001000
00000000
00010000
00000000
00000000
00100000
,
00000000
00010000
00001000
00000000
,
01000000
00000000
00000000
00000000
00000000
00000000
00100000
01000000
,
00000000
00000000
00010000
00000000
10000000
01000000
10000000
00000000
,
00100000
00100000
10000000
10000000
,
01000000
01000000
00010000
00010000
,
00001000
00001000
00000100
00000100
,
00000001
00000001
00000010
00000010
,
00001000
00001000
00100000
00100000
,
01000000
01000000
10000000
10000000
,
00100000
00000000
10000000
01000000
00000000
00000000
00010000
01000000
,
00000000
00100000
00100000
00100000
00000000
00000000
01100000
00000000
,
00100000
00000000
00010000
00000000
00001000
00000000
00000010
00001000
,
00000000
00010000
01000000
10000000
,
00200000
00010000
10000000
00310000
,
00001000
00000010
00000000
00001001
00000000
00000000
00000100
00000000
,
00000010
00000000
00010000
00000000
00001000
00000000
01000000
00010000
,
00000000
00100000
10000000
01000000
,
00020000
00000000
00001000
00000000
01000000
00000000
00031000
00000100
,
00000000
00000000
00000001
00001000
00000000
00000000
00000100
00000000
,
00000010
00000000
00001000
00000000
00010000
00000000
00100000
00010000
,
00000000
00001000
00000100
00000001
,
00000020
00001000
00000001
00001030
,
00010000
00100000
00000000
10010000
00000000
00000000
01000000
00000000
,
00100000
00100000
10000000
10000000
,
01000000
01000000
00010000
00010000
,
00000010
00000010
00000001
00000001
,
00000100
00000100
00001000
00001000
,
00020000
00000010
00032000
00100000
,
00023000
00000000
00000100
00000000
00032000
00000000
01003000
00100000
,
00000000
00000000
00100000
10000000
00000000
00000000
10000000
01000000
,
00000000
00010000
00001000
00000100
,
00000001
00000000
00001000
00000000
00000010
00000100
00000000
00000120
,
00000000
00001000
00000001
00001030
,
00010000
00000000
10000000
00000000
00100000
01000000
00010000
00000000
,
00020000
00100000
20030000
00100000
,
30020000
01000000
00031000
00011000
,
00002000
00000010
00023000
00100000
,
00032000
00000010
00023000
00130000
,
10000000
01000000
00010000
00001000
,
00000010
00000000
00000001
00000000
00001000
00000001
00000000
00000120
,
00000000
00001000
00000001
00001030
,
00010000
00000000
10000000
00000000
00100000
01000000
00010000
00000000
,
00020000
00100000
20030000
00100000
,
30020000
01000000
00031000
00011000
,
00002000
00000010
00023000
00100000
,
00032000
00000000
00000010
00000000
00023000
00000000
00130000
10000000
,
00000000
00000000
00000000
00000000
,
01000000
01000000
00000000
01000000
00000000
00000000
00000000
00000000
,
00010000
00000000
10000000
00000000
,
00000000
00000000
00000000
00000000
,
10000000
00000000
00010000
00000000
,
00001000
00000000
00000000
00000000
,
00000001
00000000
00001000
00000000
,
00000000
00000000
00000000
00000000
,
00000001
00001000
00010000
10000000
,
00010000
01000000
00000000
00000000
,
00000000
00000000
00000000
00000000
;

//---------------dance-double - ----------------
#NOTEDATA:;
#CHARTNAME:;
#STEPSTYPE:dance-double;
#DESCRIPTION:;
#CHARTSTYLE:;
#DIFFICULTY:Hard;
#METER:11;
#RADARVALUES:0.410168,0.544266,0.067671,0.145009,0.000000,297.000000,290.000000,7.000000,15.000000,0.000000,0.000000,0.000000,0.000000,0.000000,0.410168,0.544266,0.067671,0.145009,0.000000,297.000000,290.000000,7.000000,15.000000,0.000000,0.000000,0.000000,0.000000,0.000000;
#CREDIT:;
#DISPLAYBPM:174.000000;
#NOTES:
00000000
00000000
00000000
00000000
,
00000000
00000000
00000000
00000000
,
00000000
00000000
00000000
00000000
,
00000000
00000000
00000000
00000000
,
00000000
00000000
00000000
00000000
,
00000000
00000000
00000000
00000000
,
00000010
00010000
00000100
00000000
,
01000000
00001000
00100000
00000000
,
00010000
00000000
00100000
00000000
10000000
00010000
01000000
00100000
,
00000000
00010000
00001000
01000000
00000000
00010000
00000100
00000000
,
00000010
00000000
00001000
00000000
00000010
00000000
00000000
00000001
,
00000000
00001000
00010000
00000000
,
00100000
10000000
01000000
00000000
,
10000000
00000000
00001000
00000000
,
00000001
00000000
00000100
00000000
00000001
00000000
00000000
00000010
,
00000000
00001000
00000100
00000000
,
00001001
00000000
00000000
00000000
00000000
00000010
00010000
00001000
,
00000000
00100000
00001000
00000100
00010000
00100000
01000000
00000000
,
00100000
00100000
10000000
10000000
,
01000000
00000000
01000000
00000000
00010000
00001000
00010000
00001000
,
00000010
00000010
00000001
00000001
,
00000100
00000000
00000100
00000000
00001000
00010000
00001000
00010000
,
01000000
01000000
10000000
10000000
,
00100000
00100000
00010000
00010000
,
00001000
00000000
00000010
00000001
00000000
00001000
00000010
00000100
,
00000000
00001000
00010000
00001000
00000000
00000000
00011000
00000000
,
00000100
00000000
00000001
00000000
00001000
00000100
00000010
00001000
,
00000000
00010000
00100000
00000000
10000000
00010000
01000000
00000000
,
00200000
10000000
00010000
10300000
,
01000000
00010000
00000000
00011000
00000000
00000100
00000001
00000000
,
00000010
00000000
00000010
00000000
00000001
00001000
00000010
00000100
,
00000000
00001000
00010000
00000000
00000010
00001000
00010000
00000000
,
00100000
10000000
01000000
00000000
00100000
00001000
01000000
00010000
,
00000000
10000000
00010000
00100000
00000000
01000000
00010000
00000000
,
01000000
00000000
10000000
00000000
00010000
01000000
00100000
00010000
,
00000000
00001000
00000010
00000000
00000001
00001000
00000100
00000000
,
00000020
00000001
00001000
00000031
,
00000100
00001000
00000000
00011000
00000000
01000000
10000000
00000000
,
00100000
10000000
00100000
00000000
01000000
00010000
01000000
00000000
,
00001000
00010000
00001000
00000000
00000010
00000001
00000010
00000000
,
00000100
00010000
00000100
00000000
00001000
01000000
00001000
00000000
,
00100000
00010000
00100000
00000000
01000000
10000000
01000000
00000000
,
00100000
01000000
00100000
01000000
00001000
00010000
00001000
00010000
,
00000100
00000010
00000100
00000010
00000001
00001000
00000001
00000010
,
00000000
00000001
00000100
00001000
00000000
00010000
01000000
10000000
,
00000000
00100000
10000000
00000000
01000000
00000000
00010000
00000000
,
00000100
00000000
00000010
00000000
00001000
00000001
00000000
00001001
,
00000000
00000100
00000001
00000000
00000010
00010000
00001000
00000000
,
00100000
00000000
00010000
00000000
10000000
00100000
01000000
00000000
,
00001000
00010000
01000000
00000000
00010000
00001000
00100000
00000000
,
00020000
10000000
01000000
00032000
,
00003200
00000010
00002300
00000010
,
00003200
00000010
00002300
00000010
,
00003001
00001000
00010000
10000000
,
01000000
00010000
00001000
00010000
00100000
10000000
00000000
10010000
,
00000000
01000000
10000000
00000000
00100000
00001000
00010000
00000000
,
00000010
00000000
00001000
00000000
00000001
00000010
00000100
00000000
,
00010000
00001000
00000100
00000000
00001000
00010000
00000010
00000000
,
00002000
00000001
00000100
00023000
,
02030000
00100000
03020000
00100000
,
02030000
00000000
00100000
00000000
03010000
00000000
00200000
02000000
,
00000000
00000000
00000000
03300000
,
00010000
00001000
00000000
00000110
00000000
00000000
00000000
00000000
,
00001000
00000000
00000001
00000000
,
00000000
00000000
00000000
00000000
,
00010000
00000000
00001000
00000000
,
01000000
00000000
00000000
00000000
,
00100000
00000000
10000000
00000000
,
00000000
00000000
00000000
00000000
,
01000000
10000000
00010000
00100000
00001000
00010000
00000010
00000100
,
00000001
00000010
00001000
00010000
00000000
00000000
00000000
00000000
,
00000000
00000000
00000000
00000000
;

//---------------dance-single - ----------------
#NOTEDATA:;
#CHARTNAME:;
#STEPSTYPE:dance-single;
#DESCRIPTION:;
#CHARTSTYLE:;
#DIFFICULTY:Challenge;
#METER:18;
#RADARVALUES:1.026110,1.166837,0.444694,0.193345,1.247076,743.000000,697.000000,46.000000,20.000000,188.000000,0.000000,0.000000,0.000000,0.000000,1.026110,1.166837,0.444694,0.193345,1.247076,743.000000,697.000000,46.000000,20.000000,188.000000,0.000000,0.000000,0.000000,0.000000;
#CREDIT:;
#DISPLAYBPM:174.000000;
#NOTES:
// measure 0
0000
0000
0000
0000
,  // measure 1
0000
0000
0000
0000
,  // measure 2
0000
0000
0000
0000
,  // measure 3
0000
0000
0000
0000
,  // measure 4
0000
0000
0000
0000
,  // measure 5
0000
0000
0000
0000
,  // measure 6
1000
0100
1000
0010
0100
0002
0000
0103
,  // measure 7
MMMM
0010
MMMM
1100
MMMM
1000
0010
0100
,  // measure 8
0001
0000
1000
0000
0100
0000
1000
0001
1000
0001
1000
0000
0100
0000
0010
0000
,  // measure 9
MMMM
0001
0010
0100
MMMM
1000
0010
0100
,  // measure 10
0001
0000
1000
0001
0100
0000
0010
1000
0001
0000
0200
0000
1000
0000
0310
0100
,  // measure 11
0001
0000
0010
0001
0100
0000
1000
0100
0010
0000
0001
0010
0100
0000
0010
0000
,  // measure 12
1000
0100
0001
1000
0100
0020
0000
0031
,  // measure 13
MMMM
0100
0010
1000
MMMM
0010
0100
0001
,  // measure 14
1000
0000
0010
0100
0001
0000
0100
0010
0001
0000
2000
0000
0010
0000
3001
0010
,  // measure 15
0100
0000
1000
0100
0010
0000
0100
0010
0001
0000
0010
0100
1000
0000
0001
0100
,  // measure 16
0010
0000
1000
0000
0001
0000
1000
0000
0100
0001
0010
1000
0100
0000
0001
0010
,  // measure 17
0001
0000
0100
0010
1000
0100
0010
0001
0100
0010
1000
0001
0100
0010
1000
0100
,  // measure 18
0010
0000
0001
0010
0001
0000
0010
0100
0010
0000
1000
0100
1000
0000
1000
0001
,  // measure 19
1000
0000
0000
0000
0000
0000
0001
0000
0000
0010
0000
0000
0001
0000
0000
0000
0000
0000
0100
0000
0000
0010
0000
0000
1000
0000
0000
0000
0000
0000
0100
0000
0000
0010
0000
0000
0000
0000
MMMM
0000
0000
0000
0110
0000
0000
0000
0000
0000
,  // measure 20
1001
0000
0001
0010
0100
0000
0010
0100
1000
0000
0010
0100
0001
0000
1000
0100
,  // measure 21
0010
0000
0000
0000
0000
0000
0001
0000
0000
1000
0000
0000
0100
0000
0000
0000
0000
0000
0010
0000
0000
1000
0000
0000
0100
0000
0000
0000
0000
0000
0001
0000
0000
0010
0000
0000
0000
0000
MMMM
0000
0000
0000
1001
0000
0000
0000
0000
0000
,  // measure 22
0100
0010
1000
0010
0100
0001
0010
0001
0100
0010
1000
0010
0100
0001
0010
0001
,  // measure 23
0100
0010
1000
0001
0010
0100
1000
0001
0100
0010
1000
0100
0010
0001
0100
0010
,  // measure 24
1000
0010
0100
0001
1000
0100
0010
0001
,  // measure 25
MMMM
0000
0100
0001
1000
0001
0100
0000
MMMM
0000
1100
0000
0011
0000
1001
0000
,  // measure 26
0001
0010
0100
0000
1100
0000
1000
0100
1000
0100
1000
0100
1000
0000
1010
0000
,  // measure 27
MMMM
0000
0010
0000
0100
0001
0010
0000
0001
0000
0100
0010
0001
0010
1000
0000
,  // measure 28
1100
0000
0010
0001
0100
0000
0110
0000
0011
0000
1000
0100
0010
0000
0011
0000
,  // measure 29
1001
0101
0000
1100
MMMM
1010
0000
0010
,  // measure 30
1000
0100
0010
0000
0011
0000
0001
0010
0001
0010
0001
0010
0001
0000
0011
0000
,  // measure 31
MMMM
0000
0001
0000
0100
0010
1000
0000
0100
0000
0010
1000
0010
0100
0001
0000
,  // measure 32
0001
0100
1000
0100
0010
0001
0100
0010
0001
0000
0202
0000
0303
0000
1100
0000
,  // measure 33
MMMM
0000
1000
0100
0010
0000
2002
0000
3003
0000
0001
0000
0010
0001
0100
0001
,  // measure 34
1000
0100
0010
0000
0110
0000
0100
0001
1000
0100
0001
0010
1000
0000
1001
0000
,  // measure 35
MMMM
0000
0010
0000
0100
0001
1000
0000
1100
0000
1000
0010
0001
0100
1000
0000
,  // measure 36
0100
1000
0100
1000
0010
0000
1010
0000
1000
0100
1000
0100
0001
0000
1001
0000
,  // measure 37
0001
0010
0100
0000
0000
0000
1100
0000
MMMM
0000
0101
0000
1100
0000
0101
0000
,  // measure 38
0100
0010
0100
0000
0010
0100
0010
0000
1000
0001
1000
0000
0001
1000
0001
1000
,  // measure 39
0100
0010
0001
0100
0010
1000
0001
0010
0100
1000
0100
0010
1000
0100
0010
0100
,  // measure 40
0001
0010
0001
0000
0100
0010
0100
0000
1000
0100
1000
0000
0010
0100
0010
0000
,  // measure 41
MMMM
0000
0011
0000
0000
0000
1001
0000
MMMM
0000
1000
0010
0001
0100
1000
0000
,  // measure 42
0100
1000
0100
0001
0100
1000
0100
0001
0100
1000
0100
0001
0100
1000
0100
0001
,  // measure 43
1000
0010
0100
0010
1000
0010
0100
0010
1000
0010
0100
0010
1000
0010
0200
0000
,  // measure 44
0000
0000
0301
0010
1000
0000
2002
0000
3003
0000
0001
1000
0010
0000
0020
0000
,  // measure 45
1000
0100
1000
0100
0001
0100
0001
0130
,  // measure 46
0010
0000
0000
0000
0100
0000
0000
0000
1000
0000
0000
0000
0001
0000
0000
1000
0000
0000
0010
0000
0000
0000
0000
0000
0100
0000
0000
0010
0000
0000
1000
0000
0000
0000
0000
0000
MMMM
0000
0000
0000
0000
0000
1000
0000
0000
0010
0000
0000
,  // measure 47
0001
0100
1000
0001
0100
0010
1000
0001
0100
1000
0100
0010
0001
0100
0010
1000
,  // measure 48
0100
0010
1000
0001
0100
0010
1000
0100
0010
0001
1000
0010
0100
0001
0010
1000
,  // measure 49
0100
0010
1000
0001
0010
0100
0001
1000
0100
0010
0001
0100
0010
1000
0001
0010
,  // measure 50
1000
0001
0100
0000
0101
0000
MMMM
0000
0001
0010
0100
0000
1100
0000
MMMM
0000
,  // measure 51
1000
0000
0000
0010
0000
0000
0100
0000
0000
0001
0000
0000
1000
0000
0000
0100
0000
0000
0010
0000
0000
0001
0000
0000
0100
0000
0000
0010
0000
0000
1000
0000
0000
0001
0000
0000
0010
0000
0000
0000
0100
0000
0000
0000
1000
0000
0000
0000
,  // measure 52
0001
0000
0000
0010
0000
0000
0100
0000
0000
1000
0000
0000
0001
0000
0000
0100
0000
0000
0010
0000
0000
1000
0000
0000
0100
0000
0000
0010
0000
0000
0001
0000
0000
0100
0000
0000
0010
0000
0000
0000
0001
0000
0000
0000
0100
0000
0000
0000
,  // measure 53
0010
1000
0100
1000
0010
1000
0100
1000
0010
1000
0100
1000
0010
1000
0100
0010
,  // measure 54
0001
0000
0000
1000
0000
0000
0100
0000
0000
1000
0000
0000
0001
0000
0000
1000
0000
0000
0010
0000
0000
1000
0000
0000
0001
0000
0000
1000
0000
0000
0001
0000
0010
0000
0100
0000
1000
0000
0100
0000
0010
0000
0002
0000
0000
0000
0003
0000
,  // measure 55
MMMM
0000
0001
0010
0100
0000
0010
0100
1000
0000
0010
0001
0100
0010
1000
0100
,  // measure 56
0010
0000
0000
0000
0001
0000
0000
0000
0100
0000
0000
0000
0001
0000
0000
0000
1000
0000
0000
0000
0100
0000
0000
0000
0010
0000
0000
0001
0000
0000
0100
0000
0000
0000
0000
0000
0101
0000
0000
0000
0000
0000
1000
0000
0000
0000
0000
0000
,  // measure 57
0100
1000
0010
1000
0001
0010
0100
1000
0010
0001
0100
0010
1000
0100
0010
0001
,  // measure 58
1000
0010
0100
0001
1100
0000
MMMM
0000
1000
0001
0010
1000
0101
0000
MMMM
0000
,  // measure 59
1000
0001
0010
0100
0001
1000
0100
0010
0001
0100
0010
1000
0001
0010
0100
1000
,  // measure 60
0010
0000
0000
0100
0000
0000
0001
0000
0000
1000
0000
0000
0100
0000
0000
0010
0000
0000
0001
0000
0000
0100
0000
0000
0010
0000
0000
1000
0000
0000
0001
0000
0010
0000
0100
0000
1000
0000
0001
0000
0100
0000
0020
0000
0000
0000
0000
0000
,  // measure 61
0000
0000
0000
0000
0000
0000
0030
0000
1000
0100
0010
0001
1000
0100
0001
0000
,  // measure 62
0101
0000
1100
0000
0110
0000
0101
0000
MMMM
0000
1000
0010
0100
0001
0010
0000
,  // measure 63
0200
0000
0000
0000
0000
0000
1000
0000
0301
0000
MMMM
MMMM
MMMM
MMMM
MMMM
MMMM
,  // measure 64
MMMM
1000
0010
0100
MMMM
0010
0001
1000
,  // measure 65
0010
0100
0001
0100
MMMM
0000
0100
0000
0001
0010
0001
0010
MMMM
0000
1000
0000
,  // measure 66
0100
0001
0010
0001
MMMM
0000
0110
0000
0000
0000
0101
0000
MMMM
0000
MMMM
0000
,  // measure 67
0002
0000
0000
0000
0000
0000
0100
0000
1003
0000
MMMM
MMMM
MMMM
MMMM
MMMM
MMMM
,  // measure 68
MMMM
0000
0000
0000
0000
0000
0000
0000
0000
0000
0000
0000
0100
0000
0000
0000
0000
0000
0000
0000
0010
0000
0000
0000
0000
0000
0000
0000
1000
0000
0000
0000
0000
0000
0000
0000
0100
0000
0000
0000
0000
0000
0010
0000
0000
0100
0000
0000
,  // measure 69
0010
0000
0001
0010
0001
0000
0100
0001
0100
0010
1000
0100
0001
0000
0202
0000
,  // measure 70
0300
0000
0013
0100
2000
0000
0020
0000
0000
0000
0000
0000
0000
0000
3030
0000
,  // measure 71
MMMM
0000
0000
0000
;
