#TITLE:Tondemo-Wonderz;
#SUBTITLE:;
#ARTIST:sasakure.UK;
#TITLETRANSLIT:;
#SUBTITLETRANSLIT:;
#ARTISTTRANSLIT:;
#GENRE:;
#CREDIT:;
#BANNER:;
#BACKGROUND:Tondemo-Wonderz-bg.jpg;
#LYRICSPATH:;
#CDTITLE:;
#MUSIC:Tondemo-Wonderz.mp3;
#OFFSET:-0.324717;
#SAMPLESTART:81.300003;
#SAMPLELENGTH:12.000000;
#SELECTABLE:YES;
#DISPLAYBPM:86.000000:172.000000;
#BPMS:0.000000=172.154007
,189.000000=85.077003
,197.000000=86.077003
,206.000000=172.554001
,222.000000=172.354004
,239.000000=172.253998
,255.000000=172.354004
,261.500000=172.154007
,271.000000=172.354004
,279.000000=172.253998
,295.000000=172.154007
;
#STOPS:188.666672=2.900000
;
#BGCHANGES:0.000=Tondemo-Wonderz-bg.jpg=1.000=0=0=0=StretchNoLoop====,
0.021=Tondemo-Wonderz.mp4=1.000=0=0=1=====,
0.042=Tondemo-Wonderz-bg.jpg=1.000=0=0=1=====,
0.500=Tondemo-Wonderz.mp4=1.000=0=0=1=StretchNormal====,
99999=-nosongbg-=1.000=0=0=0 // don't automatically add -songbackground-
;
#KEYSOUNDS:;
#ATTACKS:;

//---------------dance-single - ----------------
#NOTES:
     dance-single:
     :
     Easy:
     7:
     0.122737,0.160924,0.000000,0.202633,0.020263,106.000000,106.000000,0.000000,25.000000,0.000000,0.000000,0.122737,0.160924,0.000000,0.202633,0.020263,106.000000,106.000000,0.000000,25.000000,0.000000,0.000000:
0000
0000
0000
0000
,
0000
2000
0000
0000
0000
0000
0000
0000
,
0000
0000
0000
0000
,
0000
0000
0000
0000
,
3000
0100
0000
0000
,
0000
0010
0000
0000
,
0000
1000
0000
0000
,
0000
0001
0000
0000
,
0000
0200
0000
0000
,
0000
0300
0000
0000
,
0000
0020
0000
0000
,
0000
0030
0000
0000
,
0000
1000
0000
0000
,
0000
0001
0000
0000
,
0000
0100
0000
0000
,
0000
0002
0000
0000
,
0000
0003
0000
0000
,
0000
0100
0000
0000
,
0000
0010
0000
0000
,
0000
0100
0000
0000
,
0000
0020
0000
0000
,
0000
0000
0000
0030
,
0000
1000
0000
0001
,
0000
1000
0000
0001
,
0000
2000
0000
3000
,
0000
0002
0000
0003
,
0000
1000
0000
1000
,
0000
0001
0000
0001
,
0000
1000
0000
0010
,
0000
2000
0000
3000
,
0000
0001
0000
1000
,
0000
0001
0000
1000
,
0000
0002
0000
0003
,
0000
2000
0000
3000
,
0000
0001
0000
0001
,
0000
1000
0000
1000
,
0000
0001
0000
1000
,
0000
0002
0000
0003
,
0000
1000
0000
0001
,
0000
1000
0000
0001
,
0000
1000
0000
0000
,
0010
0000
0000
0000
0000
0000
0000
0000
0000
0000
0000
0100
0000
0000
0000
0000
,
0000
0000
0000
0000
0000
0001
0000
0000
0000
0000
0000
0000
,
0000
2000
0000
0000
0000
0000
0000
0000
,
0000
0000
0000
0000
,
3000
0000
0000
0000
0000
0200
0000
0000
0000
0000
0000
0000
0000
0000
0000
0000
,
0000
0000
0000
0000
,
0000
0000
0300
0100
0000
0000
0000
0000
0000
0100
0000
0000
,
0000
0010
0000
0010
,
0000
1000
0000
1000
,
0000
0000
0000
0000
0000
0000
0000
0000
0000
0000
0000
0002
0000
0000
0000
0000
,
0000
0000
0003
1000
,
0000
0001
0000
1000
,
0000
0001
0000
2000
,
0000
3100
0000
0002
,
0000
0103
0000
1000
,
0000
1000
0000
0001
,
0000
0001
0000
1000
,
0000
0001
0000
2000
,
0000
3000
0000
0001
,
0000
1000
0000
0001
,
0000
1000
0000
0002
,
0000
0103
0000
2000
,
0000
3100
0000
0001
,
0000
0001
0000
1000
,
0000
1000
0000
0001
,
0000
1000
0000
0002
,
0000
0003
0000
1000
,
0000
0010
0000
0100
,
0000
0001
0000
1000
,
0000
0010
0000
0100
,
0000
0001
0000
1000
,
0000
0001
0000
1000
,
0000
0001
0000
2000
,
0000
0000
0000
3200
0000
2300
0000
0000
,
0000
0000
0000
0000
0000
3200
0000
0000
,
0000
2300
0000
0000
0000
0000
0000
0000
,
0000
0000
0000
0000
,
0000
0000
0000
0000
,
3000
0000
0000
0000
0000
0001
0000
0000
0000
0000
0000
0000
;

//---------------dance-single - ----------------
#NOTES:
     dance-single:
     :
     Beginner:
     5:
     0.107685,0.225294,0.024316,0.113474,0.008105,93.000000,90.000000,3.000000,14.000000,0.000000,0.000000,0.107685,0.225294,0.024316,0.113474,0.008105,93.000000,90.000000,3.000000,14.000000,0.000000,0.000000:
0000
0000
0000
0000
,
0000
0000
0000
0000
,
0000
0000
0000
0000
,
0000
0000
0000
0000
,
0000
0001
0000
0000
,
0000
0000
0000
0000
,
0000
1000
0000
0000
,
0000
0000
0000
0000
,
0000
0001
0000
0000
,
0000
1000
0000
0000
,
0000
0010
0000
0000
,
0000
0000
0000
0000
,
0000
0200
0000
0000
,
0000
0300
0000
0000
,
0000
0020
0000
0000
,
0000
0030
0000
0000
,
0000
2000
0000
0000
,
0000
3000
0000
0000
,
0000
0002
0000
0000
,
0000
0000
0000
0000
,
0000
0000
0000
0000
,
0000
0000
0000
0003
,
0000
1000
1000
1000
,
0000
1000
0000
0000
,
0000
0001
0001
0001
,
0000
0001
0000
0000
,
0000
0010
0010
0010
,
0000
0010
0000
0000
,
0000
0100
0100
0100
,
0000
0100
0000
0000
,
0000
1000
1000
1000
,
0000
1000
0000
0000
,
0000
0010
0010
0010
,
0000
0010
0000
0000
,
0000
0100
0100
0100
,
0000
0100
0000
0000
,
0000
0001
0001
0001
,
0000
0001
0000
0000
,
0000
0001
0000
1000
,
0000
0001
1000
0001
,
1000
0002
0000
0003
,
2000
0000
0000
0000
,
0000
0000
0000
0000
,
3000
0000
0000
0000
,
0000
0000
0000
0000
,
0000
0000
0000
0000
,
0000
0000
0000
0000
,
0000
0001
0000
0000
,
0000
0000
0000
0000
,
0000
1000
0000
0000
,
0000
0000
0000
0000
0000
0000
0000
0000
0000
0000
0000
0220
0000
0000
0000
0000
,
0000
0000
0330
0100
,
0100
0100
0000
0100
,
0000
0000
0000
0010
,
0010
0010
0000
0010
,
0000
0000
0000
1000
,
1000
1000
0000
1000
,
0000
0000
0000
0001
,
0001
0001
0000
0001
,
0000
0000
0000
0010
,
0010
0010
0000
0010
,
0000
0000
0000
0100
,
0100
0100
0000
0100
,
0000
0000
0000
1000
,
1000
1000
0000
1000
,
0000
0000
0000
1000
,
0000
0001
0000
1000
,
0000
0001
0000
2000
,
0000
0000
0000
3000
,
0000
0000
0000
0002
,
0000
0000
0000
0003
,
0000
0000
0000
2002
,
0000
0000
0000
0000
,
0000
3003
0000
0020
,
0000
0000
0000
0000
,
0000
0000
0030
0000
0000
0200
0000
0000
,
0000
0000
0000
0000
,
0000
0300
0000
0000
,
0000
0000
0000
0000
,
0000
0000
0000
0000
0000
0110
0000
0000
0000
0000
0000
0000
;

//---------------dance-single - ----------------
#NOTES:
     dance-single:
     :
     Medium:
     12:
     0.551161,0.740251,0.462002,0.599792,0.113474,476.000000,419.000000,57.000000,74.000000,0.000000,0.000000,0.551161,0.740251,0.462002,0.599792,0.113474,476.000000,419.000000,57.000000,74.000000,0.000000,0.000000:
0000
0000
0000
0000
,
0000
0000
0000
0000
,
0000
0011
0000
0000
0000
1001
0000
0000
,
1001
0000
0000
0000
1000
0000
0001
0000
0000
0000
0000
0100
0000
0000
0100
0000
,
0000
0100
0000
0000
0100
0000
0010
0000
0100
0000
0000
0000
0001
0000
1000
0000
,
0000
1000
0001
1000
0100
1000
0010
0100
,
0001
0000
0010
0001
0001
0010
0010
0001
,
0000
1001
0000
1000
0100
1000
0001
0100
,
0100
0010
0200
0000
0001
0000
0010
0000
,
0301
0000
1000
0100
1000
0100
1000
0000
,
1001
0000
1000
0100
0010
0010
0100
1000
,
0000
1000
0001
0100
0010
0100
0001
0000
,
0101
2010
0100
0001
,
0100
0010
0001
0100
,
0001
0000
0000
0000
0010
0000
0000
0010
0000
0000
0010
0000
0000
0000
3010
0000
,
1000
0001
0101
0000
1010
0000
1100
0000
,
0011
0102
1000
0010
,
1000
0100
0010
1000
,
0200
0303
0000
0000
0100
0000
0001
0000
1000
0000
0001
0000
1000
0000
0100
0000
,
1000
0000
0100
0000
0010
0000
0001
0000
0010
0000
0001
0000
0010
0000
0000
0001
,
0000
1000
0002
0000
0023
0000
0230
0000
,
2300
0000
0000
0000
3001
0000
1000
0000
0001
0000
1000
0001
2000
0000
0000
0000
,
3001
0000
0001
0010
0100
1000
0001
1000
,
0010
1000
0000
1000
0100
0010
0000
0110
,
0000
0200
0310
0200
1300
0200
0310
0200
,
1300
0200
0310
0010
0100
1000
0001
0000
,
1001
0000
0001
0100
0010
0100
0001
1000
,
0001
0010
0000
0010
0001
1000
0000
1001
,
0000
0001
1000
0100
0000
0100
1000
0001
,
0100
0020
0000
1000
1000
1030
0000
2002
,
0000
0000
3003
0000
0001
0000
0010
0000
0100
0000
1000
0100
1000
0000
0100
0000
,
1000
0002
0000
1003
0001
0010
0000
1001
,
0000
0002
0013
0002
0103
0002
1003
0002
,
0103
0002
0013
0002
0203
0000
0310
0000
,
0110
0000
0010
0100
0010
0100
0001
1000
,
0001
2000
0000
3001
1000
0100
0000
0110
,
0000
0000
0100
1000
0100
1100
1000
0001
,
0100
0010
0100
0001
1000
0001
1001
0000
,
1001
0000
2010
0010
3010
0000
0102
0100
,
0103
0200
0320
0130
,
1001
0000
2020
0000
0000
0000
0000
3030
,
2200
0000
0000
0000
0000
0000
0000
0000
0000
3300
0000
0022
0000
0000
0000
0000
,
0000
0000
0000
0000
0000
0033
0000
0202
0000
0000
0000
0000
0000
0000
0000
0000
,
0303
2002
0000
0000
0000
0000
0000
0000
,
0000
0000
0000
0000
,
0000
0000
3003
0000
0000
0220
0000
0000
0000
0000
0000
0000
0000
0000
0000
0000
,
0000
0000
0000
0000
,
0000
0000
0000
0000
0000
0000
0000
0000
0330
0000
0000
0000
0100
0000
0000
0010
0000
0000
0100
0000
0000
0000
0000
0000
0110
0000
0000
0000
0000
0000
0000
0000
0000
0000
0000
0000
0010
0000
0000
1000
0000
0000
0010
0000
0000
0000
0000
0000
,
1010
0000
0000
1000
0100
1000
0100
1000
0001
0000
0000
0000
0001
0100
0001
0000
,
0101
0000
0000
0000
0010
1000
0010
0000
1010
0000
0000
0000
1000
0001
1000
0000
,
1001
0000
0000
0000
0000
0000
0000
0000
0000
0000
0000
0220
0000
0000
0000
0000
,
0000
0000
0000
0000
0330
0000
0100
0010
,
1000
0010
0100
0001
1000
0001
0000
0001
,
0010
0001
0000
1001
0000
2000
3100
2000
,
3010
2000
3001
2000
3100
2000
3001
1000
,
0020
0000
0130
0000
0101
0000
0001
0010
,
0001
1000
0001
1000
0100
1000
0000
1000
,
0010
0100
0000
0101
0000
0001
1000
0100
,
0000
0100
1000
0001
0100
0010
0000
0010
,
0100
0010
0000
0220
0000
0330
0100
0001
,
1000
0001
0010
0001
1000
0001
0000
0001
,
1000
0010
0000
1010
0000
0020
1030
0020
,
0130
0020
0031
0020
0130
0020
1030
0001
,
2000
0000
3100
0000
1001
0000
0001
0010
,
0001
1000
0001
0100
0001
0010
0000
0010
,
0001
1000
0000
1001
0000
0000
0001
0010
,
0100
1000
1100
1000
0100
0010
0100
1000
,
1000
0001
0010
0000
0011
0000
0021
0001
,
0031
0000
1200
1000
1300
0000
2000
0000
,
3002
0000
0103
0000
0101
0000
2010
0010
,
3010
0000
0102
0100
0103
0000
0020
0000
,
0230
0000
0301
0000
1001
0000
2001
0001
,
0001
0000
0001
0001
0001
0000
0010
0000
,
0100
0000
0000
0000
0001
0000
0000
3001
0000
0000
0000
0000
0220
0000
0000
0000
,
0330
0000
0000
1010
0000
0101
0000
0001
,
0010
0010
0001
1000
0001
2000
0000
3001
,
0100
0200
0000
0320
2030
3000
1000
0002
,
0003
0000
0000
1000
0000
0100
0000
1000
0000
0100
0000
1000
,
0000
0100
0000
1000
0000
0100
0000
1000
0000
0100
0000
1000
,
0000
0100
0000
0000
0000
1100
0000
0000
0000
0000
0000
0000
;

//---------------dance-single - ----------------
#NOTES:
     dance-single:
     :
     Hard:
     16:
     0.817478,1.062099,0.389055,0.526845,0.680846,706.000000,658.000000,48.000000,65.000000,0.000000,0.000000,0.817478,1.062099,0.389055,0.526845,0.680846,706.000000,658.000000,48.000000,65.000000,0.000000,0.000000:
// measure 0
0000
0000
0000
0000
,  // measure 1
0000
0000
0000
0000
,  // measure 2
0000
0012
0000
1003
0001
0100
0000
0100
,  // measure 3
0001
0000
0000
0000
1000
0000
0100
0000
0000
0000
1000
0000
0001
0000
0000
1000
,  // measure 4
0000
0000
0001
0000
1000
0000
0100
0000
1000
0000
0010
0000
0100
0001
0100
0000
,  // measure 5
0000
0000
0001
0010
0001
0010
0001
0000
1000
0000
0010
0000
1000
0000
0001
1000
,  // measure 6
0001
0000
0000
0000
1000
0100
1000
0100
1000
0000
0001
0100
0001
0100
0001
0000
,  // measure 7
0000
0000
0220
0000
0330
0000
0010
0100
0010
0000
1000
0000
0001
0000
1000
0000
,  // measure 8
0100
0000
1000
0100
1000
0100
1000
0100
1000
0000
0100
0000
0000
0000
0100
0000
,  // measure 9
1000
0000
0001
0000
0010
0001
0010
0001
0010
0000
0001
0000
0011
0000
0000
0001
,  // measure 10
0100
0000
0000
0000
0100
0010
0100
0010
0100
0000
0010
0100
0010
0100
0010
0000
,  // measure 11
0000
0000
0100
0000
0001
0000
1000
0000
0100
0000
0010
0000
0001
0000
0000
0001
,  // measure 12
1000
0100
2100
0100
0010
3100
2000
0001
,  // measure 13
0010
3001
2000
0001
0100
3001
2000
0010
,  // measure 14
0100
0000
3001
0000
2000
0000
0000
0010
0000
0000
3100
0000
2000
0000
0100
0000
,  // measure 15
0010
3001
2002
3003
2002
3003
2002
3003
,  // measure 16
2002
3003
0012
0010
0100
0013
0002
0100
,  // measure 17
0010
0000
0103
0000
0002
0000
1000
0000
0100
0000
0013
0000
0002
0000
0013
0100
,  // measure 18
1000
0000
0001
0000
1000
0001
1000
0001
0100
0001
0100
0000
0001
0000
0000
1000
,  // measure 19
0000
0000
0010
0000
1000
0100
1000
0100
1000
0100
1000
0100
1000
0000
0000
0001
,  // measure 20
0000
0100
0200
0010
0320
1000
2030
0001
,  // measure 21
3002
0000
0010
0000
0013
0001
0010
0001
1000
0010
1000
0010
0200
0000
0300
0001
,  // measure 22
1000
0000
0000
0000
1000
0100
1000
0000
0010
0100
0010
0000
1000
0000
0000
1000
,  // measure 23
0100
0000
0010
0001
0010
0000
0001
0000
0100
0000
0010
1000
0010
0000
0001
0100
,  // measure 24
0001
0000
0001
0010
0001
0000
0001
0100
0001
0000
0001
1000
0001
0000
0010
0000
,  // measure 25
0100
0000
1000
0000
0001
0000
1000
0000
0200
0000
0000
0000
1300
0000
0100
1000
,  // measure 26
0100
1000
0100
0000
1000
0100
1000
0000
0001
1000
0001
0000
1000
0000
0000
0001
,  // measure 27
0010
0000
0100
0000
1000
0000
0001
0000
0100
0000
0010
1000
0010
0000
0001
0100
,  // measure 28
0001
0000
1000
0001
1000
0000
0002
0000
0003
0000
0001
0010
0100
0000
1000
0000
,  // measure 29
0001
0000
1000
0000
0000
0000
0010
1000
0002
0000
2000
0000
3003
0000
0010
0001
,  // measure 30
1000
0001
0100
0001
0010
0001
0010
0000
0100
0010
0100
0000
1000
0000
0000
1000
,  // measure 31
0100
0000
1000
0000
0001
0000
0100
0000
0010
0000
1000
0010
1000
0000
0001
0100
,  // measure 32
0001
0000
1000
0100
1000
0000
0001
0100
0001
0000
1000
0010
1000
0000
0001
0000
,  // measure 33
0010
0000
0100
0000
1000
0000
0001
0000
0200
0000
0000
0000
0310
0000
0100
0010
,  // measure 34
0100
0010
0100
0000
0010
1000
0010
0000
0001
0100
0001
0000
0010
0000
0000
1000
,  // measure 35
0010
0000
0100
0000
0001
0000
1000
0000
0100
0000
1000
0100
1000
0000
0001
0010
,  // measure 36
0001
0000
0000
0000
1000
0000
0001
0000
1000
0000
0100
1000
0100
1000
0001
1000
,  // measure 37
0100
0100
1000
0001
0100
0010
0100
0000
,  // measure 38
0110
0000
2000
3200
0320
0032
2003
3200
,  // measure 39
0320
0032
2003
3002
0203
0310
0110
0000
,  // measure 40
1001
0000
1010
0010
1000
0001
1000
0100
,  // measure 41
1100
0000
1000
0000
0001
0000
0100
0000
0001
0000
0000
0011
0000
0000
0010
0000
,  // measure 42
0001
0000
1000
0000
0001
0000
0000
0101
0000
0000
0100
0000
0001
0000
1000
0000
,  // measure 43
0100
0000
0100
1000
0100
1000
0100
1000
0100
1000
0100
1000
,  // measure 44
0100
1000
0100
1000
0100
1000
0100
1000
0100
1000
0100
1000
,  // measure 45
0100
0000
0000
0000
1000
0000
0000
0000
0001
0000
0000
0000
0000
0000
0000
0200
0000
0000
0000
0000
0000
0000
0000
0000
0000
0000
0000
0000
0000
0000
0000
0000
0000
0000
0000
0000
0000
0000
0000
0000
0000
0000
0000
0000
0000
0000
0000
0000
,  // measure 46
0000
0000
0000
0000
,  // measure 47
0000
0000
0000
0000
0000
0000
0000
0000
0300
0000
0000
0000
0110
0000
0000
0010
0000
0000
0100
0000
0000
0100
0000
0000
0010
0000
0000
0010
0000
0000
0100
0000
0000
0100
0000
0000
0000
0000
0000
0100
0000
0000
0001
0000
0000
0100
0000
0000
,  // measure 48
0010
1000
0000
1000
1000
0100
0100
0010
0010
0001
0001
0010
0100
1000
0001
0000
,  // measure 49
1000
0000
0001
1000
0001
1000
0001
0000
1000
0000
1000
0000
0100
0000
0100
0000
0010
0000
0010
0000
0001
0000
0001
0000
0000
0000
0001
0000
0010
0000
0100
0000
,  // measure 50
1000
0001
0000
0100
0010
1000
0001
1000
0000
1000
0100
0020
0000
0001
0000
0100
,  // measure 51
0000
0200
0000
0000
0000
0000
0000
0000
0330
0000
0000
0000
0100
0000
0010
0000
,  // measure 52
0001
0000
0010
0000
0100
0000
1000
0000
0001
0000
1000
0000
0000
1000
0001
0000
,  // measure 53
0100
0000
0010
0000
0000
0000
0110
0000
0000
0000
0010
0001
0010
0000
1000
0100
,  // measure 54
1000
0000
1000
0010
1000
0000
0100
0001
0100
0000
0001
0000
0010
0000
0001
0000
,  // measure 55
1000
0000
0000
0000
1010
0000
1000
0010
1000
0010
1000
0000
0010
0000
1000
0000
,  // measure 56
0001
0000
1000
0000
0100
0000
0010
0000
0001
0000
0010
0000
0000
0010
0001
0000
,  // measure 57
1000
0000
0001
0000
0000
0000
1001
0000
0000
0000
0001
0100
0010
0000
1000
0000
,  // measure 58
0000
0000
1000
0010
0100
0000
0001
0000
1000
0000
0100
0000
0000
0000
0010
0000
,  // measure 59
0100
0000
1000
0000
0000
0000
1000
0100
1000
0100
1000
0100
1000
0000
0100
0000
,  // measure 60
0010
0000
0100
0000
1000
0000
0001
0000
0100
0000
0001
0000
0000
0001
0100
0000
,  // measure 61
0010
0000
1000
0000
0000
0000
1001
0000
0000
0000
1000
0100
1000
0000
0001
0010
,  // measure 62
0001
0000
1000
0010
1000
0000
0001
0100
0001
0000
1000
0000
0010
0000
0100
0000
,  // measure 63
0001
0000
0000
0000
0101
0000
0100
0010
0100
0010
0100
0000
0010
0000
1000
0000
,  // measure 64
0001
0000
0010
0000
0001
0000
1000
0000
0100
0000
1000
0000
0000
1000
0100
0000
,  // measure 65
0010
0001
0000
1001
0000
0000
0001
0010
,  // measure 66
0001
0000
1000
0010
1000
0001
0100
0001
0100
0000
0100
0000
0001
0000
1000
0000
,  // measure 67
0100
0010
0100
0000
0110
0000
0200
1000
,  // measure 68
1000
1000
1000
1000
1000
1000
1000
1000
,  // measure 69
1000
1000
1300
0000
1100
0000
1100
1000
,  // measure 70
1001
0001
0011
0010
0011
0001
1001
1000
,  // measure 71
1010
0010
0110
0000
0101
0000
0002
0023
,  // measure 72
0230
2300
3002
0023
0230
2300
3002
0203
,  // measure 73
0320
0000
2030
0000
3001
0000
0010
1000
0000
1000
0001
0000
1001
0000
1000
0000
,  // measure 74
0100
0000
0010
0000
0100
0000
1000
0000
0000
0000
1001
0000
0000
0000
0001
0100
,  // measure 75
0001
0000
1000
0000
0100
0010
0100
0010
0100
0010
0002
0000
0000
0000
1003
0000
,  // measure 76
0001
0200
0000
0320
2000
0030
3100
0002
,  // measure 77
0000
0000
0000
0003
0000
0000
1001
0000
0000
0000
1001
0000
0000
0000
1001
0000
0000
0000
1010
0000
0000
0000
1010
0000
,  // measure 78
0000
1010
0000
0101
0000
0101
0000
0101
0000
0011
0000
0011
,  // measure 79
0000
0022
0000
0033
0000
1001
0000
0000
0000
0000
0000
0000
;

//---------------dance-single - ----------------
#NOTES:
     dance-single:
     :
     Challenge:
     18:
     0.990005,1.448316,0.397160,0.437686,1.179322,855.000000,806.000000,49.000000,54.000000,0.000000,0.000000,0.990005,1.448316,0.397160,0.437686,1.179322,855.000000,806.000000,49.000000,54.000000,0.000000,0.000000:
0000
0000
0000
0000
,
0000
0000
0000
0000
,
0000
0000
0000
0000
,
0000
0000
0000
0000
,
0000
0000
0000
0000
1000
0100
1000
0001
0100
0000
0010
0000
1000
0010
1000
0000
,
0001
0000
0010
0001
0010
0001
1000
0010
0100
0001
1000
0000
0001
0000
1000
0001
,
0100
0000
0000
0000
0100
0010
1000
0010
0100
0000
0010
1000
0010
0100
0010
0000
,
0000
0000
0110
0000
0000
0000
0100
0010
1000
0010
0100
0000
0010
0100
0010
0100
,
0010
1000
0001
0010
0001
0000
0010
0000
0001
0000
1000
0000
0010
0000
0100
0000
,
0001
0000
1000
0000
0100
1000
0001
0100
0001
0000
0001
1000
0100
0000
0000
0100
,
0010
0000
0000
0100
0010
0100
0010
0100
0010
0000
0100
1000
0100
0010
0100
0000
,
0000
0000
0100
0000
1000
0000
0001
0000
0100
0000
0010
0000
0110
0000
0000
0100
,
0001
0100
0010
1000
0002
0000
0010
0000
0100
0000
1003
0000
0020
0000
1000
0000
,
0100
1030
0200
1000
0010
1300
2000
0100
,
0010
0000
3100
0000
2000
0000
0100
0100
0000
0100
3100
0000
2000
0000
3100
1000
,
0001
0000
0000
0000
0000
0000
0100
0000
0000
0000
0000
0000
0010
0100
0000
0000
0000
0000
0000
0000
0000
0000
0000
0000
0001
0010
0000
0000
0000
0000
0000
0000
0000
0000
0000
0000
0001
1000
0000
0000
0000
0000
0000
0000
0000
0000
0000
0000
,
0100
1000
0000
0000
0000
0000
0000
0000
0000
0000
0000
0000
2000
0000
0000
0000
0000
0000
0100
0000
0000
0000
0000
0000
0010
0000
0000
0000
0000
0000
3001
0000
0000
0000
0000
0000
0200
0000
0000
0000
0000
0000
1000
0000
0000
0000
0000
0000
,
0010
0000
1300
0000
0020
0000
0100
0000
1000
0000
0130
0000
0002
0000
0010
0010
,
0013
0001
0000
0000
0000
0000
0001
0000
0000
0000
0000
0000
1000
0000
0000
0001
0000
0000
1000
0000
0000
0001
0000
0000
1000
0000
0000
0001
0000
0000
0100
0000
0000
0000
0000
0000
0010
0000
0000
0100
0000
0000
0000
0000
0000
0010
0000
0000
,
0100
0000
0001
0000
1000
0100
1000
0100
1000
0001
0100
0000
0100
0010
0000
0100
,
0001
0000
1000
0000
0100
1000
0100
1000
0001
1000
0001
1000
0010
1000
0010
1000
,
0100
0000
0000
1000
0000
0000
0100
0000
0000
1000
0000
0000
0100
0000
1000
0000
0100
0000
1000
0000
0100
0000
1000
0000
0100
0000
1000
0000
0100
0000
1000
0000
0100
0000
1000
0000
0100
0000
0000
0000
0000
0000
0000
0000
0000
0200
0000
0000
,
1300
0000
1000
0100
1000
0001
0100
0010
,
1000
0010
0000
0010
1000
0001
0000
1001
,
0000
0000
0001
0010
0001
0000
0001
0100
0001
0000
0001
1000
0001
0000
0010
0000
,
0100
0000
1000
0000
0001
0000
0100
0000
0010
0000
0000
0000
0110
0000
0100
0001
,
1000
0100
1000
0100
1000
0100
1000
0000
0010
0001
0010
0000
1000
0000
0001
0000
,
0100
0000
0001
0000
0000
0001
1000
0000
0100
0000
0010
0000
0000
0000
0110
0000
,
0000
0000
0100
1000
0001
0000
1001
0000
0000
0000
0001
0100
0010
0000
1000
0000
,
0001
0000
0010
0000
0100
0000
0010
0100
1000
0000
1000
0000
0001
0000
1000
0001
,
1000
0001
1000
0000
0001
0010
0001
0000
0010
0100
1000
0100
0010
0000
0100
0000
,
0100
0000
1000
0000
0000
1000
0001
0100
0010
0000
1000
0010
0100
0000
0001
0010
,
0100
0000
0010
0100
1000
0000
0001
0010
0001
0100
0010
0100
0010
0000
1000
0000
,
0001
0000
0010
0000
0001
0000
1000
0000
0010
0000
0000
0000
0110
0000
0100
0001
,
1000
0100
1000
0100
0010
0001
0010
0000
0001
1000
0001
0000
0001
1000
0100
1000
,
0010
1000
0001
0000
0000
0001
1000
0000
0100
0000
0010
0000
0000
0000
0011
0000
,
0000
0000
0000
0000
1001
0000
1001
0000
1000
0100
0010
0100
1000
0001
1000
0001
,
1000
0000
1001
0000
0001
0010
0001
1000
0001
0100
0010
1000
0001
0000
0000
0000
,
1001
0000
0000
0000
0020
1000
1030
0010
0200
0001
0301
0100
0020
1000
1000
1030
,
0200
0001
0001
0301
1100
0000
0101
0000
1010
0000
0011
0000
1001
0000
0000
0000
,
1001
0000
1010
0010
1000
0010
1000
0001
,
1001
0001
0010
0001
1000
0001
1001
1000
,
0010
1000
0001
1001
1000
0100
1000
0001
,
0100
0000
0010
0100
0010
0100
0010
0100
0010
0100
0010
0100
0010
0100
0001
0100
,
0001
0100
0001
0100
0001
0100
0001
0100
0001
0100
0010
0100
0010
0100
0010
0100
,
0010
0000
0000
0100
0000
0000
0010
0000
0000
0100
0000
0000
0010
0000
0000
0200
0000
0000
0000
0000
0010
0000
0000
0000
0000
0000
0000
0000
0010
0000
0000
0000
0000
0000
0000
0000
0010
0000
0000
0000
0000
0000
0000
0000
0010
0000
0000
0000
,
0000
0010
0000
0010
0000
0010
0000
0010
0000
0010
0000
0010
,
0000
0000
0000
0000
0000
0000
0000
0000
0000
0000
0000
0000
0000
0000
0000
0000
0010
0000
0000
0000
0000
0000
0000
0000
0000
0000
0000
0000
0000
0000
0000
0000
0000
0000
0000
0000
0000
0000
0000
0000
0300
0000
0000
0000
0000
0000
0000
0000
0100
0000
0000
0000
0000
0000
0010
0000
0000
0000
0000
0000
0100
0000
0000
0000
0000
0000
0000
0000
0000
0000
0000
0000
0010
0000
0000
0000
0000
0000
0100
0000
0000
0000
0000
0000
0010
0000
0000
0000
0000
0000
0000
0000
0000
0000
0000
0000
0100
0000
0000
0000
0000
0000
0000
0000
0000
0000
0000
0000
0001
0000
0000
0000
0000
0000
0000
0000
0000
0000
0000
0000
1000
0000
0000
0000
0000
0000
0100
0000
0000
0000
0000
0000
1000
0000
0000
0000
0000
0000
0100
0000
0000
0000
0000
0000
1000
0000
0000
0000
0000
0000
0000
0000
0000
0000
0000
0000
0001
0000
0000
0000
0000
0000
0100
0000
0000
0000
0000
0000
0001
0000
0000
0000
0000
0000
0000
0000
0000
0000
0000
0000
1000
0000
0000
0000
0000
0000
0100
0000
0000
0000
0000
0000
,
1000
0000
0001
0000
0000
0000
1000
0100
1000
0000
0100
1000
0001
0000
0001
0100
0001
0000
0010
0000
0100
0000
1000
0000
0001
0000
1000
0000
0100
0000
1000
0000
,
0001
1000
0001
1000
0001
1000
0001
1000
0001
0000
1000
0000
0100
0000
0010
0000
0100
0000
1000
0000
0001
0000
0100
0000
0000
0000
0100
0010
0100
0000
0010
0100
,
0010
0100
0000
0101
1010
1000
0100
0011
0101
0001
1000
2100
0000
0010
0000
0100
,
0000
0002
0000
0000
0000
0000
0000
0000
3003
0000
0000
0000
1000
0001
0100
0000
,
0001
1000
0100
0000
1000
0100
1000
0001
0100
0010
1000
0001
0010
0000
0001
0010
,
0100
0000
0010
0100
1000
0000
1001
0000
0000
0000
0001
0100
1000
0000
1000
0100
,
0001
0000
0001
0100
1000
0100
0001
1000
0100
0000
1000
0000
0001
0000
1000
0010
,
0100
0000
0000
0000
0101
0000
0001
0100
0010
1000
0001
1000
0100
1000
0001
0000
,
0001
0010
0001
0000
1000
0010
1000
0100
1000
0000
0001
0000
1000
0000
0001
0010
,
0100
0000
1000
0001
0100
0000
1000
0010
0100
0000
0010
0100
0001
0000
1001
0000
,
0000
0000
0001
0010
0100
0000
1000
0000
0001
0100
0010
0000
1000
0000
0100
0000
,
1000
0000
0001
0000
0100
0000
0001
1000
0100
1000
0001
0100
0010
1000
0010
0000
,
0001
0100
0001
0000
0010
0000
1000
0000
0001
0000
0010
0000
0000
0010
0001
0000
,
0010
0000
0010
0001
0100
0000
0100
0010
1000
0000
1000
0001
0010
0000
0001
0000
,
1000
0000
0001
0010
0100
0000
1000
0000
0001
0000
1000
0000
0100
0000
1000
0000
,
0001
0000
0000
0000
1001
0000
1000
0001
0100
0010
0100
0001
1000
0001
0010
0000
,
0010
0001
1000
0001
0100
0000
0010
0000
1000
0000
0001
0000
0011
0000
0001
0010
,
0100
0000
0010
0100
1000
0000
1100
0000
0000
0000
0000
0000
1001
0000
1001
0000
,
0001
0010
0100
1000
0001
1000
0100
0010
0001
0000
0011
0000
0001
0100
0010
1000
,
0100
1000
0010
0100
0001
0000
0000
0000
1001
0000
0000
0000
2000
0100
3100
0010
,
0002
0010
0013
0100
2000
0100
0100
3010
0002
0010
0010
0103
1001
0000
1001
0000
,
1001
0000
1001
0000
1001
0000
0000
0000
1001
0000
0000
0000
0010
1000
0010
1000
,
0001
0010
0001
0010
0100
1000
0100
1000
0001
0100
0001
0100
0010
0000
0110
0000
,
0110
0000
0110
0000
0110
0000
0000
0000
0220
0000
0330
0000
0020
0230
0302
2003
,
3020
0230
0302
2003
3020
0230
0302
2003
3020
0230
0302
2003
3020
0230
0302
2003
,
3200
0320
0032
0003
1000
0000
0001
1000
0000
0100
0001
0000
0020
0000
0001
0000
,
0100
0000
0001
0000
0100
0000
0200
0000
0300
0000
0002
0000
0033
0000
0001
0100
,
0010
0000
1000
0000
0010
1000
0010
1000
0001
1000
0200
0000
0000
0000
1300
0000
,
0010
0200
0000
0301
2000
0000
3100
0020
,
0000
0000
0000
0000
0000
0000
0000
0000
0000
0000
0000
0000
0000
0000
0000
0000
0000
0000
0000
0000
0000
0000
0000
0000
0031
0000
0000
0000
0000
0000
0000
0000
0000
0000
0000
0000
0000
0000
0000
0000
0000
0000
0000
0000
0000
0000
0000
0000
0001
0000
0000
0000
0000
0000
0010
0000
0000
0000
0000
0000
0000
0000
0000
0000
0000
0000
0000
0000
0000
0000
0000
0000
0000
0000
0000
0000
0000
0000
0000
0000
0001
0000
0000
0000
0010
0000
0000
0000
0000
0000
0000
0000
0000
0000
0000
0000
0000
0000
0000
0000
0000
0000
0000
0000
0000
0000
0000
0000
0000
0000
0000
0000
0001
0000
0000
0000
0000
0000
0000
0000
0010
0000
0000
0000
0000
0000
0000
0000
0000
0000
0000
0000
0000
0000
0000
0000
0000
0000
0000
0000
0000
0000
0000
0000
0010
0000
0000
0000
0000
0000
0100
0000
0000
0000
0000
0000
0000
0000
0000
0000
0000
0000
0000
0000
0000
0000
0000
0000
0000
0000
0000
0000
0000
0000
0000
0000
0010
0000
0000
0000
0100
0000
0000
0000
0000
0000
0000
0000
0000
0000
0000
0000
,
0000
0000
0000
0000
0000
0000
0000
0000
0000
0000
0000
0000
0000
0000
0000
0000
0010
0000
0000
0000
0000
0000
0000
0000
0100
0000
0000
0000
0000
0000
0000
0000
0000
0000
0000
0000
0000
0000
0000
0000
0000
0000
0000
0000
0000
0000
0000
0000
0100
0000
0000
0000
0000
0000
0000
0000
0000
1000
0000
0000
0000
0000
0000
0000
0000
0000
0000
0000
0000
0000
0000
0000
0000
0000
0000
0000
0000
0000
0000
0000
0100
0000
0000
0000
1000
0000
0000
0000
0000
0000
0000
0000
0000
0000
0000
0000
0000
0000
0000
0000
0000
0000
0000
0000
0000
0000
0000
0000
0000
0000
0000
0000
0100
0000
0000
0000
0000
0000
0000
0000
1000
0000
0000
0000
0000
0000
0000
0000
0000
0000
0000
0000
0000
0000
0000
0000
0000
0000
0000
0000
0000
0000
0000
0000
1000
0000
0000
0000
0000
0000
0100
0000
0000
0000
0000
0000
0000
0000
0000
0000
0000
0000
0000
0000
0000
0000
0000
0000
0000
0000
0000
0000
0000
0000
0000
0000
1000
0000
0000
0000
0100
0000
0000
0000
0000
0000
0000
0000
0000
0000
0000
0000
,
0000
0000
1000
0100
0000
0000
0000
0000
0000
0000
1001
0000
0000
0000
0000
0000
0000
0000
0000
0000
0000
0000
0000
0000
;
