#VERSION:0.83;
#TITLE:Till the lonely's gone;
#SUBTITLE:;
#ARTIST:Z-licious;
#TITLETRANSLIT:;
#SUBTITLETRANSLIT:;
#ARTISTTRANSLIT:;
#GENRE:;
#ORIGIN:;
#CREDIT:;
#BANNER:Till the lonely's gone.png;
#BACKGROUND:Till the lonely's gone-bg.png;
#PREVIEWVID:;
#JACKET:Till the lonely's gone-jacket.png;
#CDIMAGE:;
#DISCIMAGE:;
#LYRICSPATH:;
#CDTITLE:;
#MUSIC:Till the lonely's gone.ogg;
#OFFSET:0.000000;
#SAMPLESTART:37.875999;
#SAMPLELENGTH:15.000000;
#SELECTABLE:YES;
#DISPLAYBPM:130.000000;
#BPMS:0.000=127.435,
4.000=129.998;
#STOPS:;
#DELAYS:;
#WARPS:;
#TIMESIGNATURES:0.000=4=4;
#TICKCOUNTS:0.000=4;
#COMBOS:0.000=1;
#SPEEDS:0.000=1.000=0.000=0;
#SCROLLS:0.000=1.000;
#FAKES:;
#LABELS:0.000=Song Start;
#BGCHANGES:;
#KEYSOUNDS:;
#ATTACKS:
;

//---------------dance-single - ----------------
#NOTEDATA:;
#CHARTNAME:;
#STEPSTYPE:dance-single;
#DESCRIPTION:;
#CHARTSTYLE:;
#DIFFICULTY:Beginner;
#METER:3;
#RADARVALUES:0.134606,0.176792,0.038855,0.000000,0.000000,97.000000,93.000000,4.000000,0.000000,0.000000,0.000000,0.000000,0.000000,0.000000,0.134606,0.176792,0.038855,0.000000,0.000000,97.000000,93.000000,4.000000,0.000000,0.000000,0.000000,0.000000,0.000000,0.000000;
#CREDIT:;
#DISPLAYBPM:130.000000;
#NOTES:
0000
0000
0000
0000
,
0000
0000
0000
0000
,
0000
0000
0000
0000
,
0000
0000
0000
0000
,
0000
0000
0000
0000
,
1000
1000
0000
0000
,
0001
0001
0000
0000
,
0010
0010
0000
0000
,
0100
0100
0000
0000
,
0010
0010
0000
0000
,
0001
0001
0000
0000
,
1000
1000
0000
0000
,
0100
0100
0000
0000
,
1000
0000
1000
0000
,
0001
0000
0001
0000
,
0100
0000
0100
0000
,
0001
0000
0001
0000
,
1000
0000
1000
0000
,
0010
0000
0010
0000
,
1000
0000
1000
0000
,
0001
0001
0001
0000
,
1001
0000
1000
0000
,
0100
0000
0100
0000
,
0010
0000
0010
0000
,
0001
0000
0001
0000
,
0100
0000
0100
0000
,
0010
0000
0010
0000
,
1000
0000
1000
0000
,
0001
0000
0001
0000
,
0100
0000
0000
0000
,
0001
0000
0000
0000
,
1000
0000
0000
0000
,
0010
0000
0000
0000
,
0010
0000
0010
0000
,
0100
0000
0100
0000
,
0010
0010
0010
0000
,
0110
0000
0100
0000
,
0001
0000
0001
0000
,
0010
0000
0010
0000
,
0100
0000
0100
0000
,
1000
0000
1000
0000
,
0010
0000
0010
0000
,
1000
0000
1000
0000
,
0001
0000
0001
0000
,
1001
0000
1000
0000
,
0100
0000
0100
0000
,
0001
0000
0001
0000
,
0100
0000
0100
0000
,
1000
0000
1000
0000
,
0010
0000
0010
0000
,
0001
0000
0001
0000
,
0010
0000
0010
0000
,
1001
0000
0000
0000
,
0000
0000
0000
0000
;

//---------------dance-single - ----------------
#NOTEDATA:;
#CHARTNAME:;
#STEPSTYPE:dance-single;
#DESCRIPTION:;
#CHARTSTYLE:;
#DIFFICULTY:Easy;
#METER:4;
#RADARVALUES:0.170686,0.227304,0.067997,0.087424,0.000000,123.000000,116.000000,7.000000,9.000000,0.000000,0.000000,0.000000,0.000000,0.000000,0.170686,0.227304,0.067997,0.087424,0.000000,123.000000,116.000000,7.000000,9.000000,0.000000,0.000000,0.000000,0.000000,0.000000;
#CREDIT:;
#DISPLAYBPM:130.000000;
#NOTES:
0000
0000
0000
0000
,
0000
0000
0000
0000
,
0000
0000
0000
0000
,
0000
0000
0000
0000
,
0000
0000
0000
0000
,
0010
0000
0100
0000
,
0001
1000
0100
0000
,
0010
0000
0001
0000
,
1000
0100
1000
0000
,
0001
0000
1000
0000
,
0010
0100
0010
0000
,
0100
0000
0001
0000
,
0010
0001
0100
0000
,
0002
0000
0103
0000
,
2000
0000
3001
0000
,
0002
0000
0013
0000
,
2000
0000
3001
0000
,
0010
0001
1000
0000
,
0100
0010
0001
0000
,
1000
0010
0001
0000
,
1000
0001
1000
0110
,
0001
0100
1000
0000
,
0010
1000
0001
0000
,
0010
0000
0100
0000
,
0001
0000
1000
0000
,
0010
0001
0010
0000
,
1000
0001
1000
0000
,
0100
0000
1000
0000
,
0010
0000
0001
0000
,
0020
0000
1030
0000
,
0200
0000
0301
0000
,
2000
0000
3001
0000
,
0220
0000
0000
0330
,
1000
0000
0001
0000
,
0100
0010
0100
0000
,
0001
1000
0001
1000
,
0110
0000
1001
0000
,
0010
0001
0100
0000
,
1000
0000
0001
0000
,
0010
0000
0100
0000
,
1000
0001
0100
0000
,
0010
0100
1000
0000
,
0001
0000
0010
0000
,
1000
0000
0100
0000
,
1001
0000
0110
0000
,
0001
1000
0010
0000
,
0100
0000
0001
0000
,
1000
0000
0010
0000
,
0001
0010
1000
0000
,
0001
0100
1000
0000
,
0100
0000
0001
0000
,
0010
0000
1000
0000
,
0110
0000
0000
0000
,
0000
0000
0000
0000
;

//---------------dance-single - ----------------
#NOTEDATA:;
#CHARTNAME:;
#STEPSTYPE:dance-single;
#DESCRIPTION:;
#CHARTSTYLE:;
#DIFFICULTY:Medium;
#METER:8;
#RADARVALUES:0.326107,0.378839,0.135994,0.184563,0.048569,235.000000,221.000000,14.000000,19.000000,0.000000,0.000000,0.000000,0.000000,0.000000,0.326107,0.378839,0.135994,0.184563,0.048569,235.000000,221.000000,14.000000,19.000000,0.000000,0.000000,0.000000,0.000000,0.000000;
#CREDIT:;
#DISPLAYBPM:130.000000;
#NOTES:
0000
0000
0000
0000
,
0000
0000
0000
0000
,
0000
0000
0000
0000
,
0000
0000
0000
0000
,
0000
0000
0000
0000
,
0010
0000
0000
0001
0000
0000
0100
0000
0000
0000
0010
0000
0100
0000
0000
0000
,
0001
0000
0000
1000
0000
0000
0100
0000
0000
0000
0010
0000
1000
0000
0000
0000
,
0010
0000
0000
0001
0000
0000
1000
0000
0000
0000
0110
0000
0000
0000
0000
0000
,
1000
0000
0000
0100
0000
0000
0010
0000
0000
0000
1001
0000
0000
0000
0000
0000
,
0010
0000
0000
0100
0000
0000
0001
0000
0000
0000
1000
0000
0100
0000
0000
0000
,
0001
0000
0000
0100
0000
0000
1000
0000
0000
0000
0010
0000
0001
0000
0000
0000
,
0010
0000
0000
1000
0000
0000
0001
0000
0000
0000
0110
0000
0000
0000
0000
0000
,
0001
0000
0000
0100
0000
0000
0010
0000
0000
0000
1001
0000
0000
0000
0110
0000
,
0000
0010
0000
1001
0000
0001
0000
0100
,
0000
0010
0000
1001
0000
0100
0000
1000
,
0000
0010
0100
0010
0000
1000
0001
1000
,
0000
0100
0010
0100
0000
1000
0000
0010
,
0000
0001
0000
0010
0000
0100
0000
0001
,
0000
1000
0000
0100
0000
0010
0001
1000
,
0010
0100
0001
1000
0000
0010
0000
0001
,
0010
0100
0010
0100
,
1001
0000
0100
0000
0001
1000
0100
0000
,
0010
0001
1000
0000
0010
0000
0100
0000
,
0001
0100
0001
0000
1000
0010
0100
0000
,
0001
0010
1000
0000
0010
0000
0100
0000
,
1000
0000
0001
0000
0100
0001
0100
0000
,
0010
0000
1000
0000
0100
0010
0001
0000
,
1000
0100
0001
0100
,
0020
1000
0100
0031
,
1000
0100
1000
0001
,
0010
0001
1000
0010
,
1000
0001
0100
0001
,
2020
0000
0000
3030
,
0100
0000
0000
0001
0000
0000
0010
0000
0000
0000
0000
0000
1100
0000
0000
0000
,
0010
0000
0000
0002
0000
0000
2000
0000
3003
0000
0000
0000
1001
0000
0000
0000
,
0010
0100
0010
0000
0100
0010
0100
0000
,
1001
0000
0110
0000
0001
1000
0100
0000
,
0010
0001
0100
0000
1000
0100
0010
0000
,
0001
0010
1000
0100
,
0001
0100
0010
0001
,
1000
0001
0100
0000
0010
1000
0001
0000
,
0010
0100
1000
0000
0001
0100
1000
0000
,
0200
0302
0023
2030
,
3010
0001
0100
1000
,
0100
0001
0010
0000
0100
1000
0001
0000
,
0010
0100
1000
0000
0001
0010
1000
0020
,
0000
0030
0001
2000
0000
3000
0010
0200
,
0000
0302
2003
3100
,
0010
0001
0010
0000
0100
1000
0001
0000
,
0100
0010
0100
0000
0001
0100
1000
0200
,
0000
0300
0001
2000
0000
3000
0100
0020
,
0000
0032
2003
3001
,
0110
0000
0000
0000
,
0000
0000
0000
0000
;

//---------------dance-single - ----------------
#NOTEDATA:;
#CHARTNAME:;
#STEPSTYPE:dance-single;
#DESCRIPTION:;
#CHARTSTYLE:;
#DIFFICULTY:Hard;
#METER:9;
#RADARVALUES:0.385778,0.454607,0.233132,0.116566,0.058283,278.000000,254.000000,24.000000,12.000000,0.000000,0.000000,0.000000,0.000000,0.000000,0.385778,0.454607,0.233132,0.116566,0.058283,278.000000,254.000000,24.000000,12.000000,0.000000,0.000000,0.000000,0.000000,0.000000;
#CREDIT:;
#DISPLAYBPM:130.000000;
#NOTES:
0000
0000
0000
0000
,
0000
0000
0000
0000
,
0000
0000
0000
0000
,
0000
0000
0000
0000
,
0000
0000
0000
0000
,
0010
0000
0000
0001
0000
0000
1001
0000
0000
0000
1000
0000
0100
0000
0000
0000
,
0001
0000
0000
0100
0000
0000
1100
0000
0000
0000
1000
0000
0010
0000
0000
0000
,
0100
0000
0000
0001
0000
0000
0011
0000
0000
0000
1100
0000
0000
0000
0000
0000
,
0011
0000
0000
1000
0000
0000
0101
0000
0000
0000
1010
0000
0000
0000
0000
0000
,
0001
0000
0000
1000
0000
0000
0100
0000
0000
0000
0010
0000
1001
0000
0000
0000
,
0100
0000
0000
0010
0000
0000
1000
0000
0000
0000
0001
0000
0110
0000
0000
0000
,
0010
0000
0000
1000
0000
0000
0001
0000
0000
0000
0110
0000
0000
0000
0000
0000
,
0001
0000
0000
0010
0000
0000
0100
0000
0000
0000
1001
0000
0000
0000
0010
0000
,
0000
1000
0000
0100
0000
0001
0000
0100
,
0000
1000
0000
0100
0000
0010
0001
0010
,
0000
0100
0000
1000
0000
0001
0000
0010
,
0000
0100
0000
1001
0000
0100
0000
0010
,
0000
1000
0000
0010
0000
0100
0000
0001
,
0000
1000
0000
0100
0000
0010
0001
1000
,
0010
0100
0001
1000
0000
0010
0000
0001
,
0010
1000
0001
1000
0001
1000
0100
0010
,
0000
1001
0000
0100
0000
0010
0001
1000
,
0000
0010
0100
0001
0000
1000
0100
0020
,
0000
0031
1000
0020
0000
0130
0001
0020
,
0000
0000
0100
0000
1030
0010
0001
1000
,
0000
0010
0000
0100
0001
1000
0100
0010
,
0000
0001
0000
1000
0000
0010
1000
0200
,
0000
0310
0001
0200
0000
1300
0100
0020
,
0000
0001
0100
1000
,
0000
0031
0000
1000
0000
0100
0010
0100
,
0010
0000
0001
0000
1000
0000
0001
0000
1000
0000
0001
0000
0100
0010
0100
0010
,
1000
0001
1000
0000
0000
0000
0010
0000
0000
0000
0001
0000
0000
0000
0020
0000
,
0200
0000
0000
0330
,
1000
0000
0000
0010
0000
0000
0101
0000
0000
0000
1000
0000
0001
0000
0020
0000
,
0100
0100
0100
0130
,
1000
0001
1000
0001
0100
0010
0100
0010
,
0000
1001
0000
0100
0000
0010
1000
0100
,
0000
0010
0001
0100
0000
0001
1000
0001
,
0000
1000
0001
1000
0000
0010
0100
0010
,
0000
0100
0001
1000
0100
0010
0001
1000
,
0000
0001
0000
1001
0000
0100
0001
1000
,
0000
1000
0001
0010
0000
0001
1000
0110
,
0000
0010
0100
1001
0000
0001
1000
0110
,
0000
0100
0010
0100
0001
1000
0100
0010
,
0000
0001
0000
1100
0000
0010
0001
1000
,
0000
0100
0010
1000
0000
0001
1000
0020
,
0000
0031
0010
0200
0000
0301
1000
0020
,
0000
0130
0001
1000
0100
1000
0001
0100
,
0000
0010
0000
0001
0010
1000
0001
0010
,
0000
0100
0000
1000
0000
0001
0000
0110
,
0000
0010
1000
0101
0000
1000
0100
0011
,
0000
1000
0010
0100
0001
0010
0100
0000
,
1001
0000
0000
0000
,
0000
0000
0000
0000
;

//---------------dance-double - ----------------
#NOTEDATA:;
#CHARTNAME:;
#STEPSTYPE:dance-double;
#DESCRIPTION:;
#CHARTSTYLE:;
#DIFFICULTY:Easy;
#METER:5;
#RADARVALUES:0.170686,0.227304,0.067997,0.087424,0.000000,123.000000,116.000000,7.000000,9.000000,0.000000,0.000000,0.000000,0.000000,0.000000,0.170686,0.227304,0.067997,0.087424,0.000000,123.000000,116.000000,7.000000,9.000000,0.000000,0.000000,0.000000,0.000000,0.000000;
#CREDIT:;
#DISPLAYBPM:130.000000;
#NOTES:
00000000
00000000
00000000
00000000
,
00000000
00000000
00000000
00000000
,
00000000
00000000
00000000
00000000
,
00000000
00000000
00000000
00000000
,
00000000
00000000
00000000
00000000
,
00000010
00000000
00000100
00000000
,
00000001
00001000
00000100
00000000
,
00010000
00000000
00001000
00000000
,
00100000
00010000
00100000
00000000
,
00010000
00000000
10000000
00000000
,
01000000
00100000
01000000
00000000
,
10000000
00000000
00100000
00000000
,
01000000
00010000
00100000
00000000
,
00002000
00000000
01003000
00000000
,
00000020
00000000
00010030
00000000
,
00020000
00000000
00030100
00000000
,
00200000
00000000
00301000
00000000
,
00010000
00000100
00001000
00000000
,
00000010
00001000
00000100
00000000
,
00000001
00000100
00001000
00000000
,
00000010
00000100
00000010
00001001
,
00000001
00000100
00001000
00000000
,
00100000
00001000
00010000
00000000
,
01000000
00000000
00100000
00000000
,
00010000
00000000
10000000
00000000
,
00100000
00010000
00100000
00000000
,
00010000
00001000
00010000
00000000
,
00000100
00000000
00001000
00000000
,
00000010
00000000
00000001
00000000
,
00000020
00000000
00010030
00000000
,
00002000
00000000
01003000
00000000
,
00200000
00000000
10300000
00000000
,
02200000
00000000
00000000
03300000
,
10000000
00000000
00010000
00000000
,
00001000
00010000
00001000
00000000
,
00000001
00001000
00000001
00001000
,
00000110
00000000
00001001
00000000
,
00000010
00000001
00000100
00000000
,
00001000
00000000
00010000
00000000
,
00100000
00000000
01000000
00000000
,
00010000
10000000
01000000
00000000
,
00100000
01000000
00010000
00000000
,
00001000
00000000
00000010
00000000
,
00000001
00000000
00000100
00000000
,
00001001
00000000
00000110
00000000
,
00000001
00001000
00000010
00000000
,
00010000
00000000
00001000
00000000
,
01000000
00000000
00100000
00000000
,
00010000
00100000
10000000
00000000
,
01000000
00010000
00001000
00000000
,
00000010
00000000
00000001
00000000
,
00000100
00000000
00001000
00000000
,
00011000
00000000
00000000
00000000
,
00000000
00000000
00000000
00000000
;

//---------------dance-double - ----------------
#NOTEDATA:;
#CHARTNAME:;
#STEPSTYPE:dance-double;
#DESCRIPTION:;
#CHARTSTYLE:;
#DIFFICULTY:Medium;
#METER:8;
#RADARVALUES:0.326107,0.378839,0.135994,0.213704,0.048569,235.000000,221.000000,14.000000,22.000000,0.000000,0.000000,0.000000,0.000000,0.000000,0.326107,0.378839,0.135994,0.213704,0.048569,235.000000,221.000000,14.000000,22.000000,0.000000,0.000000,0.000000,0.000000,0.000000;
#CREDIT:;
#DISPLAYBPM:130.000000;
#NOTES:
00000000
00000000
00000000
00000000
,
00000000
00000000
00000000
00000000
,
00000000
00000000
00000000
00000000
,
00000000
00000000
00000000
00000000
,
00000000
00000000
00000000
00000000
,
00100000
00000000
00000000
10000000
00000000
00000000
01000000
00000000
00000000
00000000
00100000
00000000
01000000
00000000
00000000
00000000
,
10000000
00000000
00000000
00010000
00000000
00000000
01000000
00000000
00000000
00000000
00001000
00000000
00010000
00000000
00000000
00000000
,
00000010
00000000
00000000
00001000
00000000
00000000
00000001
00000000
00000000
00000000
00000110
00000000
00000000
00000000
00000000
00000000
,
00001000
00000000
00000000
00000100
00000000
00000000
00000010
00000000
00000000
00000000
00001001
00000000
00000000
00000000
00000000
00000000
,
00000010
00000000
00000000
00000100
00000000
00000000
00000001
00000000
00000000
00000000
00001000
00000000
00000100
00000000
00000000
00000000
,
00000001
00000000
00000000
00000100
00000000
00000000
00001000
00000000
00000000
00000000
00000010
00000000
00010000
00000000
00000000
00000000
,
00001000
00000000
00000000
00100000
00000000
00000000
01000000
00000000
00000000
00000000
10010000
00000000
00000000
00000000
00000000
00000000
,
01000000
00000000
00000000
10000000
00000000
00000000
00010000
00000000
00000000
00000000
01100000
00000000
00000000
00000000
10010000
00000000
,
00000000
00010000
00000000
01100000
00000000
00100000
00000000
00010000
,
00000000
00001000
00000000
00011000
00000000
00010000
00000000
00000100
,
00000000
00000010
00000100
00000010
00000000
00000001
00001000
00000001
,
00000000
00000100
00000010
00000100
00000000
00001000
00000000
00010000
,
00000000
00100000
00000000
01000000
00000000
00010000
00000000
10000000
,
00000000
01000000
00000000
00100000
00000000
00010000
00100000
00001000
,
00010000
00000100
00001000
00000010
00000000
00000100
00000000
00000001
,
00000010
00001000
00010000
01000000
,
10010000
00000000
01000000
00000000
00010000
10000000
01000000
00000000
,
00100000
00001000
00010000
00000000
00000010
00000000
00000100
00000000
,
00000001
00000100
00000001
00000000
00001000
00000010
00000100
00000000
,
00001000
00010000
01000000
00000000
10000000
00000000
00100000
00000000
,
10000000
00000000
00010000
00000000
01000000
00010000
01000000
00000000
,
00100000
00000000
00010000
00000000
00001000
00000010
00000100
00000000
,
00000001
00000100
00010000
00001000
,
00200000
10000000
01000000
00310000
,
00001000
00100000
00001000
00010000
,
00000100
00010000
00001000
01000000
,
00001000
00010000
00000010
00010000
,
00022000
00000000
00000000
00033000
,
00000100
00000000
00000000
00001000
00000000
00000000
00000010
00000000
00000000
00000000
00000000
00000000
00000101
00000000
00000000
00000000
,
00000010
00000000
00000000
00000002
00000000
00000000
00002000
00000000
00003003
00000000
00000000
00000000
00001001
00000000
00000000
00000000
,
00000010
00000100
00000010
00000000
00000100
00000010
00000100
00000000
,
00001001
00000000
00000110
00000000
00000001
00001000
00000100
00000000
,
00010000
00001000
00000100
00000000
00001000
00010000
00100000
00000000
,
00010000
00100000
10000000
01000000
,
00010000
00001000
00100000
00010000
,
10000000
00010000
01000000
00000000
00100000
10000000
00010000
00000000
,
00100000
01000000
00010000
00000000
00001000
00000100
00000010
00000000
,
00000200
00000302
00000023
00002030
,
00023000
00230000
20300000
31000000
,
00100000
00010000
01000000
00000000
00100000
10000000
00010000
00000000
,
01000000
00100000
10000000
00000000
00010000
00100000
10000000
00200000
,
00000000
00300000
00001000
00020000
00000000
00030000
00000010
00000200
,
00000000
00000302
00002003
00003010
,
00000100
00000001
00000100
00000000
00000010
00010000
00001000
00000000
,
00100000
00010000
00100000
00000000
00010000
01000000
10000000
02000000
,
00000000
03000000
00001000
00020000
00000000
00030000
00000100
00000020
,
00000000
00002030
00023000
00031000
,
00011000
00000000
00000000
00000000
,
00000000
00000000
00000000
00000000
;

//---------------dance-double - ----------------
#NOTEDATA:;
#CHARTNAME:;
#STEPSTYPE:dance-double;
#DESCRIPTION:;
#CHARTSTYLE:;
#DIFFICULTY:Hard;
#METER:9;
#RADARVALUES:0.388553,0.454607,0.252560,0.116566,0.058283,280.000000,254.000000,26.000000,12.000000,0.000000,0.000000,0.000000,0.000000,0.000000,0.388553,0.454607,0.252560,0.116566,0.058283,280.000000,254.000000,26.000000,12.000000,0.000000,0.000000,0.000000,0.000000,0.000000;
#CREDIT:;
#DISPLAYBPM:130.000000;
#NOTES:
00000000
00000000
00000000
00000000
,
00000000
00000000
00000000
00000000
,
00000000
00000000
00000000
00000000
,
00000000
00000000
00000000
00000000
,
00000000
00000000
00000000
00000000
,
00100000
00000000
00000000
00010000
00000000
00000000
10010000
00000000
00000000
00000000
10000000
00000000
01000000
00000000
00000000
00000000
,
00010000
00000000
00000000
00001000
00000000
00000000
00001100
00000000
00000000
00000000
00010000
00000000
00001000
00000000
00000000
00000000
,
00000100
00000000
00000000
00000001
00000000
00000000
00000011
00000000
00000000
00000000
00001100
00000000
00000000
00000000
00000000
00000000
,
00001010
00000000
00000000
00000001
00000000
00000000
00001100
00000000
00000000
00000000
00000011
00000000
00000000
00000000
00000000
00000000
,
00001000
00000000
00000000
00000001
00000000
00000000
00000100
00000000
00000000
00000000
00000010
00000000
00001001
00000000
00000000
00000000
,
00000100
00000000
00000000
00000010
00000000
00000000
00001000
00000000
00000000
00000000
00000001
00000000
00000110
00000000
00000000
00000000
,
00000010
00000000
00000000
00010000
00000000
00000000
00001000
00000000
00000000
00000000
00011000
00000000
00000000
00000000
00000000
00000000
,
00100000
00000000
00000000
00010000
00000000
00000000
10000000
00000000
00000000
00000000
01100000
00000000
00000000
00000000
00100000
00000000
,
00000000
10000000
00000000
01010000
00000000
00100000
00000000
10000000
,
00000000
01000000
00000000
00110000
00000000
00001000
00010000
00001000
,
00000000
00000010
00000000
00000001
00000000
00001000
00000000
00000010
,
00000000
00000100
00000000
00001001
00000000
00000100
00000000
00000010
,
00000000
00001000
00000000
00000001
00000000
00000010
00000000
00000100
,
00000000
00010000
00000000
00001000
00000000
00100000
00010000
01000000
,
00001000
00010000
00000010
00001000
00000000
00000100
00000000
00010000
,
00001000
01000000
00010000
10000000
01000000
00100000
00010000
10000000
,
00000000
10010000
00000000
01000000
00000000
00100000
00001000
00010000
,
00000000
00000010
00000100
00000001
00000000
00001000
00000100
00000020
,
00000000
00000031
00001000
00000200
00000000
00010300
00001000
00200000
,
00000000
00000000
01000000
00000000
10300000
00100000
00010000
10000000
,
00000000
00100000
00000000
01000000
00001000
00010000
00000100
00000010
,
00000000
00000001
00000000
00000100
00000000
00001000
00010000
02000000
,
00000000
03010000
00001000
00000020
00000000
00001030
00010000
00200000
,
00000000
00010000
01000000
10000000
,
00000000
00310000
00000000
10000000
00000000
01000000
00100000
01000000
,
00100000
00000000
00001000
00000000
00010000
00000000
00001000
00000000
00010000
00000000
00000010
00000000
00000100
00000010
00000100
00000010
,
00001000
00000001
00001000
00000000
00000000
00000000
00000010
00000000
00000000
00000000
00000001
00000000
00000000
00000000
00000020
00000000
,
00000200
00000000
00000000
00000330
,
00000001
00000000
00000000
00000010
00000000
00000000
00001100
00000000
00000000
00000000
00010000
00000000
00001000
00000000
00200000
00000000
,
00010000
00010000
00010000
00310000
,
10000000
00010000
10000000
00010000
01000000
00100000
01000000
00100000
,
00000000
10010000
00000000
01000000
00000000
00100000
10000000
01000000
,
00000000
00100000
00010000
01000000
00000000
00001000
00010000
00001000
,
00000000
00010000
00001000
00010000
00000000
00000010
00000100
00000010
,
00000000
00000100
00000001
00001000
00000100
00000010
00000001
00001000
,
00000000
00000001
00000000
00001001
00000000
00000100
00010000
00001000
,
00000000
00100000
00010000
10000000
00000000
10000000
00010000
01100000
,
00000000
00100000
01000000
10010000
00000000
00010000
10000000
01100000
,
00000000
01000000
00010000
00100000
00001000
00010000
00000100
00000010
,
00000000
00000001
00000000
00001100
00000000
00000010
00000001
00001000
,
00000000
00000100
00000010
00001000
00000000
00010000
00001000
00200000
,
00000000
00301000
00010000
00000200
00000000
00010300
00001000
02000000
,
00000000
03100000
10000000
00010000
01000000
00010000
10000000
01000000
,
00000000
00100000
00000000
10000000
00100000
00010000
01000000
00001000
,
00000000
00010000
00000000
00000100
00000000
00000010
00000000
00001001
,
00000000
00000010
00001000
00000101
00000000
00001000
00000100
00000011
,
00000000
00001000
00000010
00010000
00001000
01000000
00010000
00000000
,
10100000
00000000
00000000
00000000
,
00000000
00000000
00000000
00000000
;

//---------------dance-single - ----------------
#NOTEDATA:;
#CHARTNAME:;
#STEPSTYPE:dance-single;
#DESCRIPTION:;
#CHARTSTYLE:;
#DIFFICULTY:Challenge;
#METER:14;
#RADARVALUES:0.660541,0.865502,0.485692,0.213704,0.675111,476.000000,426.000000,50.000000,22.000000,216.000000,0.000000,0.000000,0.000000,0.000000,0.660541,0.865502,0.485692,0.213704,0.675111,476.000000,426.000000,50.000000,22.000000,216.000000,0.000000,0.000000,0.000000,0.000000;
#CREDIT:;
#DISPLAYBPM:130.000000;
#NOTES:
// measure 0
0000
0000
0000
0000
,  // measure 1
0000
0000
0000
0000
,  // measure 2
0000
0000
0000
0000
,  // measure 3
0000
0000
0000
0000
,  // measure 4
0000
0000
0000
0000
,  // measure 5
0011
0000
0000
1100
0000
0000
MMMM
0000
0001
0000
0100
0000
0010
0000
1000
0000
,  // measure 6
1100
0000
0000
0011
0000
0000
MMMM
0000
0010
0000
0001
0000
0100
0000
0010
0000
,  // measure 7
1001
0000
0000
0101
0000
0000
MMMM
0000
1000
0000
0100
0000
0010
0000
0001
0000
,  // measure 8
MMMM
0100
MMMM
0010
MMMM
1000
MMMM
0100
,  // measure 9
1100
0000
0000
0110
0000
0000
MMMM
0000
0010
0000
0001
0000
0100
0000
0001
0000
,  // measure 10
MMMM
0010
MMMM
1000
MMMM
0100
MMMM
0010
,  // measure 11
0100
1000
0010
0100
0000
0101
MMMM
1000
,  // measure 12
0010
0001
0100
1000
0000
1001
MMMM
0101
,  // measure 13
0000
1100
MMMM
1010
0000
0101
MMMM
0011
,  // measure 14
0000
1100
MMMM
0110
0000
1001
MMMM
0011
,  // measure 15
0000
1100
MMMM
1010
0000
0101
MMMM
0110
,  // measure 16
0000
1001
MMMM
0110
0000
0000
MMMM
1100
,  // measure 17
0000
0011
MMMM
1001
0000
0101
MMMM
1010
,  // measure 18
0000
1100
MMMM
0101
0000
0110
0100
0001
,  // measure 19
1000
0100
0010
0100
1000
0001
0010
0100
1000
0010
0100
0001
1000
0100
0010
0001
,  // measure 20
0010
0100
0010
0100
2000
0000
3010
0000
0010
0100
0001
1000
0100
0010
0001
0100
,  // measure 21
0010
0000
0000
1010
0000
0000
MMMM
0000
1000
0100
0010
0001
0100
0010
1000
0010
,  // measure 22
0100
0000
0010
0001
0100
0000
1000
0100
0010
0001
1000
0100
0010
0000
0002
0003
,  // measure 23
MMMM
0000
0001
0000
0010
0000
2000
3000
MMMM
0000
1000
0000
0100
0000
0020
0030
,  // measure 24
MMMM
0000
0100
0000
0010
0000
1000
0100
0001
0000
0011
0000
0001
0000
0100
1000
,  // measure 25
0010
0100
0001
1000
0100
0010
0001
0100
0020
0000
1000
0000
0130
0000
0001
0000
,  // measure 26
MMMM
0000
0110
0000
MMMM
0000
1000
0000
MMMM
0000
0010
1000
0100
0010
0002
0003
,  // measure 27
MMMM
0000
0010
0000
0001
0000
0200
0300
MMMM
0000
1000
0000
0010
0000
2000
0000
,  // measure 28
0000
0002
0000
0000
0000
0000
0000
0000
,  // measure 29
3000
1003
MMMM
1000
MMMM
1000
1000
1000
,  // measure 30
1000
MMMM
1000
0000
1000
0000
1000
0000
1000
MMMM
1000
0000
1000
1000
1000
1000
,  // measure 31
1000
1000
0100
0100
0010
0010
0001
0001
0100
0010
1000
0001
0100
0010
1000
0100
,  // measure 32
0010
MMMM
MMMM
MMMM
MMMM
MMMM
MMMM
MMMM
MMMM
MMMM
MMMM
MMMM
MMMM
MMMM
0010
0002
,  // measure 33
0000
0000
0013
0100
0001
0000
1000
0200
0000
0000
1300
0010
0100
0000
0010
0001
,  // measure 34
1000
0010
0001
0010
1000
0100
0001
0100
1000
0010
0100
0001
1000
0100
0001
0010
,  // measure 35
0100
1000
0100
1000
0100
1000
0100
1000
0010
1000
0010
1000
0010
1000
0010
1000
,  // measure 36
0010
0000
1000
0100
0010
0000
0011
0000
0001
0010
0100
1000
0010
0100
0001
0100
,  // measure 37
0010
0000
1000
0100
0010
0000
1000
0010
0001
0100
1000
0000
1001
0000
0001
0010
,  // measure 38
0100
1000
0010
0100
1000
0000
0010
1000
0100
0010
0001
1000
0010
0000
0001
0010
,  // measure 39
0100
1000
0010
0001
0100
0010
1000
0100
0020
0000
0001
0000
0100
0000
1030
0000
,  // measure 40
1010
0000
0001
0010
1000
0000
0110
0000
0101
0000
1000
0100
0010
0001
0100
0010
,  // measure 41
1000
0000
0010
0100
0001
0000
1000
0100
0010
0001
0100
0010
1000
0000
0020
0030
,  // measure 42
MMMM
0000
0010
0000
1000
0000
0200
0300
MMMM
0000
0010
0000
0001
0000
1000
0000
,  // measure 43
0200
0000
0000
0000
0020
0000
0330
0000
0100
0010
0100
0010
1000
0001
1000
0001
,  // measure 44
0100
0000
0010
1000
0100
0000
0011
0000
1100
0000
0010
1000
0100
0010
0001
0010
,  // measure 45
0100
0000
0010
1000
0100
0000
1000
0100
0010
0001
0100
0000
0101
0000
1000
0010
,  // measure 46
0001
0100
1000
0000
0101
0000
0010
1000
0100
0001
0010
0000
1100
0000
0001
0100
,  // measure 47
1000
0010
0100
0001
1000
0100
0010
0001
0200
0000
1000
0000
0010
0000
0301
0000
,  // measure 48
0101
0000
0001
0010
1000
0000
1100
0000
1000
0100
1000
0100
0010
0000
0001
0010
,  // measure 49
1000
0000
1000
0100
0010
0000
0100
0010
0001
1000
0010
0100
0001
0000
0010
0001
,  // measure 50
0100
0010
1000
0000
1100
0000
1000
0010
0001
0100
1000
0000
0101
0000
0010
1000
,  // measure 51
0100
0010
0001
0100
0010
1000
0001
0100
2000
0000
3002
0000
2003
0000
3002
0000
,  // measure 52
2000
0000
0000
0000
,  // measure 53
0000
0000
0000
3003
,  // measure 54
MMMM
0000
0000
0000
;
