#VERSION:0.83;
#TITLE:They Who Govern Reason;
#SUBTITLE:;
#ARTIST:西木 康智;
#TITLETRANSLIT:;
#SUBTITLETRANSLIT:;
#ARTISTTRANSLIT:Yasunori Nishiki;
#GENRE:;
#ORIGIN:;
#CREDIT:;
#BANNER:They Who Govern Reason.png;
#BACKGROUND:They Who Govern Reason-bg.png;
#PREVIEWVID:;
#JACKET:They Who Govern Reason-jacket.png;
#CDIMAGE:;
#DISCIMAGE:;
#LYRICSPATH:;
#CDTITLE:;
#MUSIC:They Who Govern Reason.ogg;
#OFFSET:-0.143492;
#SAMPLESTART:76.000000;
#SAMPLELENGTH:12.000000;
#SELECTABLE:YES;
#BPMS:0.000=162.000,
52.500=81.000,
52.750=162.000,
53.500=81.000,
53.750=162.000,
54.500=81.000,
54.750=162.000,
65.500=81.000,
65.750=162.000,
66.500=81.000,
66.750=162.000,
67.500=81.000,
67.750=162.000,
78.500=81.000,
78.750=162.000,
79.500=81.000,
79.750=162.000,
80.500=81.000,
80.750=162.000,
91.500=81.000,
91.750=162.000,
92.500=81.000,
92.750=162.000,
93.500=81.000,
93.750=162.000,
105.000=81.000,
107.250=324.000,
109.250=81.000,
109.500=162.000,
115.500=81.000,
117.750=324.000,
120.000=81.000,
120.250=162.000,
190.250=81.000,
206.250=162.000;
#STOPS:52.750=0.270,
53.750=0.270,
54.750=0.270,
65.750=0.270,
66.750=0.290,
67.750=0.270,
78.750=0.270,
79.750=0.270,
80.750=0.310,
91.750=0.250,
92.750=0.270,
93.750=0.290,
238.250=0.650,
244.500=0.710,
258.500=0.730,
264.500=0.570;
#DELAYS:;
#WARPS:;
#TIMESIGNATURES:0.000=4=4;
#TICKCOUNTS:0.000=4;
#COMBOS:0.000=1;
#SPEEDS:0.000=1.000=0.000=0;
#SCROLLS:0.000=1.000;
#FAKES:;
#LABELS:0.000=Song Start;
#BGCHANGES:;
#KEYSOUNDS:;
#ATTACKS:
;

//---------------dance-single - ----------------
#NOTEDATA:;
#CHARTNAME:;
#STEPSTYPE:dance-single;
#DESCRIPTION:;
#CHARTSTYLE:;
#DIFFICULTY:Beginner;
#METER:4;
#RADARVALUES:0.200628,0.359361,0.232815,0.232815,0.319182,187.000000,156.000000,31.000000,31.000000,0.000000,0.000000,0.000000,0.000000,0.000000,0.200628,0.359361,0.232815,0.232815,0.319182,187.000000,156.000000,31.000000,31.000000,0.000000,0.000000,0.000000,0.000000,0.000000;
#CREDIT:;
#NOTES:
0000
0000
0000
0000
,
0000
0000
0000
0000
,
0000
0000
0000
0000
,
0000
1000
0000
1000
,
0000
0001
0000
0001
,
0000
0100
0000
0100
,
0000
0020
0030
2000
,
3000
0001
0000
0001
,
0000
1000
0000
1000
,
0000
0010
0000
1000
,
0000
0001
0000
1000
,
0000
2002
0000
0000
,
0000
3003
0000
2000
,
0000
0000
0000
0000
,
3000
0000
1000
0000
,
0001
0000
0100
0000
,
0020
0000
0000
0000
,
0000
0030
0000
1000
,
0000
0100
0000
0010
,
0000
0002
0000
0000
,
0000
0000
0003
0000
,
0001
0000
1000
0000
,
0010
0000
0200
0000
,
0000
0000
0000
0300
,
0000
0001
0000
1000
,
0000
0100
0000
0010
,
0000
0022
0000
0000
,
0000
0000
0000
0033
0000
0000
0000
0000
,
0000
0000
0000
0000
0000
0000
0000
2200
,
0000
0000
0000
0000
,
0000
3300
0000
0000
0000
0000
0000
0000
,
0000
0000
0000
0000
0000
0000
0000
0000
0000
1000
0000
0000
0000
0000
0000
0000
,
0000
0100
0000
0000
0000
0000
0000
0000
0000
1000
0000
0000
0000
0100
0000
0000
,
0000
0010
0000
0000
0000
0000
0000
0000
0000
0001
0000
0000
0000
1000
0000
0000
,
0000
0001
0000
0000
0000
1000
0000
0000
0000
0100
0000
0000
0000
0000
0000
0000
,
0000
1000
0000
0000
0000
0010
0000
0000
0000
0100
0000
0000
0000
0001
0000
0000
,
0000
1000
0000
0000
0000
0000
0000
0000
0000
0001
0000
0000
0000
0010
0000
0000
,
0000
0100
0000
0000
0000
1000
0000
0000
0000
0002
0000
0000
0000
0100
0000
0000
,
0000
0000
0000
0000
0000
0103
0000
0000
0000
1000
0000
0000
0000
0010
0000
0000
,
0000
0100
0000
0000
0000
0001
0000
0000
0000
2000
0000
0000
0000
0000
0000
0000
,
0000
0010
0000
0000
0000
0000
0000
0000
0000
3010
0000
0000
0000
0100
0000
0000
,
0000
0001
0000
0000
0000
1000
0000
0000
0000
2002
0000
0000
0000
3003
0000
0000
,
0000
0001
0000
0000
0000
1000
0000
0000
0000
2002
0000
0000
0000
0000
3003
0000
,
0000
1000
0000
0000
0000
0001
0000
0000
0000
2002
0000
0000
0000
0000
3003
0000
,
0000
0000
0000
0001
0000
0000
0000
0000
0000
1000
0000
0000
0000
0000
0000
0000
,
0000
0100
0000
0000
0000
0000
0000
0000
0000
0010
0000
0000
0000
0000
0000
0000
,
0000
0001
0000
0000
0000
0000
0000
0000
0000
2002
0000
0000
0000
0000
0000
0000
,
0000
3003
0000
0000
0000
0000
0000
0000
0000
1010
0000
0000
0000
0101
0000
0000
,
0000
0001
0000
0000
0000
0000
0000
0000
0000
1001
0000
0000
0000
0011
0000
0000
,
0000
0001
0000
0000
0000
0000
0000
0000
0000
1100
0000
0000
0000
1010
0000
0000
,
0000
0010
0000
0000
0000
0000
0000
0000
0000
0101
0000
0000
0000
0001
0000
0000
,
0000
1000
0000
0000
0000
1001
0000
0000
0000
0001
0000
0000
0000
0010
0000
0000
,
0000
0100
0000
0000
0000
1000
0000
0000
0000
0002
0000
0000
0000
0000
0000
0000
,
0000
1000
0000
0000
0000
0000
0000
0000
0000
1003
0000
0000
0000
0001
0000
0000
,
0000
0010
0000
0000
0000
0100
0000
0000
0000
2000
0000
0000
0000
3000
0000
0000
,
0000
0002
0000
0000
0000
0003
0000
0000
0000
1000
0000
0000
0000
0001
0000
0000
,
0000
0010
0000
0000
0000
0001
0000
0000
0000
0100
0000
0000
0000
0010
0000
0000
,
0000
1000
0000
0000
0000
0100
0000
0000
0000
0010
0000
0000
0000
0000
0000
0000
,
0000
1000
0000
0000
0000
0001
0000
0000
0000
0100
0000
0000
0000
0010
0000
0000
,
0000
1000
0000
0000
0000
0000
0000
0000
0000
1001
0000
0000
0000
0000
0000
0000
,
0000
1100
0000
0100
0000
1000
0000
0001
,
0000
1001
0000
0000
0000
0011
0000
0001
,
0000
1000
0000
0001
0000
0101
0000
0000
,
0000
0110
0000
0000
0000
1010
0000
0000
,
0000
1001
0000
0000
0000
0101
0000
0000
,
0000
1001
0000
1000
0000
0100
0000
0010
,
0000
0011
0000
0000
0000
0000
0101
0000
,
0001
1000
0100
0020
,
0000
0000
0000
0030
,
0000
0110
0000
2000
,
0000
0000
0000
3000
,
0000
1001
0000
0002
,
0000
0000
0000
0003
,
0000
0001
1000
0020
,
0000
0000
0000
0030
,
0000
0110
0000
0100
,
0000
0001
0000
2002
,
0000
0000
0000
0000
,
0000
0000
0000
0000
,
0000
0000
0000
3003
;

//---------------dance-single - ----------------
#NOTEDATA:;
#CHARTNAME:;
#STEPSTYPE:dance-single;
#DESCRIPTION:;
#CHARTSTYLE:;
#DIFFICULTY:Easy;
#METER:7;
#RADARVALUES:0.308989,0.539042,0.135183,0.367998,0.510691,288.000000,270.000000,18.000000,49.000000,0.000000,0.000000,0.000000,0.000000,0.000000,0.308989,0.539042,0.135183,0.367998,0.510691,288.000000,270.000000,18.000000,49.000000,0.000000,0.000000,0.000000,0.000000,0.000000;
#CREDIT:;
#NOTES:
0000
0000
0000
0000
,
0000
0000
0000
0000
,
0000
0000
0000
0000
,
0000
1000
0100
1000
,
0001
0100
0001
0010
,
0001
0010
0001
1000
,
0100
2000
3010
0200
,
0301
2000
0010
3010
,
0100
0002
0010
0013
,
0001
2000
0010
3002
,
0100
2003
0100
3002
,
0010
1003
0001
1000
,
0001
0000
2002
0000
0000
3003
2002
0000
,
0000
0000
0000
0000
,
3003
0001
1000
0001
,
0100
0010
1000
0001
,
0010
0200
0000
0000
,
0000
0300
1000
0001
,
0010
0100
1000
0001
,
1000
0002
0000
0000
,
0000
0000
0000
0003
,
1000
0001
0010
0100
,
1000
0001
0100
0020
,
0000
0000
0000
0000
,
0030
1000
0001
0010
,
0100
1000
0001
0100
,
0010
0220
0000
0000
,
0000
0000
0000
0330
0000
0000
0000
0000
,
0000
0000
0000
0000
0000
0000
0000
2002
,
0000
0000
0000
0000
,
0000
3003
0000
0000
0000
0000
0000
0000
,
0000
0000
0000
0000
0000
0000
0000
0000
0000
0001
0000
0000
0000
0010
0000
0000
,
0000
0001
0000
0000
0000
1000
0000
0000
0000
0100
0000
1000
0000
0100
0000
0000
,
0000
1000
0000
0000
0000
0010
0000
0000
0000
0100
0000
0000
0000
0001
0000
0000
,
0000
1000
0000
0001
0000
1000
0000
0001
0000
0010
0000
0000
0000
0001
0000
0000
,
0000
0100
0000
0000
0000
0010
0000
0000
0000
1000
0000
0100
0000
1000
0000
0000
,
0000
0100
0000
0000
0000
1000
0000
0000
0000
0001
0000
0000
0000
0100
0000
0000
,
0000
0010
0000
1000
0000
0010
0000
1000
0000
0002
0000
0000
0000
0010
0000
0000
,
0000
0010
0000
0000
0000
0010
0000
0000
0000
0013
0000
0000
0000
0001
0000
0000
,
0000
0010
0000
0100
0000
0010
0000
0000
0000
0002
0000
0000
0000
0100
0000
0000
,
0000
0100
0000
0000
0000
0100
0000
0000
0000
0103
0000
0000
0000
1000
0000
0000
,
0000
0010
0000
1000
0000
0010
0000
0000
0000
0200
0000
0000
0000
0301
0000
0000
,
0000
1000
0000
0000
0000
1000
0000
0001
0000
2000
0000
0000
0000
3100
0000
0000
,
0000
0010
0000
0001
0000
0010
0000
0000
0000
0002
0000
0000
0000
1003
0000
0000
,
0000
0001
0000
0100
0000
0001
0000
0000
0000
0002
0000
0000
0000
0023
0000
0000
,
0000
0230
0000
0000
0000
2300
0000
0000
0000
3001
0000
1000
0000
0001
0000
0100
,
0000
0002
0000
0000
0000
2003
0000
0000
0000
3002
0000
0000
0000
0003
0000
0000
,
0000
2002
0000
0000
0000
0000
3003
0000
0000
1001
0000
0000
0000
0011
0000
0000
,
0000
0001
0000
0010
0000
0001
0000
1000
0000
1001
0000
0000
0000
1010
0000
0000
,
0000
1000
0000
0100
0000
0010
0000
0001
0000
1001
0000
0000
0000
1100
0000
0000
,
0000
1000
0000
0001
0000
0010
0000
0001
0000
1001
0000
0000
0000
0101
0000
0000
,
0000
0001
0000
1000
0000
0100
0000
1000
0000
0020
0000
0000
0000
0130
0000
0000
,
0000
0002
0000
0000
0000
0013
0000
0000
0000
0001
0000
0000
0000
1000
0000
0001
,
0000
1000
0000
0000
0000
0100
0000
0000
0000
2000
0000
0000
0000
0010
0000
0000
,
0000
0010
0000
0000
0000
3010
0000
0000
0000
1000
0000
0000
0000
0001
0000
1000
,
0000
0001
0000
0000
0000
0001
0000
0000
0000
0020
0000
0000
0000
0031
0000
0000
,
0000
2000
0000
0000
0000
3100
0000
0000
0000
0001
0000
0000
0000
1000
0000
0001
,
0000
1000
0000
0000
0000
0100
0000
0000
0000
0020
0000
0000
0000
0031
0000
0000
,
0000
0002
0000
0000
0000
0103
0000
0000
0000
0200
0000
0000
0000
0310
0000
0000
,
0000
0010
0000
0000
0000
0010
0000
1000
0000
0001
0000
0000
0000
0000
1000
0000
,
0000
0100
0000
1000
0000
0001
0000
0100
,
0000
0010
0000
0000
0000
1000
0000
0001
,
0000
1000
0000
0100
0000
0020
0000
0031
,
0000
0200
0000
0310
0000
2000
0000
3100
,
0000
0002
0000
1003
0000
1001
0000
0000
,
0000
0001
0000
1000
0000
0100
0000
0010
,
0000
0001
0000
0000
0001
0000
0010
0000
,
0100
1000
0001
0200
,
0010
0301
0010
0100
,
0000
0001
0000
2000
,
0010
3100
1000
0001
,
0000
1000
0000
0010
,
0100
1000
0001
0100
,
0000
0100
0010
0001
,
0000
1000
0001
0100
,
0000
0110
0000
0010
,
0000
1010
0000
1001
,
0001
0000
1000
0001
1000
0000
2002
0000
,
0000
0000
0000
0000
,
0000
0000
0000
3003
;

//---------------dance-single - ----------------
#NOTEDATA:;
#CHARTNAME:;
#STEPSTYPE:dance-single;
#DESCRIPTION:;
#CHARTSTYLE:;
#DIFFICULTY:Medium;
#METER:13;
#RADARVALUES:0.528930,0.898403,0.450609,0.570772,0.773546,493.000000,433.000000,60.000000,76.000000,0.000000,0.000000,0.000000,0.000000,0.000000,0.528930,0.898403,0.450609,0.570772,0.773546,493.000000,433.000000,60.000000,76.000000,0.000000,0.000000,0.000000,0.000000,0.000000;
#CREDIT:;
#NOTES:
0000
0000
0000
0000
,
0000
0000
0000
0000
,
0000
0000
0000
0000
,
0000
0000
1000
0100
1000
0000
0001
0000
,
1000
0001
0000
0001
0100
0000
0110
0000
,
0010
1000
0000
1000
0001
0000
1001
0000
,
1001
2100
3100
0021
,
0031
0000
1100
0000
1000
0010
0100
0000
,
0001
0100
0000
1000
0010
0000
1010
0000
,
0101
0021
0031
1200
,
1300
1002
1003
2010
,
3010
0220
0000
0000
,
0000
0330
0000
0000
,
0000
0000
0100
0020
0030
0000
0010
0200
0300
0000
0100
0020
0030
0000
0000
0000
,
0100
0000
0001
0100
0010
0000
1000
0000
,
0001
0010
0001
1000
,
0100
0000
1000
0000
0001
0000
1000
0002
0003
0000
0001
2000
3000
0000
1000
0002
,
0003
1000
0001
1000
0001
0100
0010
0000
,
1000
0001
0010
0011
,
1001
0000
0000
0000
2200
0000
0000
0000
3300
0000
0100
2000
3000
0000
1000
0200
,
0300
0000
0100
2000
3000
0000
1000
0000
0100
0000
1000
0000
0001
0000
0100
0000
,
0010
1000
0001
0010
,
0001
0000
0000
0000
1000
0000
0000
0000
0100
0000
0000
0000
0010
0000
0001
0020
,
0030
0000
0010
0002
0003
0000
0001
0020
0030
0000
0001
0000
0010
0000
0100
0000
,
1000
0001
2000
0000
3002
0000
0203
0000
,
0320
0000
2030
0000
3002
0000
0013
0100
,
1000
0001
2002
0000
0000
0000
0000
0000
,
0000
0000
3003
0000
1000
0001
1000
0001
,
1000
0001
1000
0001
1000
0001
0100
0220
,
0000
0000
0000
0000
,
0330
0000
0000
0010
0000
0100
0000
0010
0000
0100
0000
0010
0000
0100
0000
0001
,
0000
1000
0000
0100
0000
0010
0000
0001
0000
1000
0000
0001
0000
0010
0000
0001
,
0000
1000
0000
0010
0000
0100
0000
0001
0000
1000
0000
0001
1000
0001
0000
1000
,
0001
1000
0000
0001
0000
0010
0000
0100
0000
1000
0000
0001
0000
1000
0000
0001
,
0000
1000
0000
0100
0000
0010
0000
0001
0000
1000
0000
0010
0000
0100
0000
0001
,
0000
1000
0000
0001
0000
0010
0000
0100
0000
1000
0000
0100
1000
0100
0000
0010
,
0100
0010
0000
0100
0000
1000
0000
0001
0000
0010
0000
0100
0000
1000
0000
0001
,
0000
0100
0000
0010
0000
1000
0000
0001
0000
0020
0000
0000
0000
0032
0000
0000
,
0000
2003
0000
0000
0000
3200
0000
0000
0000
2300
0000
0000
0000
3002
0000
0000
,
0000
1003
0000
0001
0000
0010
0000
0000
0000
0020
0000
0000
0000
0032
0000
0000
,
0000
0203
0000
0000
0000
0320
0000
0000
0000
2030
0000
0000
0000
3200
0000
0000
,
0000
1300
0000
0100
0000
1000
0000
0000
0000
2020
0000
0000
0000
3030
0000
0010
,
0000
0100
0000
0001
0000
1000
0000
0100
0000
2200
0000
0000
0000
3300
0000
1000
,
0000
0001
0000
0010
0000
0100
0000
1000
0000
2002
0000
3000
0000
1003
0000
0001
,
0000
0000
0000
0001
0000
0000
0010
0000
0000
0002
0000
0000
0000
1000
0000
0000
,
0000
0203
0000
0000
0000
0001
0000
0000
0000
0320
0000
0000
0000
1030
0000
0100
,
0000
0010
0000
0000
0001
0000
0000
0010
0000
0022
0000
0000
0000
0033
0000
0000
,
0000
0202
0000
0000
0000
0303
0000
0000
0000
1001
0000
0001
0010
0100
0000
1100
,
0000
1000
0100
1000
0100
0010
0001
0010
0000
0011
0000
0001
0100
0010
0000
1010
,
0000
1000
0100
1000
0001
0100
0010
0100
0000
0110
0000
0010
1000
0001
0000
1001
,
0000
0000
1000
0000
0010
0000
0100
0000
0001
0000
0000
0000
0001
0000
1000
0000
0000
0000
2001
0000
0000
0000
3100
0000
0000
0000
1000
0000
0000
0100
0000
0000
,
0010
0002
0000
0103
0010
2000
0000
3001
0000
0001
0000
0010
0000
0001
0000
0010
,
0000
0001
0000
0100
0000
0001
0000
0100
0000
0010
0000
1000
0100
1000
0000
0100
,
0000
0010
0000
0001
0010
0001
0000
0010
0000
0001
0000
1000
0000
0010
0000
1000
,
0000
0001
0000
0100
0010
0100
0000
0001
0000
0020
0000
0100
0000
0130
0000
1000
,
0000
0200
0000
1000
0000
1300
0000
0100
0000
2000
0000
0000
0000
3001
0000
1000
,
0000
0100
0000
0000
0000
0110
0000
0000
0000
0010
0000
0001
0000
1000
0000
0100
,
0000
0000
0000
0010
0000
0001
0000
0000
0000
2001
0000
0000
0000
0001
0000
0000
,
0000
0100
0000
0000
0100
0000
0000
3100
0000
1000
0000
0100
0000
0010
0000
0001
,
0000
0010
0000
0100
0000
1000
0000
0001
0000
1001
0000
0000
0001
0000
1000
0000
,
0001
0101
0000
0110
0000
1010
0000
1001
,
0000
0011
0010
0001
1000
1001
0000
0011
,
0000
1010
0000
1001
0000
0001
0100
0001
,
0000
1000
0010
1000
0000
0001
1000
0001
,
0000
1000
0100
1000
0000
1010
0000
0010
,
1000
1001
0000
0011
0000
0101
0000
1010
,
0000
1100
0000
0100
1000
0010
0100
0000
,
0101
0000
1010
0000
0101
0000
0001
0010
,
0100
0000
1000
0000
0000
0000
0001
0000
0000
1000
0000
0000
0002
0000
0000
0000
,
0203
0000
0320
0000
2030
0000
3001
1000
,
0100
0000
0010
0000
0000
0000
0010
0000
0000
0001
0000
0000
0020
0000
0000
0000
,
0032
0000
2003
0000
3200
0000
1300
0001
,
0100
0010
1000
0100
0010
0001
1000
0000
,
1001
0011
0101
0110
,
1010
0000
0000
0000
1000
0000
0000
0010
0000
0000
0100
0000
0001
0000
0000
0000
,
0101
0000
1000
0000
1010
0000
0010
1000
,
0001
0000
0001
1000
0100
0000
2200
0000
,
0000
0000
3300
2002
,
0000
0000
0000
0000
,
0000
0000
0000
3003
;

//---------------dance-single - 西木 康智----------------
#NOTEDATA:;
#CHARTNAME:;
#STEPSTYPE:dance-single;
#DESCRIPTION:西木 康智;
#CHARTSTYLE:;
#DIFFICULTY:Hard;
#METER:16;
#RADARVALUES:0.751016,1.018190,0.187754,0.766036,1.137789,700.000000,675.000000,25.000000,102.000000,0.000000,0.000000,0.000000,0.000000,0.000000,0.751016,1.018190,0.187754,0.766036,1.137789,700.000000,675.000000,25.000000,102.000000,0.000000,0.000000,0.000000,0.000000,0.000000;
#CREDIT:;
#NOTES:
0000
0000
0000
0000
,
0000
0000
0000
0000
,
0000
0000
0000
0000
,
0000
0000
1000
0001
0100
0010
1000
0001
,
0010
0001
0001
1000
0100
0010
0100
1000
,
0001
0100
0100
0010
1000
0001
0100
0001
,
1000
0000
0100
0000
1000
0100
1000
0100
1000
0000
0100
0000
0010
0001
0010
0001
,
0010
0001
1000
0001
0100
0010
1000
0001
,
0010
0100
0100
1000
0001
0100
0010
1000
,
0001
0000
0100
1000
0001
1000
0010
0100
,
0001
0100
0001
0010
0100
1000
0001
1000
,
0100
0000
0010
0001
0020
0000
0001
0000
0031
0000
0200
0000
0010
0000
0310
0000
,
2000
0000
0100
0000
3100
1000
0001
0010
0100
1000
0001
1000
0100
0010
0001
1000
,
0001
1000
0001
2000
0010
3000
0001
2000
0100
3000
0010
2000
0100
3000
0100
0000
,
1000
0000
1000
0000
0001
0010
0001
0100
0010
0000
0000
1000
0001
0000
0000
0100
,
0001
0000
0000
0001
0010
0000
0000
0001
2000
0000
3200
0000
0320
0000
0230
0000
,
2300
0000
3002
0000
0103
0000
0010
0200
0001
0300
0001
0200
0010
0300
0010
0200
,
0001
0300
0001
0000
0010
0000
0010
0000
0100
1000
0100
1000
0010
0000
0000
0100
,
0010
0000
0000
1000
0100
0000
0000
1000
0010
0000
0000
0100
0002
0000
0023
0000
,
0230
0000
0320
0000
0031
0010
0100
1000
0010
0000
1000
0002
0010
0003
1000
0002
,
0100
0003
0100
0002
0010
0003
0010
0000
0001
0000
0001
0000
0010
0001
0100
0010
,
1000
0000
0000
1000
0010
0000
0000
0010
0100
0000
0000
0100
0001
0000
0000
0001
,
2000
0000
3200
0000
0320
0000
0230
0000
2300
0000
3002
0000
0013
0000
0001
0020
,
0001
0030
0100
0020
0001
0030
0100
0020
0100
0030
0100
0000
0010
0000
0010
0000
,
0001
0100
0010
1000
0001
0000
0000
1000
0001
0000
0000
0001
0010
0000
0000
0100
,
0010
0000
0000
1000
0100
0000
1000
0000
0010
0000
0100
0000
0001
0000
0010
0000
,
0001
0010
0100
1000
0001
0010
0001
0010
0100
1000
0100
1000
0001
0020
0000
0000
,
0000
0000
0000
0000
0000
0130
0010
0000
0100
1000
0100
1000
0100
1000
0010
0000
,
0100
0000
0001
0000
0010
0000
0001
0000
0100
0000
0010
0000
1000
0000
0001
1000
,
0100
1000
0010
0100
0001
0010
0100
2000
0000
0000
0000
0000
0000
0000
0000
0000
,
3001
1000
0000
0001
0000
0010
0000
0001
0000
0100
0000
0010
0000
1000
0000
0001
,
0000
1000
0000
0100
0000
0010
0000
0001
0000
0010
0001
0010
0100
0010
0100
0001
,
1000
0100
0010
0100
1000
0001
0000
1000
0000
1001
0000
0001
0010
0100
0000
0010
,
0100
1000
0000
0100
0000
1000
0000
0100
0000
0001
0000
0100
0000
1000
0000
0100
,
0000
0001
0000
0100
0000
1000
0001
0100
0000
0010
0001
0100
0010
1000
0100
0010
,
0100
1000
0001
0100
0010
1000
0000
0001
0000
1001
0000
1000
0100
0010
0000
0100
,
0010
0001
0000
0010
0000
0001
0000
0010
0000
1000
0000
0010
0000
0001
0000
0010
,
0000
1000
0000
0010
0000
0001
0000
0010
0100
0020
0000
0000
0000
0032
0000
0000
,
0000
2003
0000
0000
0000
3200
0000
0000
0000
2300
0000
3200
0000
0320
0000
0032
,
0000
0023
0000
0230
0000
2300
0000
3000
0000
0002
0000
0000
0000
2003
0000
0000
,
0000
3020
0000
0000
0000
0230
0000
0000
0000
0302
0000
0023
0000
0230
0000
2300
,
0000
3200
0000
0320
0000
0032
0000
0003
0000
2002
0000
0000
0000
3003
0000
0001
,
0010
0001
0000
1000
0001
0000
0001
0010
0000
0022
0000
0000
0000
0033
0000
0001
,
1000
0010
0000
0010
1000
0000
1000
0010
0000
2020
0000
3030
0000
1000
0000
0010
,
0000
0000
0000
0100
0000
0000
0001
0000
0000
0020
0000
0031
0010
0001
0000
0000
,
0000
2000
0000
3100
1000
0100
0000
0000
0000
0001
0000
0010
0000
0100
0000
1000
,
0001
0010
0000
0001
0010
0000
0010
0001
0000
2002
3003
0001
1000
0100
0000
2000
,
0000
0200
3300
1000
0100
0010
0000
0001
0000
0011
0001
0010
0001
0100
0010
0100
,
0010
0000
2000
3000
1000
0000
0200
0300
0100
0000
0020
0030
0010
0000
0002
0003
0001
0000
1000
0000
0001
0000
0010
0000
0100
0000
1000
0000
0001
0000
0100
0000
,
0010
0000
2000
3000
1000
0000
0002
0003
0001
0000
0200
0300
0100
0000
0020
0030
0010
0000
0100
0000
0001
0000
0100
0000
0001
0000
1000
0000
0010
0000
1000
0000
,
0010
0000
0200
0300
0100
0000
0002
0003
0001
0000
2000
3000
1000
0000
0200
0300
0100
0000
0010
0000
0001
0000
0010
0000
0001
0000
1000
0000
0100
0000
1000
0000
,
0100
0000
0002
0003
0001
0000
0020
0030
0010
0000
0200
0300
0100
0000
2000
3000
1000
0000
0001
0000
0000
0000
1000
0000
0000
0000
0001
0000
0000
0000
1000
0000
,
0000
0001
0000
0100
0000
0001
0000
0100
0000
0002
0000
0000
0000
0023
0000
0000
,
0000
0230
0000
0000
0000
2300
0000
0000
0000
3100
0000
1000
0000
0100
0000
1000
,
0000
0000
0000
0010
0000
0100
0000
0000
0000
0002
0000
0010
0000
0103
0000
0000
,
0000
0020
0000
0100
0000
0031
0000
0000
0000
1000
0000
0010
0000
0100
0000
0001
,
0000
1000
0000
0001
0000
1000
0000
0000
0000
1001
0000
1000
0000
0100
0000
0010
,
0000
0000
0000
0010
0000
0001
0000
0000
0000
0001
0000
0010
0000
0001
0000
0010
,
0000
0100
0000
0000
1000
0000
0000
0100
0000
1000
0000
1000
0000
0001
0000
0001
,
0000
0010
0100
0010
0100
1000
0001
0100
0010
0100
0000
0000
0100
0010
0100
0001
,
1000
0001
0020
0000
0001
0000
0031
0000
0000
0000
2000
0000
0100
0000
3100
0000
,
0000
0000
1001
0000
0001
1000
0100
1000
0010
0100
0002
0000
0010
0000
0203
0000
,
0010
0000
1300
0000
0001
0000
1000
0000
0001
0000
1000
0001
0010
0000
0011
0000
,
0001
0000
0001
1000
0010
0000
1010
0000
1000
0000
0010
1000
0001
0000
1001
0000
,
1000
0000
0001
1000
0100
0000
0110
0000
0010
0000
0001
0000
0010
0001
0010
0001
,
0010
0001
2000
0000
0001
0000
3001
0000
0000
0000
0020
0000
0100
0000
0130
0000
,
0000
0000
1100
0000
0000
0000
0100
1000
0010
0100
0001
0010
0002
0000
0010
0000
,
0013
0000
0200
1000
1300
0000
0001
1000
,
0100
0000
0010
0000
0000
0000
0011
0000
0000
0101
0000
0000
2010
0000
0000
0000
,
3100
0000
0010
0001
0100
0000
0100
0001
,
1000
0000
0010
0000
0000
0000
0110
0000
0000
0101
0000
0000
1002
0000
0000
0000
,
0013
0000
0000
0000
0001
0000
0010
0000
0100
0000
0000
0000
1000
0000
0000
0100
,
1000
0000
0000
0001
0010
0000
0000
0010
0100
0000
0000
0100
2000
0000
0000
0000
,
3001
0000
0000
0000
1001
0000
0000
0000
0011
0000
0000
0000
0001
1000
0100
0000
,
1100
0000
0000
0000
1000
0000
0000
0001
0000
0000
0100
0000
0001
0100
0001
0000
,
0101
0000
0000
0000
0100
0010
0100
0000
0110
0000
0000
0000
0010
1000
0010
0000
,
1000
0000
0010
0000
1000
0001
1000
0000
0001
0000
1000
0000
0010
1000
0001
0100
,
0010
1000
0001
0100
0010
1000
0001
0100
0010
1000
0001
0200
0020
0000
0000
0000
,
0000
0000
0000
0000
,
0000
0000
0000
0330
;

//---------------dance-single - ----------------
#NOTEDATA:;
#CHARTNAME:;
#STEPSTYPE:dance-single;
#DESCRIPTION:;
#CHARTSTYLE:;
#DIFFICULTY:Challenge;
#METER:18;
#RADARVALUES:0.898000,1.287710,0.232815,0.465630,1.524562,837.000000,806.000000,31.000000,62.000000,0.000000,0.000000,0.000000,0.000000,0.000000,0.898000,1.287710,0.232815,0.465630,1.524562,837.000000,806.000000,31.000000,62.000000,0.000000,0.000000,0.000000,0.000000,0.000000;
#CREDIT:;
#NOTES:
// measure 0
0000
0000
0000
0000
,  // measure 1
0000
0000
0000
0000
,  // measure 2
0000
0000
0000
0000
,  // measure 3
0000
0000
0000
0000
1000
0000
0001
1000
0001
0000
1000
0000
0100
0000
0010
0000
,  // measure 4
0001
0000
0100
0000
0010
0000
1000
0010
1000
0000
0001
0000
1000
0000
0001
0000
,  // measure 5
0010
0000
0100
0000
1000
0000
0001
1000
0001
0000
1000
0000
0100
0000
0010
0000
,  // measure 6
0001
1000
0020
0000
0130
0001
2000
0000
,  // measure 7
3100
0000
1000
0000
0001
0000
1000
0010
0100
0000
0001
0000
1000
0000
0001
0000
,  // measure 8
0010
0000
0100
0000
1000
0000
0001
0100
0010
0000
1000
0000
0001
0000
1000
0000
,  // measure 9
0100
0000
0010
0000
0001
0010
0001
0010
0001
0000
0010
0000
0001
0100
0001
0100
,  // measure 10
0001
0000
0100
0000
0001
1000
0001
1000
0001
0000
1000
0000
0001
1000
0100
1000
,  // measure 11
0010
0100
0001
1000
0200
0000
1000
0000
1000
0000
1000
0000
1000
0000
1000
0000
,  // measure 12
1000
1300
1100
0000
0000
0000
0000
0000
,  // measure 13
0000
0000
0000
0000
1000
0100
0020
0000
0001
0000
0030
0000
0001
0010
0200
0000
1000
0000
0300
0000
1000
0010
0200
0000
0001
0300
0000
0000
1000
0000
0001
0000
,  // measure 14
0010
0000
0100
0000
1000
0000
1000
0000
0001
0000
0000
1000
0010
0000
0000
0100
,  // measure 15
0001
0000
0000
1000
0100
0000
0000
0001
0100
0000
1000
0000
0100
0000
0010
0000
,  // measure 16
0100
0000
0000
0000
1000
0000
0000
0000
0001
0000
0000
0000
1000
0100
0020
0000
0001
0000
0030
0000
0001
0100
0020
0000
1000
0000
0030
0000
0010
0100
0002
0000
,  // measure 17
1000
0003
0001
1000
0100
0000
1000
0000
0010
0000
0100
0000
0001
0000
0010
0001
,  // measure 18
0010
0000
0100
0010
0100
0000
1000
0100
1000
0000
0001
0100
1000
0000
1000
0100
,  // measure 19
0001
0000
0000
0000
0200
0000
0000
0000
0010
0000
0000
0000
0010
0000
0000
0000
1300
0000
0000
0000
1000
0100
2000
0000
0010
0000
3000
0000
0010
0100
0002
0000
,  // measure 20
0010
0000
0003
0000
0001
0010
0200
0000
1000
0000
0300
0000
0100
0000
1000
0000
0010
0000
0000
0000
0100
0000
0000
0000
0001
0000
0000
0000
1000
0000
0000
0000
,  // measure 21
0001
0000
0000
1000
0010
0000
0000
0001
0010
0000
0000
0100
1000
0000
0000
0010
,  // measure 22
0001
0000
0000
0000
0100
0000
0000
0000
0010
0000
0000
0000
1000
0000
0000
0000
0001
0000
0000
0000
0100
0000
0000
0000
0010
0000
0000
0000
1000
0010
0200
0000
,  // measure 23
0001
0000
0300
0000
0001
0010
0200
0000
1000
0000
0300
0000
1000
0100
0020
0000
0001
0000
0030
0000
0001
0000
1000
0000
0100
0000
0000
0000
1000
0000
0000
0000
,  // measure 24
0001
1000
0010
0100
0001
0000
0000
0020
0001
0000
0000
0230
0010
0000
0000
2300
,  // measure 25
0100
0000
0000
3002
0010
0000
0000
0203
1000
0000
0000
1300
0001
0000
0010
0000
,  // measure 26
0100
0000
1000
0000
0010
0000
0100
0000
0001
0010
0001
0010
0001
0010
0001
0010
0100
1000
0100
1000
0100
1000
0100
1000
0100
1000
0100
0000
0000
0000
1000
0000
,  // measure 27
0000
0010
0000
0100
0000
0001
1000
0000
0001
1000
0001
1000
0001
1000
0001
1000
,  // measure 28
0002
0000
0000
0000
0010
0000
0000
0000
0013
0000
0000
0000
0200
0000
0000
0000
1000
0000
0000
0000
1300
0000
0000
0000
1001
0000
0000
0000
1000
0010
1000
0010
,  // measure 29
1000
0010
1000
0010
0100
0001
0100
0001
0100
0001
0100
0001
0100
0001
0100
0000
0000
0000
0001
0000
0000
0000
1000
0000
0000
0000
0010
0000
0000
0000
0100
0000
,  // measure 30
0000
0001
0000
0010
0001
0010
0001
0010
0001
0010
0001
0010
0001
0020
0000
0001
,  // measure 31
0000
0031
0000
2000
0000
0100
0000
3100
0000
1100
0000
1000
0001
0010
0000
0100
,  // measure 32
1000
0000
0001
0000
0000
0000
0001
0000
1000
0000
0100
0000
0000
0000
0010
0000
0001
0000
0010
0000
0000
0000
0001
0010
0001
0010
0001
0000
0000
0000
0010
0001
,  // measure 33
0010
0001
0010
0000
0000
0000
0001
0000
0000
0000
1000
0000
0000
0000
0100
0000
0000
0000
1000
0000
0000
0000
0010
0000
0000
0000
0100
0000
0000
0000
0001
0000
,  // measure 34
0000
1000
0000
0001
0000
0100
0000
0010
0000
1000
0000
0010
0100
0001
0000
0001
,  // measure 35
1000
0000
0100
0000
0000
0000
0100
0000
1000
0000
0001
0000
0000
0000
0001
0000
0100
0000
0010
0000
0000
0000
0010
1000
0010
1000
0010
0000
0000
0000
1000
0010
,  // measure 36
1000
0010
1000
0000
0000
0000
0010
0000
0000
0000
0100
0000
0000
0000
0001
0000
0000
0000
1000
0000
0000
0000
0001
0000
0000
0000
0010
0000
0000
0000
0001
0000
,  // measure 37
0000
0100
0000
0010
0000
1000
0000
0100
0000
2000
0000
3100
0000
1000
0000
0100
,  // measure 38
0000
0200
0000
0310
0000
0100
0000
0010
0000
0020
0000
0031
0000
0010
0000
0001
,  // measure 39
0000
0002
0000
1003
0000
0001
0000
0000
0000
0002
0000
0013
0000
0001
0000
0010
,  // measure 40
0000
0200
0000
1300
0000
0100
0000
1000
0000
0020
0000
0130
0000
0010
0000
0100
,  // measure 41
0000
0002
0000
1003
0000
0100
0000
0000
0000
1100
0000
1000
0010
0100
0000
0001
,  // measure 42
0010
0001
0000
0010
0001
0000
0001
1000
0000
1100
0000
1000
0001
0010
0000
0001
,  // measure 43
1000
0100
0000
1000
0100
0000
0100
0010
0000
0002
0000
0023
0000
0230
0000
2300
,  // measure 44
0000
3000
0000
1001
0000
0000
1010
0000
0000
0101
0000
0100
0010
2000
0000
3010
,  // measure 45
0000
1010
0000
0010
0100
0002
0000
1003
0000
1001
0000
0001
1000
0200
0000
0310
,  // measure 46
0000
0110
0000
0000
1100
0000
0000
1001
0000
0022
0000
0000
0000
0000
0033
0000
,  // measure 47
0000
0000
2200
0000
0000
0000
0000
0000
0000
0000
0000
0000
3300
0000
0000
0000
0000
0000
1000
0010
0100
0001
1000
0001
0010
0001
1000
0001
0100
0010
1000
0100
,  // measure 48
0010
0001
0010
0000
0000
0010
0100
0000
0000
0100
1000
0000
0000
1000
0001
0000
0000
0000
0010
0001
0100
0010
1000
0100
0010
0001
0010
0000
0000
0000
0011
0000
,  // measure 49
0000
0000
2001
0000
0010
0000
0010
0000
0000
0000
0100
0000
0100
0000
3100
0000
1000
0000
0100
0000
0010
0000
0001
0000
0010
0001
0010
0000
0000
0000
0110
0000
,  // measure 50
0000
0000
1000
0000
0100
0010
0001
0000
0001
0000
0000
0010
0100
0000
2000
0000
0000
0000
3200
0000
0000
0000
0000
0000
0000
0000
1300
0000
0001
0100
0000
0001
,  // measure 51
0100
0020
0000
2030
0001
3002
0000
0023
0000
0130
1000
0001
0100
0010
0100
0001
,  // measure 52
1000
0100
0010
0100
1000
0001
0100
0010
0100
0002
0000
1003
0001
0010
0000
0010
,  // measure 53
0100
1000
0000
1000
0001
0100
0000
0100
0001
0010
0000
0001
0000
0010
0000
0100
,  // measure 54
0000
1000
0000
0010
0100
0001
0000
0001
0000
0010
0100
1000
0100
0010
0001
0010
,  // measure 55
0000
0001
0100
0010
1000
0010
0100
0001
0000
2001
0000
0000
0000
0000
0000
0010
,  // measure 56
0000
3010
0000
0000
0000
0101
0000
0000
0000
0001
1000
0100
0000
0010
0000
0001
,  // measure 57
0000
0000
0010
0001
0000
0010
0000
0000
0000
0001
0000
1000
0000
0010
0000
0100
,  // measure 58
0001
1000
0000
1000
0010
0000
0010
0100
0000
0001
0010
0001
0100
0001
0010
0001
,  // measure 59
0000
1000
0010
0100
0010
1000
0100
0010
0100
2000
0000
0000
3001
0010
0100
1000
,  // measure 60
0010
0100
0010
0000
0010
0100
0001
0000
1000
0000
0001
0000
0001
0100
0010
0000
,  // measure 61
1000
0000
0002
0000
1003
0001
0010
0100
1000
0000
0001
0000
0100
0010
1000
0000
,  // measure 62
1000
0010
0100
0000
0101
0000
1001
0000
1010
0000
1000
0001
0010
0000
0011
0000
,  // measure 63
0011
0000
0001
1000
0010
0000
1010
0000
1010
0000
1000
0001
0100
0000
0101
0000
,  // measure 64
0101
0000
0001
1000
0100
0000
1100
0000
1100
0000
2000
0000
3001
0010
0100
1000
,  // measure 65
0001
1000
0010
0000
0100
0010
1000
0000
0010
0000
0100
0000
0010
0100
0001
0000
,  // measure 66
0010
0000
0002
0000
0000
0000
1003
0100
0010
0001
1000
0001
0010
0000
0001
0010
,  // measure 67
0100
0000
0100
0000
1000
0000
0001
0100
0010
0000
1000
0000
0001
0000
1000
0000
,  // measure 68
0010
0000
0100
0010
0100
0000
0100
0001
0000
0001
1000
0000
0010
0000
0100
0000
,  // measure 69
0002
0000
0000
0000
1003
0000
0010
0000
0200
0000
0000
0000
0301
0000
1000
0100
,  // measure 70
1000
0000
0010
0000
1000
0000
0001
0010
0000
0001
0010
0000
0100
1000
0001
0100
,  // measure 71
0001
0000
0100
0000
0010
1000
0001
1000
0100
0000
1000
0000
0001
0000
0010
0001
,  // measure 72
0100
0000
0100
0010
1000
0000
1000
0010
0100
0000
0010
0100
0001
0100
0001
1000
,  // measure 73
0001
1000
0100
1000
0010
0000
0100
0001
0000
1000
0010
0000
0001
0010
0100
1000
,  // measure 74
0001
1000
0100
0010
0001
0000
0010
0001
0000
1000
0010
0000
0100
0010
1000
0010
,  // measure 75
0100
0001
0010
0000
0001
0010
0100
1000
0010
0100
0001
0000
1000
0000
0001
0000
,  // measure 76
1000
0000
0001
0000
1000
0001
1000
0001
1000
0001
1000
0001
2000
0000
0001
0000
,  // measure 77
0001
0000
0001
0000
0001
0000
0001
0000
0001
0000
3001
2000
0020
0000
0000
0000
,  // measure 78
0000
0000
0000
0000
,  // measure 79
0000
0000
0000
3030
;
