#TITLE:Theory of Eternity;
#SUBTITLE:;
#ARTIST:TAG;
#TITLETRANSLIT:;
#SUBTITLETRANSLIT:;
#ARTISTTRANSLIT:;
#GENRE:;
#CREDIT:;
#BANNER:Theory of Eternity.png;
#BACKGROUND:Theory of Eternity-bg.png;
#LYRICSPATH:;
#CDTITLE:;
#MUSIC:Theory of Eternity.ogg;
#OFFSET:0.000000;
#SAMPLESTART:61.529999;
#SAMPLELENGTH:15.000000;
#SELECTABLE:YES;
#BPMS:0.000000=160.000000
;
#STOPS:
;
#BGCHANGES:;
#KEYSOUNDS:;
#ATTACKS:;

//---------------dance-single - ----------------
#NOTES:
     dance-single:
     :
     Beginner:
     3:
     0.173370,0.222848,0.085464,0.000000,0.000000,142.000000,132.000000,10.000000,0.000000,0.000000,0.000000,0.173370,0.222848,0.085464,0.000000,0.000000,142.000000,132.000000,10.000000,0.000000,0.000000,0.000000:
0000
0000
0000
0000
,
0000
0000
0000
0000
,
0000
0000
0000
0000
,
0000
0000
0000
0000
,
0000
0000
0000
0000
,
0001
0000
0000
0000
,
1000
0000
0000
0000
,
0001
0000
1000
0000
,
1001
0000
0000
0000
,
0010
0000
1000
0000
,
0010
0000
1000
0000
,
0010
0000
0001
0000
,
0010
0000
0001
0000
,
1000
0000
0100
0000
,
0001
0000
0100
0000
,
1000
0000
0001
0000
,
1000
0000
0000
0000
,
0010
0000
1000
0000
,
0100
0000
0010
0010
,
0010
0000
0001
0000
,
0100
0000
0000
0000
,
0010
0000
0001
0000
,
0100
0000
0010
0010
,
0010
0000
1000
0000
,
0100
0000
0000
0000
,
0001
0000
1000
0000
,
0100
0000
1000
1000
,
1000
0000
0001
0000
,
0100
0000
0001
0001
,
0001
0000
1000
0000
,
0010
0000
1000
1000
,
1000
0000
0001
0000
,
0010
0000
0000
0000
,
1000
0000
1000
0000
,
0001
0000
0001
0000
,
1000
0000
1000
0000
,
0001
0000
0001
0000
,
1001
0000
0000
0000
,
1001
0000
0000
0000
,
1000
0000
0001
0000
,
1001
0000
0000
0000
,
0001
0000
0010
0000
,
0100
0000
1000
0000
,
0010
0000
1000
0000
,
0001
0000
0100
0000
,
0010
0000
1000
0000
,
0100
0000
0010
0000
,
0001
0000
0100
0000
,
0001
0000
1000
0000
,
1001
0000
0000
0000
,
0000
0000
0000
0000
,
0001
0001
0001
0000
,
0100
0100
0100
0000
,
1000
1000
1000
0000
,
0010
0010
0010
0000
,
0001
0000
1000
0000
,
1001
0000
0000
0000
,
0001
0000
0001
0000
,
1000
0000
1000
0000
,
0001
0000
0001
0000
,
1000
0000
1000
0000
,
1001
0000
0000
0000
,
1001
0000
0000
0000
,
0001
0000
1000
0000
,
1001
0000
0000
0000
,
1000
0000
0010
0000
,
0100
0000
0001
0000
,
0010
0000
0001
0000
,
1000
0000
0100
0000
,
0010
0000
0001
0000
,
0100
0000
0010
0000
,
1000
0000
0100
0000
,
1000
0000
0001
0000
,
1000
0000
0001
0000
,
1000
0000
1001
0000
,
0000
0000
0000
0000
;

//---------------dance-single - ----------------
#NOTES:
     dance-single:
     :
     Easy:
     6:
     0.304009,0.387153,0.179475,0.128196,0.000000,249.000000,228.000000,21.000000,15.000000,0.000000,0.000000,0.304009,0.387153,0.179475,0.128196,0.000000,249.000000,228.000000,21.000000,15.000000,0.000000,0.000000:
0000
0000
0000
0000
,
0000
0000
0000
0000
,
0000
0000
0000
0000
,
0000
0000
0000
0000
,
0000
0000
0000
0000
,
0001
0000
0100
0000
,
1000
0000
0100
0000
,
0001
0000
1000
0000
,
0001
0002
0000
0000
0003
0000
0110
0000
,
1000
0100
0010
0001
,
0010
0100
0010
0001
,
1000
0100
0001
0100
,
0010
0100
1000
0010
,
0001
0100
0010
1000
,
0010
0100
0010
1000
,
0001
0100
1000
0100
,
0110
0000
0000
0100
,
1000
0010
0101
0010
,
1000
0010
0100
0100
,
0010
0100
1001
0100
,
0010
0100
1000
1000
,
0001
0010
1100
0001
,
0100
1000
0100
0100
,
1000
0001
0110
1000
,
0100
0100
0000
0000
0000
0000
0100
0000
,
2000
0010
0001
3100
,
0001
0010
0100
0100
,
0002
0010
1000
0103
,
1000
0010
0100
0100
,
2000
0010
0001
3100
,
0001
0010
0100
0100
,
0002
0010
1000
0103
,
0220
0000
0000
0330
,
0000
0001
0000
0001
,
0000
0100
0000
0100
,
0000
1000
0000
1000
,
0000
0010
0000
0010
,
0110
0000
1000
0001
,
1001
0000
0100
0010
,
0110
0000
1001
0000
,
0220
0000
0000
0330
,
0001
0010
0100
1000
,
0001
0010
1000
0010
,
1000
0010
0100
0001
,
1000
0100
0001
0100
,
0010
1000
0001
0010
,
0100
1000
0001
0100
,
0010
0100
0001
0010
,
0100
0100
0100
0100
,
2000
0000
0000
0000
,
0002
0000
0000
3003
,
0001
0010
1100
0001
,
1000
0010
0101
1000
,
0001
0010
1001
0100
,
0010
0100
1001
0010
,
0001
0010
1000
0010
,
0002
0000
0000
0003
,
0000
1000
0000
1000
,
0000
0100
0000
0100
,
0000
0001
0000
0001
,
0000
0010
0000
0010
,
0110
0000
0001
1000
,
1001
0000
0100
0010
,
0110
0000
1001
0000
,
0220
0000
0000
0330
,
1000
0010
0100
0001
,
1000
0010
0001
0010
,
0001
0010
0100
1000
,
0001
0100
1000
0100
,
0010
0001
1000
0010
,
0100
0001
1000
0100
,
0010
0100
1000
0010
,
0100
0100
0100
0100
,
0000
0001
0001
0000
1000
1000
0000
0010
,
0010
0000
0100
0200
0000
0000
0000
0000
,
0000
0000
0300
0000
,
0000
0000
0000
0000
;

//---------------dance-single - ----------------
#NOTES:
     dance-single:
     :
     Medium:
     9:
     0.413891,0.451679,0.188021,0.076918,0.000000,339.000000,317.000000,22.000000,9.000000,0.000000,0.000000,0.413891,0.451679,0.188021,0.076918,0.000000,339.000000,317.000000,22.000000,9.000000,0.000000,0.000000:
0000
0000
0000
0000
,
0000
0000
0000
0000
,
0000
0000
0000
0000
,
0000
0000
0000
0000
,
0000
0000
0000
0000
,
1000
0100
1000
1000
,
0001
0100
0001
0001
,
1000
0010
1000
1000
,
0001
0002
0000
0000
0003
0000
0110
0000
,
0001
0010
0100
0000
0010
0000
0001
0000
,
1000
0010
0100
0000
0010
0000
1000
0000
,
0001
1000
0100
0000
1000
0001
0100
0000
,
0010
0000
0100
0000
0001
0000
1000
0100
,
0010
0100
1000
0000
0001
0000
0100
0000
,
0010
0100
0001
0000
1000
0000
0100
0000
,
0010
0001
1000
0000
0010
1000
0001
0000
,
0110
0000
0000
0100
,
0001
0010
0001
0000
1100
0000
0010
0000
,
0001
0100
0010
0000
0100
0000
0100
0000
,
0010
1000
0010
0000
1001
0000
0100
0000
,
0010
0001
0100
0000
0001
0000
0001
0000
,
1000
0010
1000
0000
0101
0000
1000
0000
,
0100
0010
0001
0000
0100
0000
0100
0000
,
0010
0100
0010
0000
1100
0000
0001
0000
,
1000
0001
0000
0000
0000
0000
1000
0000
,
0001
0010
0010
0000
1100
0000
0101
0000
,
1000
0001
0010
0000
0100
0000
0100
0000
,
1000
0100
0100
0000
1010
0000
0011
0000
,
0100
0001
0010
0000
0100
0000
0100
0000
,
1000
0001
0001
0000
0110
0000
1001
0000
,
0100
1000
0001
0000
0100
0000
0100
0000
,
0010
0100
0100
0000
1010
0000
0101
0000
,
2000
0000
0002
3003
,
1000
1000
0010
0010
,
0001
0001
0100
0100
,
1000
1000
0010
0010
,
0001
0000
0001
0000
0100
0010
0100
0000
,
0011
0001
0100
0001
,
1010
1000
0100
1000
,
0010
1000
0001
0000
0010
0001
1000
0000
,
0200
0000
0000
0300
,
1000
0000
0010
0000
0100
0001
1000
0100
,
0010
0000
0100
0000
0010
0001
0100
0000
,
0001
0000
1000
0000
0001
0010
0100
1000
,
0010
0000
0100
0000
0010
1000
0100
0000
,
0010
0000
0001
0000
1000
0010
0100
0001
,
1000
0000
0100
0000
0010
0100
1000
0000
,
0001
0000
0100
0000
0010
1000
0100
0010
,
0100
0100
0010
0100
,
0002
0000
0000
0000
,
2000
0000
0003
3001
,
0100
0010
1000
0000
0011
0000
0010
0000
,
0001
1000
0100
0000
1010
0000
0100
0000
,
1000
0100
0010
0000
1001
0000
0100
0000
,
0010
0100
1000
0000
0101
0000
0010
0000
,
1000
0100
0010
0000
0001
0100
0010
0000
,
2000
0000
0000
3000
,
0001
0001
0010
0010
,
1000
1000
0100
0100
,
0001
0001
0010
0010
,
1000
0000
1000
0000
0100
0010
0100
0000
,
1010
1000
0100
1000
,
0011
0001
0100
0001
,
0010
0001
1000
0000
0010
1000
0001
0000
,
0200
0000
0000
0300
,
0001
0000
0010
0000
0100
1000
0001
0100
,
0010
0000
0100
0000
0010
1000
0100
0000
,
1000
0000
0001
0000
1000
0010
0100
0001
,
0010
0000
0100
0000
0010
0001
0100
0000
,
0010
0000
1000
0000
0001
0010
0100
1000
,
0001
0000
0100
0000
0010
0100
0001
0000
,
1000
0000
0100
0000
0010
0001
0100
0010
,
0100
0100
0010
0100
,
0000
1000
0010
0000
0100
0001
0000
0010
,
0100
0000
1000
0002
0000
0000
0000
0000
,
0000
0000
0003
0000
,
0000
0000
0000
0000
;

//---------------dance-single - ----------------
#NOTES:
     dance-single:
     :
     Hard:
     12:
     0.539646,0.580730,0.196568,0.059825,0.094011,442.000000,419.000000,23.000000,7.000000,0.000000,0.000000,0.539646,0.580730,0.196568,0.059825,0.094011,442.000000,419.000000,23.000000,7.000000,0.000000,0.000000:
0000
0000
0000
0000
,
0000
0000
0000
0000
,
0000
0000
0000
0000
,
0000
0000
0000
0000
,
0000
0000
0000
0000
,
0001
0010
0100
0100
,
1000
0010
0100
0100
,
0001
0010
0100
0010
,
0001
1000
0000
0000
0000
0010
0110
0000
,
1000
0100
0010
0100
1000
0100
0010
0100
,
0010
0001
0100
1000
0001
0010
1000
0100
,
0010
0001
1000
0001
0010
0001
1000
0001
,
0100
0010
1000
0100
0001
1000
0010
0001
,
0100
0010
0100
0001
0100
0010
0100
0001
,
1000
0100
0010
0100
1000
0100
0010
0100
,
0010
0001
1000
0010
0100
0001
1000
0100
,
0110
0000
0000
0000
0000
0001
1000
0001
,
1000
0000
0100
0000
0100
0000
0000
0000
0011
0000
0000
1000
0100
0000
1000
0000
,
0010
1000
0001
0000
0100
0001
0010
0100
,
0010
0000
0100
0000
0100
0000
0000
0000
1001
0000
0000
0100
0010
0000
1000
0000
,
0001
0010
0100
0000
1000
0000
1000
0000
,
0001
0000
0100
0000
0100
0000
0000
0000
1010
0000
0000
0001
0100
0000
0001
0000
,
0010
0001
1000
0000
0100
1000
0010
0100
,
0010
0000
0100
0000
0100
0000
0000
0000
1001
0000
0000
0100
0010
0000
0001
0000
,
1000
1000
0000
0000
0000
0001
0001
0001
,
1000
0000
0100
0000
0100
0000
0000
0000
0011
0000
0000
1000
0010
0000
0100
0000
,
0001
1000
0100
0000
0010
0001
0100
0010
,
1000
0000
0010
0000
0010
0000
0000
0000
0101
0000
0000
1000
0001
0000
0100
0000
,
0010
1000
0100
0000
0010
0100
0010
0010
,
0001
0000
1000
0000
1000
0000
0000
0000
0110
0000
0000
0001
1000
0000
0100
0000
,
0010
0001
0100
0000
0010
0100
0001
1000
,
0001
0000
0010
0000
0010
0000
0000
0000
1100
0000
0000
0010
0100
0000
1000
0000
,
0002
0000
2000
3003
,
0001
0001
0100
0100
,
1000
1000
0010
0010
,
0001
0001
0100
0100
,
1000
0000
1000
0000
0010
0100
0010
0000
,
1100
0000
0001
0000
0010
0000
0001
0100
,
0101
0000
1000
0000
0010
0000
1000
0100
,
0110
1000
0001
0000
0110
0001
1000
0000
,
0010
0000
0000
1000
0000
0000
0001
0000
0000
0010
0000
0000
0100
0000
1000
0000
,
0001
0000
0100
0010
1000
0100
0001
0100
,
1000
0000
0001
0100
0010
0100
0001
0000
,
1000
0000
0010
1000
0001
0100
0001
0010
,
0100
0000
0000
0000
0010
0000
0001
0000
1000
0000
0000
0010
0100
0000
0001
0000
,
0100
0000
0010
1000
0001
0010
1000
0010
,
0001
0000
1000
0010
0100
0010
1000
0000
,
0001
0000
0010
0001
0100
0010
1000
0100
,
0010
0000
0000
0010
0000
0000
0010
0000
0000
0010
0100
0000
0010
0000
0001
0000
,
2000
0000
0000
0000
,
0002
0000
3000
1003
,
0010
0000
0100
0000
0001
0000
0000
0000
1100
0000
0000
0010
0100
0000
0010
0000
,
0001
0000
1000
0000
0010
0000
0000
0000
0101
0000
0000
1000
0010
0000
1000
0000
,
0001
0000
0010
0000
0100
0000
0000
0000
1001
0000
0000
0100
0010
0000
1000
0000
,
0100
0000
0010
0000
0001
0000
0000
0000
1010
0000
0000
0100
0001
0000
1000
0000
,
0100
0010
0001
0100
0010
1000
0100
0010
,
0002
0000
0000
0003
,
1000
1000
0100
0100
,
0001
0001
0010
0010
,
1000
1000
0100
0100
,
0001
0000
0001
0000
0010
0100
0010
0000
,
0101
0000
1000
0000
0010
0000
1000
0100
,
1100
0000
0001
0000
0010
0000
0001
0100
,
0110
0001
1000
0000
0110
1000
0001
0000
,
0010
0000
0000
0001
0000
0000
1000
0000
0000
0010
0000
0000
0100
0000
0001
0000
,
1000
0000
0100
0010
0001
0100
1000
0100
,
0001
0000
1000
0100
0010
0100
1000
0000
,
0001
0000
0010
0001
1000
0100
1000
0010
,
0100
0000
0000
0000
0010
0000
1000
0000
0001
0000
0000
0010
0100
0000
1000
0000
,
0100
0000
0010
0001
1000
0010
0001
0010
,
1000
0000
0001
0010
0100
0010
0001
0100
,
0010
1000
0010
1000
0100
0010
0001
0100
,
0010
0000
0000
0010
0000
0000
0010
0000
0000
0010
0100
0000
0010
0000
1000
0000
,
0001
0100
0100
0010
0100
0100
1000
0100
,
0100
0010
0100
2002
0000
0000
0000
0000
,
0000
0000
3003
0000
,
0000
0000
0000
0000
;

//---------------dance-single - ----------------
#NOTES:
     dance-single:
     :
     Challenge:
     10:
     0.346741,0.387153,0.076918,0.102557,0.000000,284.000000,275.000000,9.000000,12.000000,184.000000,0.000000,0.346741,0.387153,0.076918,0.102557,0.000000,284.000000,275.000000,9.000000,12.000000,184.000000,0.000000:
0000
0000
0000
0000
,
0000
0000
0000
0000
,
0000
0000
0000
0000
,
0000
0000
0000
0000
,
0000
0000
0000
0000
,
0001
0100
0001
0001
,
1000
0100
1000
1000
,
0001
0010
0001
0001
,
2000
0002
0000
0000
3003
0000
MMMM
0000
,
1000
MMMM
0100
0000
0010
0000
1000
0000
,
0001
MMMM
0100
0000
0010
0000
0001
0000
,
1000
MMMM
0100
0000
0001
MMMM
0100
0000
,
0010
0000
0100
0000
1000
0000
0001
0100
,
0010
MMMM
0001
0000
1000
0000
0100
0000
,
0010
MMMM
1000
0000
0001
0000
0100
0000
,
0010
MMMM
0001
0000
0010
MMMM
1000
0000
,
0110
0000
0000
0100
,
1000
0010
1000
0000
MMMM
0000
0010
0000
,
1000
0100
0010
0000
0100
0000
0100
0000
,
0010
0001
0010
0000
MMMM
0000
0100
0000
,
0010
1000
0100
0000
1000
0000
1000
0000
,
0001
0010
0001
0000
MMMM
0000
0001
0000
,
0100
0010
1000
0000
0100
0000
0100
0000
,
0010
0100
0010
0000
MMMM
0000
1000
0000
,
0002
2000
0000
0000
3003
0000
MMMM
0000
,
1000
0010
0010
0000
0101
0000
MMMM
0000
,
0001
1000
0010
0000
0100
0000
0100
0000
,
0001
0100
0100
0000
0011
0000
MMMM
0000
,
0100
1000
0010
0000
0100
0000
0100
0000
,
0001
1000
1000
0000
0110
0000
MMMM
0000
,
0100
0001
1000
0000
0100
0000
0100
0000
,
0010
0100
0100
0000
0011
0000
MMMM
0000
,
0002
0000
2000
3003
,
0001
0001
0010
0010
,
1000
1000
0100
0100
,
0001
0001
0010
0010
,
1000
0000
1000
0000
0100
MMMM
0100
0000
,
1010
1000
0100
1000
,
0011
0001
0100
0001
,
0010
MMMM
1000
0000
0010
MMMM
0001
0000
,
0200
0000
0000
0300
,
0001
0000
0010
0000
0100
1000
MMMM
0100
,
0010
0000
0100
0000
0010
MMMM
0100
0000
,
1000
0000
0001
0000
1000
0010
MMMM
0001
,
0010
0000
0100
0000
0010
MMMM
0100
0000
,
0010
0000
1000
0000
0001
0010
MMMM
1000
,
0001
0000
0100
0000
0010
MMMM
0001
0000
,
1000
0000
0100
0000
0010
0001
MMMM
0010
,
0100
0100
0010
0100
,
2000
0000
0000
0000
,
0002
0000
3000
1003
,
0100
0010
0001
0000
MMMM
0000
0010
0000
,
1000
0001
0100
0000
MMMM
0000
0100
0000
,
0001
0100
0010
0000
MMMM
0000
0100
0000
,
0010
0100
0001
0000
MMMM
0000
0010
0000
,
0001
0100
0010
0000
1000
0100
0010
0000
,
0002
0000
0000
0003
,
1000
1000
0010
0010
,
0001
0001
0100
0100
,
1000
1000
0010
0010
,
0001
0000
0001
0000
0100
MMMM
0100
0000
,
0011
0001
0100
0001
,
1010
1000
0100
1000
,
0010
MMMM
0001
0000
0010
MMMM
1000
0000
,
0200
0000
0000
0300
,
1000
0000
0010
0000
0100
0001
MMMM
0100
,
0010
0000
0100
0000
0010
MMMM
0100
0000
,
0001
0000
1000
0000
0001
0010
MMMM
1000
,
0010
0000
0100
0000
0010
MMMM
0100
0000
,
0010
0000
0001
0000
1000
0010
MMMM
0001
,
1000
0000
0100
0000
0010
MMMM
1000
0000
,
0001
0000
0100
0000
0010
1000
MMMM
0010
,
0100
0100
0010
0100
,
MMMM
0010
0010
MMMM
1000
1000
MMMM
0100
,
0100
MMMM
1000
0002
0000
0000
0000
0000
,
0000
0000
0003
0000
,
0000
0000
0000
0000
;

//---------------dance-double - ----------------
#NOTES:
     dance-double:
     :
     Easy:
     6:
     0.301567,0.354890,0.162382,0.094011,0.000000,247.000000,228.000000,19.000000,11.000000,0.000000,0.000000,0.301567,0.354890,0.162382,0.094011,0.000000,247.000000,228.000000,19.000000,11.000000,0.000000,0.000000:
00000000
00000000
00000000
00000000
,
00000000
00000000
00000000
00000000
,
00000000
00000000
00000000
00000000
,
00000000
00000000
00000000
00000000
,
00000000
00000000
00000000
00000000
,
00001000
00000000
00000100
00000000
,
00000001
00000000
00000100
00000000
,
00001000
00000000
00010000
00000000
,
00001000
00002000
00000000
00000000
00003000
00000000
00011000
00000000
,
00010000
01000000
10000000
00100000
,
01000000
00100000
01000000
00100000
,
00010000
00001000
00000100
00000001
,
00000010
00000001
00000010
00000100
,
00001000
00000001
00000100
00001000
,
00010000
00100000
10000000
01000000
,
00100000
00010000
00100000
10000000
,
01100000
00000000
00000000
01000000
,
00010000
00001000
00011000
00000010
,
00000001
00000010
00000100
00000100
,
00001000
00000010
00000101
00000100
,
00001000
00010000
00001000
00001000
,
00100000
00010000
01100000
01000000
,
10000000
00010000
01000000
01000000
,
00100000
01000000
00011000
00000100
,
00000010
00000010
00000000
00000000
00000000
00000000
00000100
00000000
,
00000001
00000010
00001000
00010000
,
00100000
10000000
00100000
00010000
,
00100000
10000000
00010000
01000000
,
00001000
00100000
00010000
00001000
,
00000100
00000010
00000100
00001000
,
00000001
00001000
00000010
00000100
,
00001000
00010000
00100000
10000000
,
02200000
00000000
00000000
03300000
,
00000000
10000000
00000000
10000000
,
00000000
00010000
00000000
00010000
,
00000000
00001000
00000000
00001000
,
00000000
00000001
00000000
00000001
,
00000110
00000000
00000001
00001000
,
00001001
00000000
00000100
00000010
,
00001010
00000000
00010100
00000000
,
00022000
00000000
00000000
00033000
,
00010000
01000000
10000000
00100000
,
01000000
00001000
00010000
00000010
,
00001000
00000001
00000010
00000100
,
00000001
00000100
00001000
00000100
,
00000010
00000001
00000100
00001000
,
00010000
01000000
10000000
00100000
,
01000000
00010000
00100000
00001000
,
00010000
00010000
00010000
00010000
,
00000200
00000000
00000000
00000000
,
00000020
00000000
00000000
00000330
,
00000100
00001000
00000101
00001000
,
00010000
00100000
10000000
00010000
,
00100000
01000000
10010000
01000000
,
00100000
10000000
01000000
00010000
,
00001000
00000010
00000001
00000100
,
00000020
00000000
00000000
00000030
,
00000000
00000001
00000000
00000001
,
00000000
00001000
00000000
00001000
,
00000000
00010000
00000000
00010000
,
00000000
10000000
00000000
10000000
,
01100000
00000000
10000000
00010000
,
10010000
00000000
01000000
00100000
,
00110000
00000000
01001000
00000000
,
00022000
00000000
00000000
00033000
,
00001000
00000100
00000001
00000010
,
00000100
00010000
00001000
00100000
,
00010000
10000000
00100000
01000000
,
10000000
01000000
00010000
01000000
,
00100000
10000000
01000000
00010000
,
00001000
00000100
00000001
00000010
,
00000100
00001000
00000010
00010000
,
00001000
00001000
00001000
00001000
,
00000000
01000000
01000000
00000000
00010000
00010000
00000000
10000000
,
10000000
00000000
00100000
00200000
00000000
00000000
00000000
00000000
,
00000000
00000000
00300000
00000000
,
00000000
00000000
00000000
00000000
;

//---------------dance-double - ----------------
#NOTES:
     dance-double:
     :
     Medium:
     9:
     0.400461,0.419416,0.102557,0.119650,0.000000,328.000000,316.000000,12.000000,14.000000,0.000000,0.000000,0.400461,0.419416,0.102557,0.119650,0.000000,328.000000,316.000000,12.000000,14.000000,0.000000,0.000000:
00000000
00000000
00000000
00000000
,
00000000
00000000
00000000
00000000
,
00000000
00000000
00000000
00000000
,
00000000
00000000
00000000
00000000
,
00000000
00000000
00000000
00000000
,
10000000
01000000
10000000
00100000
,
01000000
00010000
01000000
00100000
,
00010000
00001000
00000100
00000001
,
00002000
00000002
00000000
00000000
00003003
00000000
00000110
00000000
,
00000001
00000010
00000100
00000000
00001000
00000000
00000010
00000000
,
00000001
00000100
00001000
00000000
00010000
00000000
01000000
00000000
,
00100000
00010000
01000000
00000000
00100000
10000000
01000000
00000000
,
00100000
00001000
00000010
00000100
,
00001000
00000001
00000100
00000000
00000010
00000000
00000100
00000000
,
00000001
00001000
00000100
00000000
00000010
00000000
00000100
00000000
,
00010000
00001000
01000000
00000000
00010000
00100000
01000000
00000000
,
10010000
00000000
00000000
01000000
,
00010000
00100000
00010000
00000000
11000000
00000000
00010000
00000000
,
01000000
00100000
00010000
00000000
00001000
00000000
00001000
00000000
,
00000010
00000001
00001000
00000000
00000110
00000000
00000001
00000000
,
00000100
00001000
00010000
00000000
00001000
00000000
00001000
00000000
,
00010000
01000000
00100000
00000000
00110000
00000000
10000000
00000000
,
00100000
10000000
01000000
00000000
10000000
00000000
10000000
00000000
,
01000000
00010000
00001000
00000000
00011000
00000000
00000010
00000000
,
00000001
00001000
00000000
00000000
00000000
00000000
00000100
00000000
,
00000001
00000010
00000200
00000000
00000010
00000000
00010300
00000000
,
00001000
01000000
00100000
00000000
01000000
00000000
01000000
00000000
,
00010000
10000000
00200000
00000000
01000000
00000000
10300000
00000000
,
01000000
00010000
00100000
00000000
11000000
00000000
01010000
00000000
,
00100000
00010000
02000000
00000000
00100000
00000000
03001000
00000000
,
00010000
00001000
00000010
00000000
00000001
00000000
00000001
00000000
,
00001000
00000010
00000200
00000000
00001000
00000000
00000310
00000000
,
00002000
00000000
00000002
00003003
,
00000010
00000010
00000001
00000001
,
00000100
00000100
00001000
00001000
,
00010000
00010000
01000000
01000000
,
10000000
00000000
10000000
00000000
00100000
01000000
00100000
00000000
,
10010000
10000000
01000000
00010000
,
00011000
00001000
00000010
00000001
,
00001000
00000010
00000100
00000000
00000001
00000010
00000100
00000000
,
00000020
00000000
00000000
00000030
,
00000001
00000000
00000100
00000000
00000010
00010000
00001000
01000000
,
00010000
00000000
10000000
00000000
01000000
00100000
00010000
00000000
,
10000000
00000000
00100000
00000000
01000000
00100000
00010000
00001000
,
00000100
00000000
00000010
00000000
00001000
00000001
00000010
00000000
,
00000100
00000000
00010000
00000000
00001000
00000010
00000001
00000100
,
00000010
00000000
00010000
00000000
00001000
00100000
01000000
00000000
,
10000000
00000000
00100000
00000000
01000000
00100000
00010000
00001000
,
00010000
00001000
00000010
00000001
,
00002000
00000000
00000000
00000000
,
00000002
00000000
00003000
00001003
,
00000001
00000100
00001000
00000000
00010000
00000000
00100000
00000000
,
10000000
01000000
00100000
00000000
00010000
00000000
01000000
00000000
,
00100000
00010000
00001000
00000000
00000010
00000000
00000001
00000000
,
00001000
00000100
00000010
00000000
00000100
00000000
00001000
00000000
,
00000001
00000100
00001000
00000000
00010000
01000000
10000000
00000000
,
00020000
00000000
00000000
00030000
,
00100000
00100000
10000000
10000000
,
01000000
01000000
00010000
00010000
,
00001000
00001000
00000100
00000100
,
00000001
00000000
00000001
00000000
00000010
00000100
00000010
00000000
,
00001001
00000001
00000100
00001000
,
00011000
00010000
00100000
10000000
,
00010000
00100000
01000000
00000000
10000000
00100000
01000000
00000000
,
00200000
00000000
00000000
00300000
,
10000000
00000000
01000000
00000000
00100000
00001000
00010000
00000100
,
00001000
00000000
00000001
00000000
00000100
00000010
00001000
00000000
,
00000001
00000000
00000010
00000000
00000100
00000010
00001000
00010000
,
01000000
00000000
00100000
00000000
00010000
10000000
00100000
00000000
,
01000000
00000000
00001000
00000000
00010000
00100000
10000000
01000000
,
00100000
00000000
00001000
00000000
00010000
00000010
00000100
00000000
,
00000001
00000000
00000010
00000000
00000100
00000010
00001000
00010000
,
00001000
00010000
00100000
10000000
,
00000000
00010000
01000000
00000000
00001000
00010000
00000000
00000100
,
00000010
00000000
00000001
00002000
00000000
00000000
00000000
00000000
,
00000000
00000000
00003000
00000000
,
00000000
00000000
00000000
00000000
;

//---------------dance-double - ----------------
#NOTES:
     dance-double:
     :
     Hard:
     12:
     0.535983,0.580730,0.196568,0.076918,0.094011,439.000000,416.000000,23.000000,9.000000,0.000000,0.000000,0.535983,0.580730,0.196568,0.076918,0.094011,439.000000,416.000000,23.000000,9.000000,0.000000,0.000000:
00000000
00000000
00000000
00000000
,
00000000
00000000
00000000
00000000
,
00000000
00000000
00000000
00000000
,
00000000
00000000
00000000
00000000
,
00000000
00000000
00000000
00000000
,
00001000
00000010
00000100
00000100
,
00000001
00000010
00000100
00000100
,
00001000
00000010
00000100
00001000
,
00020000
00002000
00000000
00000000
00033000
00000000
00011000
00000000
,
00100000
10000000
00010000
10000000
00100000
10000000
00010000
10000000
,
00100000
10000000
01000000
00010000
00001000
00000010
00000001
00001000
,
00000010
00000100
00000001
00000100
00000010
00000100
00000001
00000100
,
00000010
00001000
00000100
00000010
00000001
00000100
00001000
00010000
,
00001000
00100000
00010000
00100000
00001000
00100000
00010000
00100000
,
00001000
01000000
00010000
01000000
00001000
01000000
00010000
01000000
,
00100000
10000000
00010000
00100000
01000000
00010000
00001000
00010000
,
00011000
00000000
00000000
00000000
00000000
00000010
00000010
00000010
,
00001000
00000000
00000001
00000000
00000100
00000000
00000000
00000000
00001010
00000000
00000000
00000001
00000010
00000000
00000001
00000000
,
00001000
00000100
00000010
00000000
00000100
00010000
00001000
00100000
,
00010000
00000000
01000000
00000000
00100000
00000000
00000000
00000000
10010000
00000000
00000000
01000000
00100000
00000000
10000000
00000000
,
00010000
00100000
01000000
00000000
10000000
00000000
10000000
00000000
,
00100000
00000000
10000000
00000000
01000000
00000000
00000000
00000000
01010000
00000000
00000000
00100000
00001000
00000000
00010000
00000000
,
00000010
00001000
00000001
00000000
00000100
00000001
00000010
00001000
,
00000010
00000000
00000001
00000000
00000100
00000000
00000000
00000000
00001010
00000000
00000000
00000100
00000010
00000000
00001000
00000000
,
00000001
00000001
00000000
00000000
00000000
00001000
00001000
00001000
,
00000001
00000000
00000100
00000000
00001000
00000000
00000000
00000000
00011000
00000000
00000000
00100000
10000000
00000000
00010000
00000000
,
00100000
01000000
10000000
00000000
00100000
10000000
00010000
01000000
,
00100000
00000000
00010000
00000000
00001000
00000000
00000000
00000000
00001100
00000000
00000000
00000010
00000100
00000000
00001000
00000000
,
00000010
00000100
00000001
00000000
00000010
00000100
00000010
00000100
,
00001000
00000000
00000001
00000000
00000100
00000000
00000000
00000000
00001100
00000000
00000000
00010000
00001000
00000000
00100000
00000000
,
00010000
01000000
00100000
00000000
10000000
01000000
00010000
01000000
,
10000000
00000000
00100000
00000000
01000000
00000000
00000000
00000000
10010000
00000000
00000000
01000000
00010000
00000000
00001000
00000000
,
00000020
00000000
00000002
00000033
,
00001000
00001000
00000010
00000010
,
00000100
00000100
00000001
00000001
,
00001000
00001000
00010000
00010000
,
10000000
00000000
10000000
00000000
00100000
01000000
00100000
00000000
,
10010000
00000000
01000000
00000000
00100000
10000000
01000000
00000000
,
01100000
00000000
00010000
00000000
10000000
01000000
00010000
00000000
,
01100000
00010000
00001000
00000000
00010010
00001000
00010000
00000000
,
00000100
00000000
00000000
00000001
00000000
00000000
00001000
00000000
00000000
00000010
00000000
00000000
00000100
00000000
00000001
00000000
,
00001000
00000000
00000100
00000010
00000001
00000100
00001000
00010000
,
00100000
00000000
10000000
00010000
00100000
01000000
00100000
00000000
,
00010000
00000000
10000000
01000000
00010000
00001000
00000010
00000001
,
00001000
00000000
00000000
00000000
00000010
00000000
00001000
00000000
00000001
00000000
00000000
00000010
00000100
00000000
00010000
00000000
,
00000010
00000000
00000100
00001000
00010000
00100000
01000000
00010000
,
00100000
00000000
00010000
10000000
00100000
01000000
00010000
00000000
,
10000000
00000000
01000000
00010000
00001000
00000010
00000001
00000100
,
00000010
00000000
00000000
00000010
00000000
00000000
00000010
00000000
00000000
00001000
00000001
00000000
00000010
00000000
00000100
00000000
,
00002000
00000000
00000000
00000000
,
00000002
00000000
00003000
00001003
,
00000010
00000000
00010000
00000000
00000100
00000000
00000000
00000000
00011000
00000000
00000000
00100000
00010000
00000000
10000000
00000000
,
01000000
00000000
00100000
00000000
00010000
00000000
00000000
00000000
10100000
00000000
00000000
01000000
00001000
00000000
00100000
00000000
,
01000000
00000000
00010000
00000000
00001000
00000000
00000000
00000000
00001100
00000000
00000000
00000010
00000100
00000000
00001000
00000000
,
00000010
00000000
00000100
00000000
00000010
00000000
00000000
00000000
00001001
00000000
00000000
00000100
00001000
00000000
00000010
00000000
,
00000100
00000010
00000100
00001000
00010000
01000000
10000000
00100000
,
02000000
00000000
00000000
03000000
,
00010000
00010000
00100000
00100000
,
01000000
01000000
10000000
10000000
,
00010000
00010000
00001000
00001000
,
00000001
00000000
00000001
00000000
00000010
00000100
00000010
00000000
,
00001001
00000000
00000100
00000000
00000010
00000001
00000100
00000000
,
00000110
00000000
00001000
00000000
00000001
00000100
00001000
00000000
,
00000110
00001000
00010000
00000000
00101000
00010000
00001000
00000000
,
01000000
00000000
00000000
10000000
00000000
00000000
00010000
00000000
00000000
00100000
00000000
00000000
01000000
00000000
10000000
00000000
,
00010000
00000000
01000000
00100000
10000000
01000000
00010000
00001000
,
00000010
00000000
00000001
00001000
00000010
00000100
00000010
00000000
,
00001000
00000000
00000001
00000100
00001000
00010000
00100000
10000000
,
00010000
00000000
00000000
00000000
00100000
00000000
00010000
00000000
10000000
00000000
00000000
00100000
01000000
00000000
00001000
00000000
,
00100000
00000000
01000000
00010000
00001000
00000010
00000100
00001000
,
00000010
00000000
00001000
00000001
00000010
00000100
00001000
00000000
,
00000001
00000000
00000100
00001000
00010000
00100000
10000000
01000000
,
00100000
00000000
00000000
00100000
00000000
00000000
00100000
00000000
00000000
00010000
10000000
00000000
00100000
00000000
01000000
00000000
,
00001000
00010000
00010000
00000010
00001000
00001000
00000100
00000010
,
00000010
00000001
00000100
00000220
00000000
00000000
00000000
00000000
,
00000000
00000000
00000330
00000000
,
00000000
00000000
00000000
00000000
;

//---------------dance-double - ----------------
#NOTES:
     dance-double:
     :
     Challenge:
     11:
     0.344299,0.387153,0.059825,0.119650,0.000000,282.000000,275.000000,7.000000,14.000000,360.000000,0.000000,0.344299,0.387153,0.059825,0.119650,0.000000,282.000000,275.000000,7.000000,14.000000,360.000000,0.000000:
00000000
00000000
00000000
00000000
,
00000000
00000000
00000000
00000000
,
00000000
00000000
00000000
00000000
,
00000000
00000000
00000000
00000000
,
00000000
00000000
00000000
00000000
,
00000001
00000100
00000001
00000010
,
00000100
00001000
00000100
00000010
,
00001000
00010000
01000000
10000000
,
00020000
20000000
00000000
00000000
30030000
00000000
MMMMMMMM
00000000
,
10000000
MMMMMMMM
01000000
00000000
00010000
00000000
00100000
00000000
,
10000000
MMMMMMMM
00010000
00000000
00001000
00000000
00000100
00000000
,
00000010
MMMMMMMM
00000100
00000000
00000010
MMMMMMMM
00000100
00000000
,
00000010
00010000
00100000
01000000
,
00010000
MMMMMMMM
01000000
00000000
00100000
00000000
01000000
00000000
,
10000000
MMMMMMMM
01000000
00000000
00100000
00000000
01000000
00000000
,
00001000
MMMMMMMM
00000100
00000000
00001000
MMMMMMMM
00000100
00000000
,
00001001
00000000
00000000
00000100
,
00001000
00000010
00001000
00000000
MMMMMMMM
00000000
00001000
00000000
,
00000100
00000010
00001000
00000000
00010000
00000000
00010000
00000000
,
00100000
10000000
00010000
00000000
MMMMMMMM
00000000
10000000
00000000
,
01000000
00010000
00001000
00000000
00010000
00000000
00010000
00000000
,
00001000
00000100
00000010
00000000
MMMMMMMM
00000000
00000001
00000000
,
00000010
00000001
00000100
00000000
00000001
00000000
00000001
00000000
,
00000100
00001000
00010000
00000000
MMMMMMMM
00000000
00100000
00000000
,
10000000
00010000
00000000
00000000
00000000
00000000
01000000
00000000
,
10000000
MMMMMMMM
02000000
00000000
00100000
00000000
03001000
00000000
,
00010000
00000100
00000010
00000000
00000100
00000000
00000100
00000000
,
00001000
MMMMMMMM
00000020
00000000
00000100
00000000
00000031
00000000
,
00000100
00001000
00000010
00000000
00000101
00000000
00001100
00000000
,
00000010
MMMMMMMM
00000200
00000000
00000010
00000000
00010300
00000000
,
00001000
00010000
00100000
00000000
10000000
00000000
10000000
00000000
,
00010000
MMMMMMMM
02000000
00000000
00010000
00000000
03100000
00000000
,
00020000
00000000
20000000
30030000
,
00100000
00100000
10000000
10000000
,
01000000
01000000
00010000
00010000
,
00001000
00001000
00000100
00000100
,
00000001
00000000
00000001
00000000
00000010
MMMMMMMM
00000010
00000000
,
00001001
00000001
00000100
00001000
,
00011000
00010000
00100000
10000000
,
00010000
MMMMMMMM
01000000
00000000
10000000
MMMMMMMM
01000000
00000000
,
00200000
00000000
00000000
00300000
,
10000000
00000000
01000000
00000000
00100000
00001000
MMMMMMMM
00000100
,
00001000
00000000
00000001
00000000
MMMMMMMM
00000010
00001000
00000000
,
00000001
00000000
00000010
00000000
00000100
00000010
MMMMMMMM
00010000
,
01000000
00000000
00100000
00000000
MMMMMMMM
10000000
00100000
00000000
,
01000000
00000000
00001000
00000000
00010000
00100000
MMMMMMMM
01000000
,
00100000
00000000
00001000
00000000
MMMMMMMM
00000010
00000100
00000000
,
00000001
00000000
00000010
00000000
00000100
00000010
MMMMMMMM
00010000
,
00001000
00010000
00100000
10000000
,
00020000
00000000
00000000
00000000
,
20000000
00000000
00030000
30010000
,
10000000
01000000
00010000
00000000
00001000
00000000
MMMMMMMM
00000000
,
00000001
00000100
00000010
00000000
00001000
00000000
MMMMMMMM
00000000
,
00000010
00001000
00010000
00000000
00100000
00000000
MMMMMMMM
00000000
,
00010000
01000000
00100000
00000000
01000000
00000000
MMMMMMMM
00000000
,
10000000
01000000
00010000
00000000
00001000
00000100
00000001
00000000
,
00002000
00000000
00000000
00003000
,
00000010
00000010
00000001
00000001
,
00000100
00000100
00001000
00001000
,
00010000
00010000
01000000
01000000
,
10000000
00000000
10000000
00000000
00100000
MMMMMMMM
00100000
00000000
,
10010000
10000000
01000000
00010000
,
00011000
00001000
00000010
00000001
,
00001000
MMMMMMMM
00000100
00000000
00000001
MMMMMMMM
00000100
00000000
,
00000020
00000000
00000000
00000030
,
00000001
00000000
00000100
00000000
00000010
00010000
MMMMMMMM
01000000
,
00010000
00000000
10000000
00000000
MMMMMMMM
00100000
00010000
00000000
,
10000000
00000000
00100000
00000000
01000000
00100000
MMMMMMMM
00001000
,
00000100
00000000
00000010
00000000
MMMMMMMM
00000001
00000010
00000000
,
00000100
00000000
00010000
00000000
00001000
00000010
MMMMMMMM
00000100
,
00000010
00000000
00010000
00000000
MMMMMMMM
00100000
01000000
00000000
,
10000000
00000000
00100000
00000000
01000000
00100000
MMMMMMMM
00001000
,
00010000
00001000
00000010
00000001
,
MMMMMMMM
00000100
00000100
MMMMMMMM
00001000
00001000
MMMMMMMM
00010000
,
00010000
MMMMMMMM
01000000
00200000
00000000
00000000
00000000
00000000
,
00000000
00000000
00300000
00000000
,
00000000
00000000
00000000
00000000
;

//---------------dance-single - ----------------
#NOTES:
     dance-single:
     :
     Edit:
     18:
     0.974292,1.096934,0.606796,0.256393,1.294783,798.000000,727.000000,71.000000,30.000000,72.000000,0.000000,0.974292,1.096934,0.606796,0.256393,1.294783,798.000000,727.000000,71.000000,30.000000,72.000000,0.000000:
// measure 0
0000
0000
0000
0000
,  // measure 1
0000
0000
0000
0000
,  // measure 2
0000
0000
0000
0000
,  // measure 3
0000
0000
0000
0000
,  // measure 4
0000
0000
0000
0000
,  // measure 5
1001
0000
0010
1000
0001
0000
0100
0000
1001
0000
0100
0001
1000
0000
0001
0000
,  // measure 6
0110
0000
1000
0010
0001
0000
0100
0010
0001
0000
0010
0100
1000
0100
0010
0000
,  // measure 7
0001
0100
0010
1000
0001
0010
0100
1000
0100
0010
0001
0100
0010
1000
0010
0100
,  // measure 8
0001
2002
0000
0000
3003
1000
1001
0000
,  // measure 9
0100
0000
0010
1000
0100
0000
0010
0000
0001
0100
0010
0000
MMMM
0000
0010
0001
,  // measure 10
0200
0000
0000
0000
1000
0000
1300
0000
MMMM
0001
0100
0000
0010
0000
1000
0000
,  // measure 11
0010
0000
1000
0100
0010
0000
0001
0000
0100
0010
0001
0000
MMMM
0000
0010
0001
,  // measure 12
0200
0000
0000
0000
0001
0000
0301
0000
MMMM
0100
0010
0000
1000
0000
0001
0000
,  // measure 13
0100
0000
0010
1000
0100
0000
0010
0000
0001
0100
0010
0000
MMMM
0000
1000
0100
,  // measure 14
0020
0000
0000
0000
0100
0000
0130
0000
MMMM
0100
0010
0000
0001
0000
0100
0000
,  // measure 15
1000
0100
1000
0100
0001
0010
0001
0010
0100
0001
0100
0001
0010
1000
0010
1000
,  // measure 16
0002
0000
0000
0000
1000
0000
1003
0000
MMMM
0001
0010
0000
0100
0000
1000
0000
,  // measure 17
0010
0000
0001
0010
0100
0000
1000
0010
0100
0000
0001
0010
0000
0000
1010
0000
,  // measure 18
0000
0000
1100
0000
0000
MMMM
0000
0000
1000
0100
0010
0001
0100
0010
1000
0100
,  // measure 19
0010
0000
0001
0010
0100
0000
1000
0010
0100
0000
0001
0010
0000
0000
1010
0000
,  // measure 20
0000
0011
0000
0001
0100
0010
1000
0100
,  // measure 21
0010
0000
0001
0100
0010
0000
1000
0010
0100
0000
0001
0010
0000
0000
1010
0000
,  // measure 22
0000
0000
0011
0000
0000
MMMM
0000
0000
0001
0100
1000
0100
0001
0010
1000
0100
,  // measure 23
0010
0000
0001
0100
0010
0000
1000
0010
0100
0000
0001
1000
0000
0000
1001
0000
,  // measure 24
1010
0220
0000
0330
MMMM
0101
1100
0000
,  // measure 25
1001
0000
1000
0100
0001
0000
0001
0000
0101
0000
0001
0100
1000
0000
2000
0000
,  // measure 26
0000
0000
3001
0000
0000
MMMM
0000
0000
1000
0010
0001
0010
0100
0001
1000
0001
,  // measure 27
0010
0000
0100
0010
1000
0000
0010
0100
0001
0000
0010
1000
0000
0000
1100
0000
,  // measure 28
0000
0000
0101
0000
0000
0000
0100
0001
0100
1000
0100
0001
0010
1000
0010
0001
,  // measure 29
0010
0000
1000
0010
0100
0000
0001
0010
1000
0000
0100
0010
0000
0000
1001
0000
,  // measure 30
0000
0000
0110
0000
0000
MMMM
0000
0000
0010
0001
0100
0010
1000
0100
0010
0001
,  // measure 31
0100
0000
0010
1000
0100
0000
0010
0001
0100
0000
0010
1000
0000
0000
0101
0000
,  // measure 32
0000
0000
1010
0000
0000
MMMM
0000
0000
1000
0100
1000
0100
0010
0001
0100
0000
,  // measure 33
0001
0000
0002
0000
0103
0000
0200
1300
0000
1000
0000
1000
0001
1000
0100
1000
,  // measure 34
0010
0000
0020
0000
1030
0000
2000
3001
0000
0001
0000
0001
0100
0001
1000
0001
,  // measure 35
0010
0000
0020
0000
0031
0000
0002
0103
0000
0100
0000
0100
0001
0100
0010
0100
,  // measure 36
1000
0010
0001
0010
0100
0001
0010
0001
0000
0001
0000
0001
0010
0001
1000
0001
,  // measure 37
0100
0000
1100
0101
MMMM
0101
1100
0000
,  // measure 38
1000
0000
1010
0011
MMMM
0011
1010
0000
,  // measure 39
1100
1010
1100
0000
0011
0101
0011
0000
,  // measure 40
1010
0000
0000
0011
0000
0000
0101
0000
0000
1100
0000
0000
0110
0000
1001
0000
,  // measure 41
0100
0010
1000
0100
0010
0001
0100
0010
1000
0100
0000
0001
0100
0010
0001
0010
,  // measure 42
0000
0000
0010
0100
0001
0010
0100
1000
0001
0100
0000
0001
0100
0010
1000
0100
,  // measure 43
0000
0000
0010
0001
0100
0010
1000
0100
0010
0001
0000
0100
0010
1000
0100
0001
,  // measure 44
0000
0010
0001
0100
0010
1000
0100
0010
0001
0100
0000
0001
0100
0010
1000
0100
,  // measure 45
0010
0001
1000
0001
0100
0010
1000
0100
0010
0001
0000
0010
0001
0100
0010
1000
,  // measure 46
0000
0010
0100
1000
0100
0010
0001
0100
0010
1000
0000
0100
0010
1000
0100
0010
,  // measure 47
0001
0100
0010
1000
0100
0010
0001
0100
0010
1000
0100
0010
0001
0100
0010
1000
,  // measure 48
0200
0000
0000
2300
0000
0000
3020
0000
0000
0032
0000
0000
0103
0000
0101
0000
,  // measure 49
0010
0000
0001
0010
0100
1000
0100
0010
0011
0000
0000
1001
0000
0000
0101
0000
,  // measure 50
0100
0000
0010
1000
0010
0001
0100
0010
2000
0000
0000
0000
3100
0010
0100
0010
,  // measure 51
0100
0000
0010
0100
0001
0000
0010
0001
2000
0000
0000
3200
0000
0000
0301
0000
,  // measure 52
0010
0000
0001
0100
0010
0000
1000
0100
0020
0000
0000
0032
0000
0000
0103
0000
,  // measure 53
0010
0000
0001
0100
0010
0000
1000
0100
0110
0000
0000
1010
0000
0000
1100
0000
,  // measure 54
0100
0000
0010
0001
0100
0000
1000
0001
1001
0000
0000
0101
0000
0000
0011
0000
,  // measure 55
0001
0100
0010
1000
0001
0100
0010
1000
0001
0010
0100
1000
0001
0010
0100
1000
,  // measure 56
0020
0000
0000
0200
0330
0000
MMMM
0000
,  // measure 57
0100
0010
0001
0010
0100
0010
0001
0010
0000
0100
0010
1000
0100
0010
0001
0010
,  // measure 58
1000
0100
0010
0100
1000
0100
0010
0001
0000
0100
0010
0001
0100
0010
1000
0100
,  // measure 59
0010
0001
0100
0010
0001
0010
0100
1000
0000
0010
0100
0001
0010
0100
1000
0010
,  // measure 60
0100
0001
0010
1000
0100
0010
0001
0100
0010
0000
0100
1000
0001
0010
0100
0000
,  // measure 61
2000
0000
0000
0000
0000
0000
0000
0000
3000
0000
MMMM
0000
1000
0100
0010
0100
,  // measure 62
0002
0000
0000
0000
0000
0000
0000
0000
0003
0000
MMMM
0000
0001
0010
0100
0000
,  // measure 63
0110
1001
0110
0000
1001
0110
1001
0000
,  // measure 64
1010
0000
0000
0101
0000
0000
0011
0000
0000
1100
0000
0000
1001
0000
0110
0000
,  // measure 65
0000
1000
0001
1000
0100
0010
0001
0100
0010
1000
0000
0100
0010
1000
0100
0010
,  // measure 66
0000
0001
0010
0001
0100
0010
1000
0100
0010
0001
0000
0100
0010
0001
0100
0010
,  // measure 67
0000
0100
0010
1000
0100
0010
0001
0100
0010
1000
0000
0010
0100
0001
0010
0001
,  // measure 68
0000
0100
0010
1000
0100
0010
0001
0100
0010
1000
0000
0010
0001
0100
0010
1000
,  // measure 69
0100
0010
0001
0100
0010
1000
0100
0010
0001
0100
0010
1000
0100
0010
0001
0100
,  // measure 70
0010
0001
0010
0100
1000
0010
0100
0001
0010
0100
1000
0010
0100
0001
0010
0100
,  // measure 71
1000
0010
0100
0001
0010
0100
1000
0010
0100
0001
0010
0100
1000
0010
0100
0001
,  // measure 72
0110
0000
0000
0101
0000
0000
1100
0000
0000
1010
0000
0000
0110
0000
0010
0001
,  // measure 73
0100
0000
0000
0000
0010
0100
0010
0000
1000
0000
0100
0000
0010
0000
0100
0000
0001
0010
0001
0000
0100
0000
0010
0000
1000
0000
0100
0000
0010
0000
0001
0100
,  // measure 74
1000
0100
0010
0001
2000
0000
0020
0000
0000
0000
0000
0000
0000
0000
0000
0000
,  // measure 75
0000
0000
3030
0000
;
