#VERSION:0.83;
#TITLE:The legend of MAX(X-Special);
#SUBTITLE:;
#ARTIST:;
#TITLETRANSLIT:;
#SUBTITLETRANSLIT:;
#ARTISTTRANSLIT:ZZ;
#GENRE:;
#ORIGIN:;
#CREDIT:;
#BANNER:The legend of MAX(X-Special).png;
#BACKGROUND:The legend of MAX(X-Special)-bg.png;
#PREVIEWVID:;
#JACKET:The legend of MAX(X-Special)-jacket.png;
#CDIMAGE:;
#DISCIMAGE:;
#LYRICSPATH:;
#CDTITLE:;
#MUSIC:The legend of MAX(X-Special).ogg;
#OFFSET:0.000000;
#SAMPLESTART:12.252000;
#SAMPLELENGTH:15.000000;
#SELECTABLE:YES;
#DISPLAYBPM:83.000000:333.000000;
#BPMS:0.000=333.000,
33.000=340.000,
36.000=332.500,
96.000=337.000,
100.000=332.500,
128.000=337.000,
132.000=332.500,
150.000=349.000,
152.000=332.500,
176.000=330.000,
180.000=332.500,
208.000=336.000,
212.000=333.000,
232.000=339.000,
236.000=332.500,
256.000=329.000,
260.000=332.500,
272.000=336.000,
276.000=333.000,
326.000=666.000,
332.000=333.000,
333.000=166.500,
334.000=83.250,
342.000=85.000,
343.000=332.000,
371.000=338.000,
375.000=332.500,
403.000=330.000,
407.000=332.500,
423.000=338.000,
427.000=332.500,
435.000=334.000,
439.000=332.000,
447.000=339.000,
451.000=332.000;
#STOPS:334.500=0.721;
#DELAYS:;
#WARPS:;
#TIMESIGNATURES:0.000=4=4;
#TICKCOUNTS:0.000=4;
#COMBOS:0.000=1;
#SPEEDS:0.000=1.000=0.000=0;
#SCROLLS:0.000=1.000;
#FAKES:;
#LABELS:0.000=Song Start;
#BGCHANGES:;
#KEYSOUNDS:;
#ATTACKS:
;

//---------------dance-single - ----------------
#NOTEDATA:;
#CHARTNAME:;
#STEPSTYPE:dance-single;
#DESCRIPTION:;
#CHARTSTYLE:;
#DIFFICULTY:Challenge;
#METER:17;
#RADARVALUES:0.847381,1.268039,0.339559,0.191002,0.021222,559.000000,527.000000,32.000000,18.000000,0.000000,0.000000,0.000000,0.000000,0.000000,0.847381,1.268039,0.339559,0.191002,0.021222,559.000000,527.000000,32.000000,18.000000,0.000000,0.000000,0.000000,0.000000,0.000000;
#CREDIT:;
#DISPLAYBPM:83.000000:333.000000;
#NOTES:
0000
0000
0000
0000
,
0000
0000
0000
0000
,
0000
0000
0000
0000
,
0000
0000
0001
0010
0000
0010
0100
0000
,
0100
0000
1000
0010
0000
0010
0100
0000
,
0100
0000
0001
0010
0000
0010
1000
0000
,
0000
0000
0100
1000
0000
1000
0010
0000
,
0100
0000
1000
0001
0000
0001
0100
0000
,
0010
0100
1100
0110
,
0010
0100
0000
0100
0020
0000
0000
0000
,
0000
0000
0000
0030
,
0001
0010
0100
1000
0000
0000
0010
0000
,
1000
0100
0010
0001
0000
0000
0100
0000
,
1000
0100
0010
1000
0000
0000
0000
0000
,
0001
1000
0001
0100
0000
0000
0100
0000
,
0010
0010
0010
0010
,
1000
0100
0001
0000
,
1000
0100
1000
0000
0001
0100
0001
0000
,
1000
0010
1000
0000
0001
1000
0100
0000
,
0010
0001
0010
0000
0100
1000
0001
0000
,
0010
0000
0000
0010
0000
0000
0001
0000
,
1000
0000
0100
1000
0100
0000
1000
0001
,
0100
0000
0010
0000
0100
0001
1000
0001
,
0100
0000
0001
0000
1000
0100
1000
0000
,
0010
0000
0000
0010
0000
0000
1000
0000
,
0001
0010
0001
0000
1000
0100
1000
0000
,
0001
0000
0010
0001
0100
0000
0010
1000
,
0100
0000
0010
0001
0100
0010
1000
0000
,
2000
0000
0000
0001
3000
0000
0100
0000
,
0001
0000
0100
1000
0010
0000
0100
0001
,
0010
0000
0100
1000
0010
0000
0010
1000
,
0100
0010
0001
0100
0010
1000
0100
0010
,
0002
0000
0000
0003
,
0001
0000
0001
0000
0001
0010
0100
0000
,
1000
0000
1000
0000
1000
0100
0010
0000
,
0001
0000
0001
0000
0001
0100
0010
0000
,
1000
0000
0000
1010
0000
0000
0100
0000
,
0001
0000
0010
0000
0100
1000
0010
0000
,
1000
0000
0001
0000
0010
0001
0100
0000
,
1000
0000
0100
0000
0001
1000
0100
0000
,
1000
1000
0001
1000
,
0001
0000
1000
0010
0001
0000
0000
0000
,
0010
0000
1000
0001
0100
0010
0100
0000
,
0001
0000
1000
0000
0010
1000
0100
0010
,
0001
0100
0010
1000
0000
0000
1010
0000
,
0001
0000
0010
0101
,
1000
0000
0000
0101
,
1000
0101
1000
0101
,
2000
0000
3001
0000
,
0001
0000
0001
0010
0100
0000
0000
0000
,
1000
0100
0000
0011
,
0000
0010
0001
0100
,
0020
0030
1000
0000
,
1001
0000
0010
0100
0001
0000
0000
0000
,
0010
0010
0000
0100
,
0000
0010
0001
0100
,
0020
0030
1000
0000
,
0101
0000
0100
1000
0010
0000
0000
0000
,
0100
0100
0000
0101
,
0000
1000
0100
0010
,
0002
0003
1000
0000
,
0001
0000
0001
0000
,
0001
1000
0001
1000
,
1100
0011
0101
1010
,
0011
1100
0101
1010
,
0100
0100
0011
0000
,
0001
0000
0200
0010
0000
0000
0301
0000
,
0000
1000
0010
0100
,
0001
0001
2000
3100
,
0001
0000
0010
0000
1001
0000
0000
0001
,
1000
1001
0000
0100
,
0010
0001
1000
0100
,
0001
1000
0010
0100
0020
0000
1030
0000
,
0100
0000
0010
0000
1000
0000
0001
0100
,
0001
0001
1000
0100
,
0010
0000
0001
0100
0001
0000
1000
0001
,
1000
0100
0010
0001
1000
0000
0001
0000
,
1000
0100
1000
0001
0100
0000
0001
0100
,
0001
1000
0001
0000
1000
0000
0100
1000
,
0010
0100
0010
0000
1000
0001
0100
0010
,
1000
0001
1000
0100
0001
0100
1000
0010
,
0200
0000
0000
0000
,
0000
0000
0000
0000
,
0000
0000
0000
0000
0000
0300
2000
0000
,
0001
0001
0001
0001
,
0001
0000
0000
0000
0000
0000
0000
0000
0001
0000
0000
0000
0001
0000
0000
0000
3001
0000
0001
0010
0001
0010
0001
0000
0010
0000
0000
0000
0001
0000
0000
0000
,
0010
0001
0010
0001
0010
0000
0001
0100
,
0001
0100
0001
0100
0001
0000
0010
1000
,
0010
1000
0010
0000
0101
0000
0101
0000
,
0000
1010
0000
0000
1100
0000
1000
0100
,
0000
0100
0010
0000
0001
0100
0000
0010
,
1000
0000
1000
0100
0000
0010
0001
0000
,
0001
0100
0000
0100
1000
0010
0200
0000
,
0000
0000
0000
0000
0300
0000
1000
0010
,
0100
0001
0000
0000
0020
0000
0000
0000
,
0100
0100
0000
0100
,
0000
0000
0030
0000
1000
0001
1000
0000
,
0000
0010
0000
0000
0001
0100
0010
0000
,
1000
0100
1000
0000
0001
0100
0001
0010
,
0100
1000
0010
0100
0010
1000
0200
0000
,
0000
0000
0300
0000
0001
0010
0100
0000
,
0010
0001
0100
0000
0000
0000
0010
1000
,
0100
0010
0001
0010
0100
1000
0020
0000
,
0000
0000
0000
0000
,
0000
0000
0030
0000
1000
0010
0100
0001
,
0010
0100
0010
0001
0100
0010
1000
0100
,
1000
0010
0100
0010
1000
0100
1000
0010
,
0100
0001
0010
0100
1000
0010
0100
0010
,
0001
0010
0100
0010
1000
0100
0010
0100
,
0001
0100
1000
0010
0001
0000
0011
0000
,
0000
0110
0000
0000
1001
0000
0010
0100
,
0001
0010
0100
0000
0010
0000
0001
0100
,
0010
1000
0100
0000
0010
0000
0100
1000
,
0010
0100
0001
0000
0010
0000
0100
0010
,
0001
0100
0010
0000
0100
0000
0001
1000
,
0001
0100
1000
0000
1000
0000
1000
0100
,
0001
0010
0100
0000
0110
0000
0010
0001
,
1000
0100
0001
0010
0100
0000
2200
0000
,
0000
0000
0000
0000
,
0000
0000
3300
0000
,
0000
0000
0000
0000
;

//---------------dance-double - ----------------
#NOTEDATA:;
#CHARTNAME:;
#STEPSTYPE:dance-double;
#DESCRIPTION:;
#CHARTSTYLE:;
#DIFFICULTY:Challenge;
#METER:17;
#RADARVALUES:0.814031,1.331441,0.350170,0.084890,0.021222,537.000000,504.000000,33.000000,8.000000,0.000000,0.000000,0.000000,0.000000,0.000000,0.814031,1.331441,0.350170,0.084890,0.021222,537.000000,504.000000,33.000000,8.000000,0.000000,0.000000,0.000000,0.000000,0.000000;
#CREDIT:;
#DISPLAYBPM:83.000000:333.000000;
#NOTES:
00000000
00000000
00000000
00000000
,
00000000
00000000
00000000
00000000
,
00000000
00000000
00000000
00000000
,
00000000
00000000
00001000
00000000
00000000
00000001
00000010
00000000
,
00000001
00001000
00000010
00000000
,
00010000
00000000
00001000
00000000
00000000
00010000
00000100
00000000
,
00010000
00001000
00000000
00010000
,
00001000
00000000
01000000
00000000
00000000
01000000
00001000
00000000
,
00010000
01000000
00100000
10010000
,
01000000
00100000
10000000
00010000
01000000
00000000
00000000
00000000
,
00000000
00000000
00000000
00000000
,
00000001
00000100
00000010
00000000
00000000
00000000
00001000
00000000
,
00000010
00000100
00001000
00000000
00010000
00000000
00001000
00000000
,
00100000
01000000
10000000
00000000
00000000
00000000
01000000
00000000
,
00100000
00010000
01000000
00000000
,
00100000
00100000
00100000
00100000
,
10000000
01000000
00001000
00000000
,
00001000
00010000
00100000
00000000
00010000
00100000
01000000
00000000
,
00100000
01000000
10000000
00000000
00100000
00010000
00001000
00010000
,
02000000
00000000
13000000
00000000
10000000
00100000
01000000
00000000
,
00100000
00000000
00000000
00100000
00000000
00000000
10000000
00000000
,
00010000
00000000
10000000
01000000
00010000
00000000
00010000
00000000
,
00100000
00000000
00001000
00000000
00010000
00001000
00000100
00000000
,
00000010
00001000
00000001
00001000
,
00000100
00000000
00000000
00000100
00000000
00000000
00010000
00000000
,
00001000
01000000
00010000
00000000
01000000
00010000
00100000
00000000
,
01000000
00000000
10000000
00000000
01000000
00010000
01000000
00000000
,
00100000
01000000
00010000
00001000
,
00000010
00000000
00000000
00000010
00000000
00000000
00000001
00000000
,
00001000
00000000
00000010
00000100
00000001
00000000
00000010
00000000
,
00000100
00000000
00001000
00000000
00000001
00000100
00001000
00000000
,
00000100
00000010
00000100
00001000
00010000
00001000
00000100
00000000
,
00000010
00001010
00011000
00000000
,
00100000
00000000
00010000
00000000
10000000
00100000
01000000
00000000
,
00100000
00000000
01000000
00000000
00010000
01000000
00001000
00000000
,
00010000
00000000
00100000
00000000
00010000
00001000
00000100
00000000
,
00000001
00000000
00000000
00001001
00000000
00000000
00001000
00000000
,
00000001
00000000
00000010
00000000
00000001
00001000
00000010
00000000
,
00010000
00000000
00001000
00000000
00100000
00001000
00010000
00000000
,
00001000
00000000
00100000
00010000
00000000
10000000
01000000
00000000
,
01000000
00100000
00100000
01000000
,
00010000
00000000
00001000
00000000
00000010
00000100
00000010
00000000
,
00001000
00000000
00010000
00000000
00000100
00000010
00000100
00000000
,
00001000
00000001
00000100
00000001
,
00001000
00000100
00011000
00000100
,
00000010
00000000
00011000
00000100
,
00000010
00000000
00000100
00011000
,
00000100
00011000
00000100
00011000
,
00000200
00000000
00001300
00000000
,
00000001
00000100
00001000
00010000
,
00000010
00000100
00001000
00000000
00001000
00000000
00010000
00000000
,
00001000
00010000
00001000
01000000
,
01200000
00000000
10000000
00000000
,
01300000
00100000
00100000
00010000
,
00001000
00000100
00000001
00001000
,
00000100
00001000
00000001
00000100
,
00001020
00000000
00000031
00000010
,
00001000
00000001
00000100
00000000
,
00000010
00001000
00000010
00000000
00000000
00000000
00011000
00000000
,
00011000
00100000
00010000
10000000
,
00200000
00000000
01000000
00000000
,
10300000
00010000
01000000
00000000
,
00100000
10000000
00100000
00000000
10000000
00000000
00010000
00000000
,
00100000
00011000
00010100
00001000
,
00000001
00001010
00011000
00010010
,
00011000
00100000
10010000
00000000
,
00010000
00000000
00100000
00001000
00000000
00000000
00010000
00000000
,
00010000
00001000
00010000
00000100
,
00000010
00000010
00000001
00001000
,
00000001
00000000
00000010
00000000
00001001
00000000
00000000
00000001
,
00001000
00001001
00000000
00000100
,
00000010
00010000
00001000
00010000
,
00000010
00001000
00000100
00010000
00000010
00000000
00000000
00000000
,
00001000
00000000
00000010
00000000
00000100
00000000
00001000
00010000
,
00100000
00000000
00010000
00000000
00001000
00000000
00010000
00100000
,
10000000
00000000
00100000
00000000
01000000
00000000
00001000
01000000
,
00010000
00100000
00001000
00000000
00010000
00000000
01000000
00000000
,
00100000
00000000
01000000
00010000
00001000
00000000
00010000
00000000
,
00001000
00000000
01000000
00010000
00001000
00000000
00010000
00000000
,
00001000
00000000
00000010
00000100
00010000
00001000
00000100
00000001
,
00000010
00000100
00010000
00001000
00000100
00000001
00000010
00000100
,
00000020
00000000
00000000
00000000
,
00000000
00000000
00000000
00000000
,
00000000
00000000
00000000
00000000
00000000
00000030
00000000
00000000
,
00001100
00000000
01100000
00000000
00010100
00001000
00010000
00000000
,
10100000
00000000
00000000
00000000
00000000
00000000
00000000
00000000
00000010
00000000
00000000
00000000
00001000
00000000
00000000
00000000
00000001
00000000
00001000
00000010
00010000
00000010
00001000
00000000
00000010
00000000
00000000
00000000
00000100
00000000
00000000
00000000
,
00000010
00001000
00000010
00000100
00000010
00000000
00010000
00000010
,
00000100
00001000
00000100
00000010
00010000
00000000
00001000
00010000
,
00001000
00010000
00001000
00000000
00010000
00000000
00010100
00000000
,
00000000
00011000
00000000
00000000
00101000
00000000
00100000
10000000
,
00000000
10000000
01000000
00000000
01000000
00010000
00000000
00010000
,
00001000
00000000
00001000
00000010
00000000
00000010
00000001
00000000
,
00000001
00000100
00000000
00001000
00010000
00100000
10000000
00000000
,
00000000
00000000
00000000
00000000
00000000
00000000
00100000
10000000
,
01000000
10000000
01000000
00000000
,
00010000
00010000
00000000
00001000
,
00000000
00000000
00000000
00000000
00010000
00000010
00000001
00000000
,
00000000
00000000
00000010
00000000
00001000
00000000
00000100
00001000
,
00000001
00001000
00000100
00010000
,
00010000
00001000
00010000
00001000
,
00000000
00000000
00000000
00000000
00010000
00000100
00000001
00000000
,
00000000
00000100
00000000
00000000
00001000
00000000
00000010
00000000
,
00010000
00001010
00000000
00010000
,
00001000
01000000
00010000
10000000
,
01000000
00000000
10000000
00010000
01000000
00000000
00001000
00000000
,
00010000
00011000
00001000
00010000
,
00001000
01000000
00001000
00010000
00001000
01000000
00010000
00100000
,
01000000
10000000
00010000
10000000
01000000
00010000
00001000
00010000
,
00001000
00100000
01000000
10000000
01000000
00100000
00010000
00100000
,
00001000
00010000
00001000
00100000
10000000
00000000
00100000
00000000
,
00000000
00010000
00000000
00000000
01000000
00000000
00100000
10000000
,
01000000
00100000
00010000
00000000
00010000
00000000
00010000
00001000
,
00000010
00000100
00000010
00000000
00000001
00000000
00000100
00001000
,
00010000
00001000
00000100
00000000
00001000
00000000
00010000
01000000
,
10000000
00100000
01000000
00000000
00001000
00000000
00100000
00001000
,
00010000
00001000
00000100
00000000
00000010
00000000
00000010
00000100
,
00001000
00010000
00100000
00000000
01100000
00000000
01000000
10000000
,
00100000
00010000
00001000
00000100
00000001
00000000
00002020
00000000
,
00000000
00000000
00000000
00000000
,
00000000
00000000
00003030
00000000
,
00000000
00000000
00000000
00000000
;

//---------------dance-single - Edit----------------
#NOTEDATA:;
#CHARTNAME:;
#STEPSTYPE:dance-single;
#DESCRIPTION:Edit;
#CHARTSTYLE:;
#DIFFICULTY:Edit;
#METER:18;
#RADARVALUES:1.027771,2.223711,0.817063,0.413837,0.153862,678.000000,601.000000,77.000000,39.000000,0.000000,0.000000,0.000000,0.000000,0.000000,1.027771,2.223711,0.817063,0.413837,0.153862,678.000000,601.000000,77.000000,39.000000,0.000000,0.000000,0.000000,0.000000,0.000000;
#CREDIT:;
#DISPLAYBPM:83.000000:333.000000;
#NOTES:
// measure 0
0000
0000
0000
0000
,  // measure 1
0000
0000
0000
0000
,  // measure 2
0000
0000
0000
0000
,  // measure 3
0000
0000
0001
0100
0000
0100
0010
0000
,  // measure 4
1010
0000
1000
0100
0000
0100
1000
0000
,  // measure 5
1100
0000
1000
0010
0000
0010
0100
0000
,  // measure 6
0101
0000
0010
0001
0000
0001
0100
0000
,  // measure 7
0110
0000
1000
0100
0010
0001
0100
0000
,  // measure 8
0110
0000
1000
0001
0010
0100
1000
0000
,  // measure 9
1020
0000
0000
0200
0000
0000
0330
0000
,  // measure 10
0021
0000
0000
0200
0000
0000
0330
0000
,  // measure 11
1000
0100
0010
0001
0100
0000
0101
0000
,  // measure 12
0001
0010
0100
1000
0010
0000
1010
0000
,  // measure 13
1000
0100
0010
0100
1000
0000
0101
0000
,  // measure 14
1000
0100
0010
0001
1000
0000
1001
0000
,  // measure 15
0120
0000
0000
1000
0000
0000
0130
0000
,  // measure 16
0120
0000
0000
0001
0000
0000
0130
0000
,  // measure 17
0100
0010
0100
0000
0010
0000
1000
0000
0001
0000
0010
0000
0100
0000
1000
0000
,  // measure 18
0010
0100
0001
1000
0100
0010
0001
0100
,  // measure 19
0010
1000
0100
0010
1000
0000
0100
1000
,  // measure 20
0010
0000
0100
0010
0000
1000
0010
0000
,  // measure 21
0001
0010
0100
1000
0010
0100
0001
1000
,  // measure 22
0100
0010
0001
0100
0010
1000
0001
0010
,  // measure 23
0100
1000
0010
0100
0001
0000
1000
0100
,  // measure 24
0010
0000
0010
0100
0000
0100
0010
0000
,  // measure 25
1000
0001
1000
0000
0001
0000
1000
0000
0100
0000
0010
0000
0001
0000
0100
0000
,  // measure 26
0010
0100
0010
0000
0100
0000
0001
0000
1000
0000
0100
0000
0010
0000
0001
0000
,  // measure 27
0100
0010
1000
0100
0010
0000
0001
0100
,  // measure 28
0010
0000
1000
0010
0000
0010
0100
0000
,  // measure 29
0001
0010
0100
1000
0010
0100
0001
1000
,  // measure 30
0100
0010
0001
0100
0010
1000
0001
0010
,  // measure 31
0100
1000
0010
0100
0001
0000
1000
0100
,  // measure 32
0010
0000
0220
0330
,  // measure 33
0001
0010
0001
0000
0010
0000
0100
0000
1000
0000
0010
0000
0100
0000
0001
0000
,  // measure 34
1000
0010
1000
0000
0010
0000
0100
0000
0001
0000
1000
0000
0100
0000
0010
0000
,  // measure 35
0001
0100
0010
1000
0001
0010
0100
1000
,  // measure 36
0010
0000
0100
1000
0000
0010
0100
0000
,  // measure 37
0010
0001
0100
0001
1000
0100
0010
0001
,  // measure 38
0100
0010
1000
0001
0010
0100
1000
0010
,  // measure 39
0100
0020
0000
0130
0001
0000
0010
0001
,  // measure 40
1000
0000
0010
0100
0000
0001
0100
0000
,  // measure 41
1000
0100
0010
0001
1000
0010
0100
0001
,  // measure 42
1000
0100
0001
0010
1000
0001
0100
0010
,  // measure 43
1000
0010
0100
0001
1000
0100
0001
0010
,  // measure 44
0100
0000
1000
0100
0000
0010
0100
0000
,  // measure 45
0202
0000
0303
0110
,  // measure 46
2200
0000
3300
1100
,  // measure 47
1010
0000
0000
0000
0100
0010
0100
0000
0010
0000
0001
0000
0100
0000
0000
0000
,  // measure 48
0220
0000
0330
0000
,  // measure 49
1010
0000
0010
1000
0200
0000
0000
0000
,  // measure 50
0000
1000
0000
0001
,  // measure 51
0000
1300
0010
0100
,  // measure 52
0001
0000
2002
3003
,  // measure 53
0011
0000
0001
0100
0020
0000
0000
0000
,  // measure 54
0000
1000
0000
0001
,  // measure 55
0000
1030
0010
0100
,  // measure 56
0001
0000
2002
3003
,  // measure 57
0101
0000
0010
0001
2000
0000
0000
0000
,  // measure 58
0000
0010
0000
0001
,  // measure 59
0000
3100
1000
0010
,  // measure 60
0100
0000
0202
0303
,  // measure 61
1001
0000
0010
0100
0002
0000
0000
0000
,  // measure 62
0000
0010
0000
1000
,  // measure 63
0000
0103
0011
1001
,  // measure 64
1010
0110
0101
1100
,  // measure 65
1000
0100
0010
0100
1000
0001
0100
0010
,  // measure 66
1000
0000
0010
1000
0100
0000
0001
0100
,  // measure 67
0010
0000
1000
0100
0010
0001
0100
0010
,  // measure 68
1000
0001
2002
3003
,  // measure 69
0010
0001
0100
0001
0010
0001
1000
0010
,  // measure 70
0100
0000
0001
0100
0010
0000
1000
0010
,  // measure 71
0100
0000
0001
0010
0100
1000
0010
0100
,  // measure 72
0001
1000
2002
3003
,  // measure 73
1000
0001
1000
0000
0110
0000
0001
1000
,  // measure 74
0001
0000
0220
0000
0330
0000
0100
0010
,  // measure 75
0100
0000
0010
0100
0010
0000
1001
0000
,  // measure 76
0100
0010
0100
0000
2002
0000
3003
0000
,  // measure 77
1000
0100
0010
0001
0100
0000
0000
0000
,  // measure 78
0001
0010
0100
1000
0010
0000
0000
0000
,  // measure 79
0100
0010
1000
0000
0010
0001
0100
0000
,  // measure 80
0001
1000
0010
1000
0001
0010
0100
1000
,  // measure 81
0020
0100
0000
0000
,  // measure 82
0000
0000
0000
0000
,  // measure 83
0000
0000
0000
0000
0000
0000
0000
0000
0000
0000
0000
0000
0000
0000
0000
0000
0000
0000
0000
0000
0030
0000
0000
0000
1000
0000
0000
0100
0000
0000
1100
0000
,  // measure 84
0000
0000
1000
0000
0100
0000
0010
0000
0001
0000
1000
0000
0010
0000
0100
0001
0010
0000
0001
0010
0000
0001
0100
0000
0010
0000
0000
0001
0000
0000
0011
0000
,  // measure 85
0000
0000
0010
0000
0001
0000
0100
0000
0010
0000
1000
0000
0100
0000
0010
0001
1000
0000
0100
1000
0000
0100
1000
0000
0100
0000
0000
0000
0000
0000
0000
0000
,  // measure 86
1000
0100
0001
0100
,  // measure 87
1000
0100
0001
0100
,  // measure 88
1000
0000
0100
0000
0001
0100
1000
0000
,  // measure 89
0100
0010
0000
0010
0100
0000
1000
0100
,  // measure 90
0000
0100
1000
0000
0010
0100
0001
0100
,  // measure 91
0010
0000
1000
0100
0010
0001
0100
0000
,  // measure 92
1000
0000
0100
1000
0001
0010
0100
0000
,  // measure 93
1000
0000
0000
0000
0010
0000
0000
0000
0100
0000
0000
0000
1000
0010
1000
0000
,  // measure 94
0010
0100
0001
1000
0020
0000
0000
0000
,  // measure 95
0130
0000
0011
1001
,  // measure 96
0101
0000
1010
0000
1000
0100
0001
0000
,  // measure 97
0010
0100
0000
0100
0001
0000
1000
0010
,  // measure 98
0100
0001
0010
0000
0020
0000
0000
0000
,  // measure 99
1030
0000
0101
1010
,  // measure 100
1100
0000
0011
0000
1000
0010
0100
0000
,  // measure 101
0001
0010
0000
0100
0010
0000
1000
0010
,  // measure 102
0001
0100
1000
0100
0020
0000
0000
0000
,  // measure 103
0031
0000
0101
0011
,  // measure 104
1001
0000
1010
0000
0010
0100
0001
0000
,  // measure 105
1000
0100
0000
0010
0100
0000
1000
0100
,  // measure 106
0010
0001
0100
0000
0101
0000
0001
0010
,  // measure 107
0100
1000
0010
0000
1010
0000
1000
0010
,  // measure 108
0001
0000
0001
0100
1000
0000
1000
0100
,  // measure 109
0001
0010
1000
0100
0010
0001
0101
0000
,  // measure 110
0000
1100
0000
0000
1010
0000
0010
1000
,  // measure 111
0100
0010
0001
0100
0001
0010
0011
0000
,  // measure 112
0000
0101
0000
0000
0011
0000
1010
0000
,  // measure 113
0000
0101
0000
0000
1010
0000
1001
0000
,  // measure 114
0000
0110
0000
0000
1001
0000
1100
0000
,  // measure 115
0000
0110
0000
0000
0011
0000
0101
0000
,  // measure 116
0000
0110
0000
0000
1100
0000
1001
0000
,  // measure 117
0000
0011
0000
0000
0110
0000
2002
0000
,  // measure 118
0000
0000
0000
0000
,  // measure 119
0000
0000
0000
3003
;
