#TITLE:The Other Side (radio mix);
#SUBTITLE:;
#ARTIST:Paul van Dyk feat. Wayne Jackson;
#TITLETRANSLIT:;
#SUBTITLETRANSLIT:;
#ARTISTTRANSLIT:;
#GENRE:;
#CREDIT:;
#BANNER:The Other Side (radio mix).png;
#BACKGROUND:The Other Side (radio mix)-bg.png;
#LYRICSPATH:;
#CDTITLE:;
#MUSIC:The Other Side (radio mix).ogg;
#OFFSET:0.000000;
#SAMPLESTART:72.000000;
#SAMPLELENGTH:15.000000;
#SELECTABLE:YES;
#BPMS:0.000000=140.000000
;
#STOPS:
;
#BGCHANGES:;
#KEYSOUNDS:;
#ATTACKS:;

//---------------dance-single - ----------------
#NOTES:
     dance-single:
     :
     Easy:
     6:
     0.219754,0.253751,0.000000,0.077778,0.000000,178.000000,178.000000,0.000000,9.000000,0.000000,0.000000,0.219754,0.253751,0.000000,0.077778,0.000000,178.000000,178.000000,0.000000,9.000000,0.000000,0.000000:
0000
0000
0000
0000
,
0000
0000
0000
0000
,
0010
0010
0010
0000
,
0010
0100
1000
0000
,
0010
0010
0010
0000
,
1000
0000
0001
0000
,
1000
1000
0010
1000
,
0100
0100
1000
0000
,
0001
0001
0010
0001
,
0100
0100
0001
0000
,
0100
0100
0001
0100
,
0001
0100
0010
0000
,
0100
0100
0010
0100
,
0010
0000
0100
0000
,
0100
0100
0010
1000
,
0010
1000
0100
0000
,
1000
1000
0010
1000
,
0002
0000
0000
0003
,
0001
0000
0100
0100
,
0010
0100
0001
0000
,
1000
1000
0001
1000
,
0010
0000
0100
0000
,
0001
0000
1000
1000
,
0001
0010
0100
0000
,
1000
1000
0010
1000
,
0100
0000
0010
0000
,
0001
0001
1000
0001
,
1000
0001
0200
0000
,
0310
0010
1000
0010
,
0100
0100
0100
0000
,
0001
0001
1000
0010
,
1000
1000
0010
0000
,
0200
0000
0300
0000
,
0020
0000
0030
0000
,
1000
1000
0100
0010
,
1000
1000
0100
0010
,
1000
0000
0001
0000
,
1000
0001
1000
0000
,
0200
0000
0300
0000
,
0020
0000
0030
0000
,
0200
0000
0000
0000
,
1000
1000
1300
0000
,
1000
0100
0001
0010
,
1000
0000
0010
0000
,
0001
0100
1000
0010
,
0001
0000
0010
0000
,
0100
0000
0010
0000
,
0001
0000
0100
0000
,
0100
0000
0010
0000
,
0100
0000
0100
0000
,
0001
0010
1000
0100
,
0001
1000
0001
0001
,
1000
0010
0001
0100
,
1000
0001
1000
1000
,
1000
0000
0010
0000
,
0100
0000
0010
0000
,
1000
0000
0010
0000
,
1000
1000
0100
0000
,
0010
0010
0010
0010
,
0001
0010
0100
1000
,
0010
0000
0010
0000
,
1000
1000
0001
0000
,
0100
0000
0010
0000
,
2000
0000
0000
3000
,
0000
0200
0000
0000
,
0000
0300
0000
0000
;

//---------------dance-single - ----------------
#NOTES:
     dance-single:
     :
     Medium:
     9:
     0.390124,0.422918,0.259260,0.103704,0.000000,316.000000,286.000000,30.000000,12.000000,0.000000,0.000000,0.390124,0.422918,0.259260,0.103704,0.000000,316.000000,286.000000,30.000000,12.000000,0.000000,0.000000:
0000
0000
0000
0000
,
0000
0000
0000
0000
,
1000
0000
0010
0000
1000
0001
0010
0002
,
0000
0000
1000
0000
0000
1003
0000
0001
,
0100
0000
0001
0000
0100
0001
1000
0200
,
0000
0000
0001
0000
0000
0310
0000
0000
,
0001
0001
0100
0001
,
0100
0100
0100
0000
0010
0001
0100
0000
,
0010
0010
1000
0001
,
2002
0000
3003
0110
,
0100
0000
0100
0000
1000
0100
0001
0000
,
1000
0000
0100
0000
0100
1000
0010
0000
,
0000
0110
0000
1001
,
0001
0010
0100
0000
0010
0001
0010
0000
,
0010
0000
0010
0000
0001
0010
1000
0000
,
0001
0000
0010
0000
0010
0001
0100
0000
,
0000
0110
0000
1001
,
1010
0000
0101
0000
0100
0001
0100
0001
,
0100
0000
0010
0000
1000
1000
0010
0000
,
0100
0000
0001
0000
1000
1000
0100
0000
,
0000
1100
0000
0011
,
1000
0100
0010
0000
0100
0010
0001
0000
,
0001
0000
1000
0000
0001
0001
0010
0000
,
0100
0000
1000
0000
0001
0001
0100
0000
,
0000
0101
0000
1010
,
1001
1000
1000
0000
0110
0010
0010
0000
,
1000
0000
0001
0000
0010
0010
0001
0000
,
1000
0000
1000
0000
0001
0001
1000
1000
,
0010
1000
0001
1000
,
0100
0100
1000
0000
0010
0010
0100
0000
,
0001
0000
0100
0000
0010
0010
0100
0000
,
0001
0001
1000
0000
1000
0000
0010
0000
,
0020
1030
2000
3001
,
0010
0001
0100
0010
0100
0000
0101
0000
,
1000
0000
0001
0000
0010
0001
0010
0000
,
0100
1000
0100
0000
0010
0001
0010
0000
,
0001
0000
1000
0000
0010
1000
0010
0000
,
0100
0001
0100
0000
0010
1000
0010
1000
,
0100
0100
0110
0010
,
1001
1000
0110
0010
,
1000
0001
0010
0001
,
1000
0001
1000
0001
1000
0000
0110
0000
,
0100
1000
0001
0000
0100
0001
0010
0000
,
0100
1000
0010
0000
0100
0001
1000
0000
,
0100
0100
0010
0000
0100
0100
1000
0000
,
0100
0100
0010
0000
0100
0100
0001
0000
,
1000
0011
1000
0101
,
1000
0110
1000
1001
,
0001
1010
0001
1100
,
0001
0110
0001
1000
,
0010
0001
1000
0000
0010
1000
0100
0000
,
0010
0001
0100
0000
0010
1000
0001
0000
,
0010
0010
0100
0000
0010
0010
0001
0000
,
0010
0010
0100
0000
0010
0010
1000
0000
,
0001
1100
0001
1010
,
0001
0110
0001
1000
,
0001
2002
0000
0000
,
0000
0000
3003
0000
,
0001
0000
0100
0000
0001
1000
0100
2000
,
0000
0000
0001
0000
0000
3001
0000
1000
,
0010
0000
1000
0000
0010
1000
0001
0020
,
0000
0000
1000
0000
0000
0130
0000
0000
,
1000
0010
0100
0000
,
0001
1000
0000
0010
0000
0000
0200
0000
,
0000
0020
0000
0000
,
0000
0330
0000
0000
;

//---------------dance-single - ----------------
#NOTES:
     dance-single:
     :
     Hard:
     13:
     0.422223,0.592085,0.181482,0.060494,0.168519,342.000000,321.000000,21.000000,7.000000,0.000000,0.000000,0.422223,0.592085,0.181482,0.060494,0.168519,342.000000,321.000000,21.000000,7.000000,0.000000,0.000000:
0000
0000
0000
0000
,
0000
0000
0000
0000
,
0001
0000
1000
0000
0100
0010
0001
0010
,
0000
0100
1000
0001
0000
0100
0100
0100
,
0010
0000
0100
0000
0001
0100
0010
1000
,
0000
0001
0010
0001
0000
1000
1000
1000
,
0001
1000
0001
0100
,
0010
0100
0001
1000
,
0100
0100
0010
0100
1000
0010
0100
0001
,
1000
1000
1000
0100
0010
0010
0010
0001
,
1000
0001
0100
1000
,
0001
1000
0100
0001
,
1000
0100
0001
0100
,
0010
0010
0010
1000
0100
0100
0100
1000
,
0001
1000
0100
0001
,
1000
0001
0100
1000
,
0100
0001
0001
0010
0100
0100
0010
0100
,
1000
0000
0010
0000
0100
0000
0001
0000
1000
0001
1000
0001
1000
0001
1000
0001
,
1000
0010
1000
1010
,
1000
1100
0100
0110
,
0001
0010
0100
1000
,
0001
0001
0001
0100
0001
0001
0001
0010
,
0100
0010
0001
1001
,
1000
1010
0010
0110
,
0100
0001
1000
0100
,
1000
1000
1000
0010
0100
0100
0100
0001
,
0010
1000
0001
0100
,
0010
0000
0000
0000
1000
0000
0000
0000
0001
0010
0001
0010
0001
0010
0001
0010
,
0001
0100
0010
1000
,
0001
0010
0100
0010
,
1001
0100
1001
0100
,
0010
0001
0200
0000
,
0310
0010
0100
0001
,
1000
0000
0000
0000
0010
0000
0000
0000
1000
0000
0000
0000
0001
0000
0010
0100
,
1000
0010
0100
1000
,
0001
1000
0100
0100
,
0010
1000
0100
0010
,
0001
0100
0001
0000
,
0000
0000
0000
0000
1000
0001
0000
0000
,
0100
0100
0000
0020
0000
0000
0030
1000
,
0100
0001
0000
2000
0000
0000
0000
0000
,
0000
0000
3000
0000
,
1001
0000
0000
0001
1000
0000
0000
1000
0001
0000
0000
0001
0010
0000
0000
0010
,
0100
0000
0000
0100
1000
0000
0000
1000
0100
0000
0000
0100
1000
0000
0000
1000
,
0010
0000
0000
0010
0100
0000
0000
0100
0001
0000
0000
0001
1000
0000
0000
1000
,
0001
0000
0000
0001
0010
0000
0000
0010
0100
0000
0000
0100
0010
0000
0000
0000
,
0001
0100
0001
0110
,
1000
0100
1000
0110
,
1000
0101
0001
1100
,
0011
0000
1010
0000
1100
0000
0101
0001
,
0100
0000
0000
0100
0001
0000
0000
0001
0010
0000
0000
0010
1000
0000
0000
1000
,
0010
0000
0000
0010
0001
0000
0000
0001
1000
0000
0000
1000
0010
0000
0000
0010
,
0100
0000
0000
0100
1000
0000
0000
1000
0100
0000
0000
0100
0001
0000
0000
0001
,
0010
0000
0000
0010
0100
0000
0000
0100
1000
0000
0000
1000
0001
0000
0000
0000
,
1000
0010
0001
0110
,
0001
0010
1000
0110
,
1001
0220
0000
0000
,
0000
0000
0330
0000
,
1000
0000
0001
0000
0100
0010
1000
0010
,
0000
0100
0001
1000
0000
0100
0100
0100
,
0010
0000
0100
0000
1000
0100
0010
0001
,
0000
1000
0010
1000
0000
0001
0001
0001
,
1000
1000
0010
0100
,
1000
0100
0000
0001
0000
0000
0020
0000
,
0000
0200
0000
0000
,
0000
0330
0000
0000
;

//---------------dance-single - ----------------
#NOTES:
     dance-single:
     :
     Beginner:
     3:
     0.141976,0.194337,0.000000,0.008642,0.000000,115.000000,115.000000,0.000000,1.000000,0.000000,0.000000,0.141976,0.194337,0.000000,0.008642,0.000000,115.000000,115.000000,0.000000,1.000000,0.000000,0.000000:
0000
0000
0000
0000
,
0000
0000
0000
0000
,
0010
0000
0010
0000
,
0100
0000
0100
0000
,
0010
0000
0010
0000
,
0010
0000
0000
0000
,
1000
0000
1000
0000
,
0001
0000
1000
0000
,
0100
0000
0100
0000
,
0100
0000
0000
0000
,
0010
0010
0000
0000
,
0001
0001
0001
0000
,
0100
0000
0100
0000
,
0010
0000
0100
0000
,
0010
0010
0000
0000
,
1000
1000
1000
0000
,
0001
0000
0001
0000
,
0100
0000
0001
0000
,
0100
0100
0000
0010
,
0000
0100
0000
0000
,
0001
0000
0001
0000
,
1000
0000
0001
0000
,
0100
0100
0000
0010
,
0000
1000
0000
0000
,
0001
0000
0001
0000
,
1000
0000
0001
0000
,
0100
0100
0100
0000
,
0010
0010
0010
0000
,
0100
0000
0000
0000
,
0000
0000
0000
0001
,
0001
0001
0001
0000
,
1000
1000
1000
0000
,
0010
0000
0010
0000
,
0100
0000
0100
0000
,
0001
0001
0001
0000
,
1000
1000
1000
0000
,
0010
0000
0100
0000
,
0010
0000
0010
0000
,
0100
0000
0000
0000
,
0010
0000
0000
0000
,
1000
0000
0000
0000
,
0001
0000
0000
0000
,
1000
0000
0010
0000
,
1000
0000
0010
0000
,
0100
0000
0000
0000
,
0100
0000
0000
0000
,
0001
0000
0001
0000
,
1000
0000
1000
0000
,
0010
0000
0010
0000
,
0100
0000
0000
0000
,
0010
0000
0100
0000
,
0010
0000
0100
0000
,
0001
0000
0000
0000
,
0001
0000
0000
0000
,
1000
0000
1000
0000
,
0100
0000
1000
0000
,
0020
0000
0000
0030
,
0000
0000
0000
0000
,
0100
0000
0100
0000
,
0010
0000
0100
0000
,
0010
0000
0000
0000
,
0100
0000
0000
0000
,
1000
0000
0001
0000
,
0100
0000
0100
0000
,
0000
0010
0000
0000
;

//---------------dance-double - ----------------
#NOTES:
     dance-double:
     :
     Easy:
     4:
     0.203704,0.249862,0.008642,0.060494,0.000000,165.000000,164.000000,1.000000,7.000000,0.000000,0.000000,0.203704,0.249862,0.008642,0.060494,0.000000,165.000000,164.000000,1.000000,7.000000,0.000000,0.000000:
00000000
00000000
00000000
00000000
,
00000000
00000000
00000000
00000000
,
00000001
00000001
00001000
00000100
,
00010000
00000000
00001000
00000000
,
00100000
00100000
00010000
00000000
,
02000000
00000000
03000000
00000000
,
00001000
00010000
00000100
00000000
,
00001000
00000001
00000100
00000001
,
00000100
00000010
00001000
00000000
,
00001100
00000000
00000000
00000000
,
00000100
00000100
00010000
00000000
,
00002000
00000000
00003000
00000000
,
00100000
00010000
01000000
00000000
,
00010000
00000000
10000000
00000000
,
01000000
01000000
00010000
00000000
,
00002000
00000000
00003000
00000000
,
00010000
00000100
00000010
00000000
,
00000001
00000000
00001000
00000000
,
00000010
00001000
00000010
00000000
,
00010000
00000000
00001000
00000000
,
00010000
00000000
00001000
00000000
,
01000000
01000000
00010000
00000000
,
10000000
00100000
10000000
00000000
,
01000000
00000000
00100000
00000000
,
01000000
00000000
00100000
00000000
,
00001000
00000010
00000001
00000001
,
00001000
00000000
00000010
00000000
,
00000100
00000000
00000001
00000001
,
00001000
00000000
00000100
00000000
,
00010000
00000000
00001000
00000000
,
00100000
00100000
00010000
00000000
,
01000000
00000000
00100000
00000000
,
10000000
10000000
00100000
00000000
,
01000000
01000000
00010000
00000000
,
10000000
01000000
00010000
00001000
,
00000010
00000100
00001000
00000000
,
00000001
00000100
00000001
00000010
,
00000100
00001000
00000100
00000000
,
00020000
00000000
00030000
00000000
,
00002000
00000000
00003000
00000000
,
00200000
00000000
00300000
00000000
,
00020000
00000000
00030000
00000000
,
10000000
10000000
00100000
01000000
,
00010000
00000000
00100000
00000000
,
00001000
00001000
00010000
00000100
,
00001000
00001000
00000100
00000010
,
00000001
00000000
00001000
00000000
,
00000100
00000000
00001000
00000000
,
00000100
00000000
00010000
00000000
,
00001000
00010000
00001000
00000000
,
01000000
01000000
00010000
10000000
,
00100000
00000000
01000000
00000000
,
00100000
00100000
01000000
00010000
,
00100000
00100000
00001000
00010000
,
00000100
00000000
00001000
00000000
,
00000100
00000000
00000010
00000000
,
00000001
00000001
00000001
00000001
,
00000100
00000100
00000100
00000100
,
00000001
00000001
00001000
00000100
,
00010000
00000000
00001000
00000000
,
00100000
00100000
00010000
00000000
,
01000000
00000000
00100000
00000000
,
10000000
10000000
01000000
00000000
,
00100000
00000000
01000000
00000000
,
00000000
00100000
00000000
00000000
;

//---------------dance-double - ----------------
#NOTES:
     dance-double:
     :
     Medium:
     6:
     0.365433,0.394723,0.138272,0.095062,0.000000,296.000000,280.000000,16.000000,11.000000,0.000000,0.000000,0.365433,0.394723,0.138272,0.095062,0.000000,296.000000,280.000000,16.000000,11.000000,0.000000,0.000000:
00000000
00000000
00000000
00000000
,
00000000
00000000
00000000
00000000
,
10000000
00100000
01000000
00010000
,
10000000
10000000
00010000
00010000
,
01000000
01000000
00001000
00000000
00001000
00000000
00010000
00000000
,
00000100
00000010
00000010
00000000
,
00000001
00001000
00000010
00000100
,
00010000
01000000
00100000
10000000
,
01000000
01000000
10000000
10000000
,
00010000
00010000
00100000
00000000
,
01000000
01000000
10000000
01000000
,
00100000
00100000
00001000
00000000
00010000
00000000
00000100
00000000
,
00000010
00000010
00000001
00001000
,
00000001
00000001
00001000
00000000
00001000
00001000
00000100
00000000
,
00010000
00010000
00001000
00100000
,
00010000
00010000
01000000
00000000
00100000
00000000
00010000
00000000
,
00100000
01000000
00100000
01000000
,
00010000
00010000
10000000
00000000
01000000
00100000
00010000
00100000
,
00001000
00000000
00010000
00000000
00000100
00001000
00000001
00000000
,
00001000
00000000
00000001
00000000
00000100
00000100
00000001
00000000
,
00001000
00001000
00000010
00000000
00000100
00000000
00000100
00000000
,
00010000
00010000
01000000
00010000
00010000
00100000
00100000
00100000
,
01000000
00000000
10000000
00000000
00010000
10000000
01000000
00000000
,
00100000
00000000
01000000
00000000
10000000
10000000
01000000
00000000
,
00100000
00100000
00001000
00000000
00010000
00000000
00010000
00000000
,
00000100
00000100
00001000
00000100
00000100
00000010
00000010
00000010
,
00000001
00001000
00000010
00000100
,
00000001
00000000
00000100
00000000
00000001
00000001
00001000
00001000
,
00000100
00010000
00001000
00100000
,
00010000
00010000
10000000
01000000
,
00100000
00010000
00100000
01000000
,
00100000
00001000
00010000
00010000
,
00000100
00000100
00001000
00000000
00001000
00001000
00000010
00000000
,
00000100
00000100
00000001
00000001
00001000
00001000
00000010
00000000
,
00000100
00000100
00000010
00000100
,
00000001
00000001
00001000
00000001
,
00001100
00010000
00011000
00100000
,
00110000
10000000
10100000
00010000
,
20000000
30000000
00020000
00030000
,
00200000
00300000
02000000
03000000
,
20000000
30000000
00020000
00030000
,
00100000
00001000
00010000
00001000
00010000
00000100
00001000
00000000
,
00000010
00000010
00000100
00000000
00000001
00000000
00000010
00000000
,
00000100
00001000
00000001
00000100
,
00000010
00000010
00001000
00000000
00001000
00001000
00000100
00000000
,
00000100
00000100
00010000
00000000
00010000
00010000
00001000
00000000
,
01000000
01010000
00010000
10010000
,
10000000
10100000
00100000
01100000
,
01000000
01010000
00010000
00110000
,
02200000
00000000
03300000
00000000
,
10000000
10000000
01000000
00000000
00100000
00000000
00001000
00000000
,
00000010
00000001
00001000
00000001
,
00000100
00000100
00000010
00000000
00000010
00000010
00010000
00000000
,
00010000
00010000
00000100
00000000
00000100
00000100
00001000
00000000
,
00000001
00001001
00001000
00001010
,
00000010
00000110
00000100
00001001
,
00001000
00012000
00000000
00000000
,
00100000
00100000
00103000
00010000
,
10000000
10000000
00100000
00000000
01000000
00000000
00010000
00000000
,
10000000
10000000
00010000
00010000
,
01000000
01000000
00001000
00000000
00001000
00001000
00010000
00000000
,
00000100
00000010
00000001
00001000
,
00000100
00000010
00000100
00000000
,
00010000
00001000
00000000
00010000
00000000
00000000
00000200
00000000
,
00000000
00000020
00000000
00000000
,
00000000
00000330
00000000
00000000
;

//---------------dance-double - ----------------
#NOTES:
     dance-double:
     :
     Hard:
     8:
     0.460495,0.592085,0.120988,0.025926,0.060494,373.000000,359.000000,14.000000,3.000000,0.000000,0.000000,0.460495,0.592085,0.120988,0.025926,0.060494,373.000000,359.000000,14.000000,3.000000,0.000000,0.000000:
00000000
00000000
00000000
00000000
,
00000000
00000000
00000000
00000000
,
00000100
00000000
00000010
00000000
00000001
00000100
00001000
00000100
,
00000000
00000001
00000010
00000100
00000000
00001000
00001000
00000001
,
00000100
00000000
00010000
00000000
01000000
00010000
00001000
00010000
,
00000000
01000000
00010000
00100000
00000000
01000000
01000000
10000000
,
01000000
01000000
10000000
10000000
00100000
00100000
10000000
00000000
,
01000000
00100000
00010000
00100000
00001000
00010000
00000100
00000010
,
00000001
00000100
00000010
00000001
00000010
00001000
00000100
00000000
,
00000010
00000010
00000010
00000001
00000100
00000100
00000100
00000000
,
00001000
00000100
00000001
00000010
00000100
00001000
00000010
00000000
,
00000100
00010000
00000100
00000000
00010000
01000000
00010000
00000000
,
10000000
01000000
00010000
01000000
,
10000000
10000000
10000000
00100000
01000000
01000000
01000000
10000000
,
01000000
00100000
00010000
00100000
10000000
01000000
00100000
00000000
,
00001000
00010000
00001000
00000000
00000100
00000001
00000100
00000000
,
00000001
00001000
00000010
00001000
,
00000001
00000000
00001000
00000000
00000100
00000000
00010000
00000000
00001000
00010000
00001000
00010000
00001000
00010000
00001000
00010000
,
00001000
01000000
00010000
10000000
,
00100000
10000000
00010000
00100000
00001000
00010000
01000000
00000000
,
10000000
00100000
10000000
01000000
00100000
00010000
01000000
00010000
,
00100000
00100000
00100000
00001000
00010000
00010000
00010000
00000000
,
00000100
00000000
00001000
00000000
00000010
00000000
00000100
00000001
,
00001000
00000000
00000010
00001000
00000100
00000000
00010000
00000000
,
00000100
00000010
00000001
00000010
,
00000100
00000100
00000100
00010000
00001000
00001000
00001000
00000000
,
00100000
00010000
10000000
00100000
,
01000000
00000000
00000000
00000000
00010000
00000000
00000000
00000000
10000000
00010000
10000000
00010000
10000000
00010000
10000000
00010000
,
10000000
01000000
00010000
01000000
,
00001000
00001000
00001000
00000100
00000001
00000001
00000001
00000100
,
00000010
00000001
00001000
00000100
,
00000010
00000010
00000001
00000100
,
00000101
00001001
00011000
10010000
,
11000000
00000000
01010000
00000000
,
00100000
00100000
10000000
00010000
,
00100000
00100000
00100000
00001000
00010000
00010000
00010000
00000100
,
00001000
00000100
00000010
00001000
,
00000010
00000001
00000100
00000010
00001000
00000100
00000010
00000001
,
00001000
00000000
00000000
00000000
00000100
00010000
00000000
00000000
,
00001000
00010000
00000000
00001000
00000000
00000000
00000000
00100000
,
00010000
00100000
00000000
01000000
00000000
00000000
00000000
00000000
,
10000000
01000000
10000000
01000000
10000000
01000000
10000000
01000000
10000000
01000000
10000000
01000000
10000000
00000000
00000000
00000000
,
01000000
00100000
00010000
00001000
00000100
00001000
00000010
00000000
,
00000100
00000001
00000010
00000001
00001000
00000001
00000100
00000010
,
00001000
00000100
00000010
00000001
00000010
00000100
00001000
00000000
,
00000010
00010000
00001000
00100000
00010000
01000000
00100000
00000000
,
01000000
10000000
00010000
00100000
,
01000000
00010000
10000000
00100000
,
10010000
01010000
00110000
00011000
,
00001100
00001010
00001001
00000110
,
00000001
00000010
00000100
00000001
00000100
00001000
00000010
00000000
,
00000100
00000001
00000100
00001000
00010000
00100000
10000000
00010000
,
00100000
01000000
10000000
00100000
10000000
00010000
10000000
00000000
,
01000000
00100000
01000000
00000000
00010000
00001000
00010000
00000000
,
00001000
00000010
00001000
00000000
00000010
00000001
00000010
00000000
,
00000001
00000100
00000010
00001000
,
00000010
00000200
00000000
00000000
,
00000000
00000300
00000000
00000000
,
00000010
00000000
00010000
00000000
00001000
00100000
00010000
10000000
,
00000000
00100000
01000000
10000000
00000000
01000000
01000000
00010000
,
00100000
00000000
00010000
00000000
01000000
00010000
10000000
00010000
,
00000000
00100000
00001000
00010000
00000000
00000100
00000100
00000010
,
00001000
00000010
00001000
00000001
,
00000010
00000100
00000000
00001000
00000000
00000000
00000020
00000000
,
00000000
00000200
00000000
00000000
,
00000000
00000330
00000000
00000000
;

//---------------dance-single - ----------------
#NOTES:
     dance-single:
     :
     Challenge:
     15:
     0.796298,0.930419,0.388890,0.051852,0.790743,645.000000,600.000000,45.000000,6.000000,0.000000,0.000000,0.796298,0.930419,0.388890,0.051852,0.790743,645.000000,600.000000,45.000000,6.000000,0.000000,0.000000:
// measure 0
0000
0000
0000
0000
,  // measure 1
0000
0000
0000
0000
,  // measure 2
1001
0000
1100
0000
1000
0001
0100
0010
,  // measure 3
0000
1001
0000
1000
0001
0010
0001
0100
,  // measure 4
0110
0000
1001
0000
0001
0100
0010
1000
,  // measure 5
0000
1100
0000
1000
0001
0010
0100
1000
,  // measure 6
1100
0000
0101
0000
1000
0001
0010
1000
,  // measure 7
0000
1001
0000
0010
0100
1000
0001
1000
,  // measure 8
1100
0000
0110
0000
0010
1000
0001
0010
,  // measure 9
0000
0110
0000
1000
0001
0010
1000
0010
,  // measure 10
0001
0000
0000
0100
0001
0000
0010
0000
0100
0000
1000
0001
0100
0000
0010
0000
,  // measure 11
1010
0000
1100
0000
0001
1000
0100
0010
,  // measure 12
0001
0000
0000
0010
1000
0000
0100
0000
0010
0000
0001
0100
0010
0000
1000
0000
,  // measure 13
1100
0000
1001
0000
0001
1000
0010
0001
,  // measure 14
0100
0000
0000
0001
1000
0000
0100
0000
0010
0000
0001
0100
0010
0000
1000
0000
,  // measure 15
1010
0000
0011
0000
0001
1000
0100
0010
,  // measure 16
0001
0000
0000
0010
0100
0000
1000
0000
0010
0000
0100
0001
1000
0000
0010
0000
,  // measure 17
1000
0000
0001
0000
0100
0000
0010
0000
1000
0100
1000
0100
0010
0001
0010
0001
,  // measure 18
0100
0000
1000
0001
1000
0000
0100
0000
0010
0000
0001
0100
0001
0000
0010
0000
,  // measure 19
1010
0000
0000
0000
0101
0000
0000
0000
0001
0000
1000
0100
0010
0001
0100
0000
,  // measure 20
0010
0000
0100
0010
0100
0000
1000
0000
0010
0000
0001
1000
0001
0000
0010
0000
,  // measure 21
0110
0000
0000
0000
1010
0000
0000
0000
1000
0000
0001
0010
0100
1000
0010
0000
,  // measure 22
0100
0000
0001
0100
0001
0000
0010
0000
1000
0000
0100
1000
0100
0000
0010
0000
,  // measure 23
0011
0000
0000
0000
1100
0000
0000
0000
1000
0000
0010
0100
0001
1000
0010
0000
,  // measure 24
0100
0000
0010
1000
0010
0000
0100
0000
0010
0000
0001
0010
0001
0000
0100
0000
,  // measure 25
0010
0000
1000
0010
1000
0000
0100
0000
0010
0001
0010
0001
0100
0010
0100
0010
,  // measure 26
1000
0000
0100
1000
0100
0000
0010
0000
0001
0000
0010
0001
0010
0000
0100
0000
,  // measure 27
1100
0000
0000
0000
0101
0000
0000
0000
1000
0100
0010
0001
0100
0010
1000
0001
,  // measure 28
0100
0000
0010
1000
0001
0000
0010
0000
0001
0000
0100
0010
1000
0000
0100
0000
,  // measure 29
0110
0000
0000
0000
0101
0000
0000
0000
0001
0000
0010
1000
0100
0010
0001
0000
,  // measure 30
0100
0000
1000
0010
0100
0000
0001
0000
1000
0000
0100
0010
0001
0000
1000
0000
,  // measure 31
1001
0000
0000
0000
1100
0000
0000
0000
1000
0000
0010
0001
0100
0010
1000
0000
,  // measure 32
1100
0000
0000
1000
0100
0000
0000
0100
0010
0000
0000
0010
0001
0000
0000
0001
,  // measure 33
2000
0000
0000
0000
3001
0000
0010
0000
1000
0000
0010
0000
0001
0000
0010
0001
,  // measure 34
0100
0000
0010
1000
0100
0000
0010
0000
0001
0000
1000
0010
0100
0000
0010
0000
,  // measure 35
0011
0000
0000
0000
0101
0000
0000
0000
0001
0000
1000
0010
0100
0010
0001
0000
,  // measure 36
0100
0000
0001
0010
0100
0000
0010
0000
1000
0000
0100
0010
0001
0000
1000
0001
,  // measure 37
0100
0000
0010
1000
0100
0000
0010
0001
0100
0010
1000
0100
1000
0000
0100
0000
,  // measure 38
0010
0001
0010
0001
0010
0001
0010
0001
0010
0001
0010
0001
0010
0001
0010
0001
,  // measure 39
1000
0001
1000
0001
1000
0001
1000
0001
1000
0001
1000
0001
1000
0001
1000
0001
,  // measure 40
0100
0001
0100
0001
0100
0001
0100
0001
0100
0001
0100
0001
0100
0001
0100
0001
,  // measure 41
0100
0010
1000
0001
0100
0010
1000
0001
0010
0100
0001
1000
0010
0100
0001
1000
,  // measure 42
0001
0000
1000
0001
0100
0000
0001
1000
0000
0000
1001
0000
0010
0000
1000
0001
,  // measure 43
0010
0001
0100
0001
0010
0001
0100
0001
0010
0001
0100
0001
0010
0001
0100
0001
,  // measure 44
0010
1000
0100
1000
0010
1000
0100
1000
0010
1000
0100
1000
0010
1000
0100
1000
,  // measure 45
0010
0000
0000
0000
0101
0000
0000
0000
1000
0000
0001
0000
1000
0100
0010
0001
,  // measure 46
0100
0001
1000
0001
0200
0000
0301
0000
,  // measure 47
1001
0000
0000
0000
0001
0010
0100
1000
0100
0010
0001
0000
1000
0000
0010
0000
,  // measure 48
0100
0000
0001
0010
0100
0000
1000
0100
0000
0000
1100
0000
0010
0000
1000
0000
,  // measure 49
0100
0000
0010
0001
0100
0000
0001
0010
0000
0000
0110
0000
0010
0100
0010
0100
,  // measure 50
0010
0000
1000
0001
0100
0000
0010
1000
0000
0000
1100
0000
1000
0000
0100
0001
,  // measure 51
0010
0100
0001
0100
0010
0100
0001
0100
0010
0100
0001
0100
0010
0100
0001
0100
,  // measure 52
1000
0010
0100
0010
1000
0010
0100
0010
1000
0010
0100
0010
1000
0010
0100
0010
,  // measure 53
1000
0100
0010
0001
1000
0010
0100
0001
1000
0100
0010
0001
1000
0010
0100
0001
,  // measure 54
1000
0000
0100
0001
0010
0000
0001
0100
0000
0000
0101
0000
0010
0000
1000
0000
,  // measure 55
0010
0000
0000
0010
1000
0000
0000
1000
0001
0000
0000
0001
0010
0000
0000
0010
,  // measure 56
0002
2000
0000
3003
,  // measure 57
1001
0000
0000
0000
0110
0000
0000
0000
1001
0000
0000
0000
0001
0100
0010
1000
,  // measure 58
0100
0000
0000
0100
0010
0000
0000
0010
1000
0000
0000
1000
0100
0000
0000
0100
,  // measure 59
0010
1000
0100
1000
0010
1000
0100
1000
0010
1000
0100
1000
0010
1000
0100
1000
,  // measure 60
0001
0010
0100
0010
0001
0010
0100
0010
0001
0010
0100
0010
0001
0010
0100
0010
,  // measure 61
0001
0000
0100
0010
1000
0000
0100
1000
0000
0000
1100
0000
0101
0000
0000
0000
,  // measure 62
0001
0000
0000
0001
0010
0000
0000
0010
0100
0000
1000
0000
0001
0000
0010
0000
,  // measure 63
0100
0000
0000
1000
0000
0000
0100
0000
0001
0000
0000
0000
0200
0000
0000
0000
,  // measure 64
0000
0020
0000
0000
,  // measure 65
0000
0330
0000
0000
;
