#TITLE:The Centre Of The Heart (STONEBRIDGE CLUBMIX);
#SUBTITLE:;
#ARTIST:Roxette;
#TITLETRANSLIT:;
#SUBTITLETRANSLIT:;
#ARTISTTRANSLIT:;
#GENRE:;
#CREDIT:;
#BANNER:The Centre Of The Heart (STONEBRIDGE CLUBMIX).png;
#BACKGROUND:The Centre Of The Heart (STONEBRIDGE CLUBMIX)-bg.png;
#LYRICSPATH:;
#CDTITLE:;
#MUSIC:The Centre Of The Heart (STONEBRIDGE CLUBMIX).ogg;
#OFFSET:0.000000;
#SAMPLESTART:61.849998;
#SAMPLELENGTH:15.000000;
#SELECTABLE:YES;
#DISPLAYBPM:128.000000;
#BPMS:0.000000=128.130005
,4.000000=128.000000
;
#STOPS:
;
#BGCHANGES:;
#KEYSOUNDS:;
#ATTACKS:;

//---------------dance-single - ----------------
#NOTES:
     dance-single:
     :
     Beginner:
     3:
     0.161096,0.233380,0.223407,0.000000,0.000000,106.000000,85.000000,21.000000,0.000000,0.000000,0.000000,0.161096,0.233380,0.223407,0.000000,0.000000,106.000000,85.000000,21.000000,0.000000,0.000000,0.000000:
0000
0000
0000
0000
,
0000
0000
0000
0000
,
0000
0000
0000
0000
,
0010
0000
0000
0000
,
0010
0000
0000
0000
,
0010
0000
0000
0000
,
0100
0000
0000
0000
,
1000
0000
1000
0000
,
0001
0000
0001
0000
,
0001
0000
0000
0000
,
0001
0000
0100
0000
,
1000
0000
0000
0000
,
1001
0000
1001
0000
,
1000
0000
0000
0000
,
1000
0000
0010
0000
,
0001
0000
0000
0000
,
1001
0000
1001
0000
,
0001
0001
0000
0000
,
1000
1000
0000
0000
,
0010
0010
0000
0000
,
1001
1001
0000
0000
,
0001
0001
0000
0000
,
1000
1000
0000
0000
,
0100
0000
0100
0000
,
0100
0000
0100
0000
,
0010
0000
0000
0000
,
0100
0000
0000
0000
,
1000
0000
1000
0000
,
0001
0000
0001
0000
,
0010
0000
0000
0000
,
0100
0000
0000
0000
,
1000
0000
1000
0000
,
0001
0000
0001
0000
,
0001
0000
0001
0000
,
1001
0000
1001
0000
,
1000
0000
1000
0000
,
1001
0000
1001
0000
,
0001
0000
0001
0000
,
1001
0000
1001
0000
,
1000
0000
1000
0000
,
1001
0000
1001
0000
,
0100
0100
0100
0000
,
1001
0000
1001
0000
,
0010
0010
0010
0000
,
1001
0000
1001
0000
,
0100
0100
0100
0000
,
1001
0000
1001
0000
,
0010
0010
0010
0000
,
1001
0000
0100
0100
;

//---------------dance-single - ----------------
#NOTES:
     dance-single:
     :
     Easy:
     3:
     0.171734,0.232183,0.148938,0.063830,0.000000,113.000000,99.000000,14.000000,6.000000,0.000000,0.000000,0.171734,0.232183,0.148938,0.063830,0.000000,113.000000,99.000000,14.000000,6.000000,0.000000,0.000000:
0000
0000
0000
0000
,
0000
0000
0000
0000
,
0000
0000
0000
0000
,
0010
0000
0000
0000
,
0100
0000
0000
0000
,
0010
0000
0001
0000
,
0010
0000
1000
0000
,
0001
1000
0001
1000
,
1001
0000
1001
0000
,
0010
0000
0010
0000
,
0100
0000
0100
0000
,
0001
0000
0001
0000
,
1000
0000
1000
0000
,
0010
0000
0100
0000
,
0010
0000
0100
0000
,
0001
0000
1000
0000
,
0001
0000
1000
0000
,
0010
0020
0000
0000
,
0130
0200
0000
0000
,
0301
0002
0000
0000
,
1003
2000
0000
0000
,
3010
0020
0000
0000
,
0130
0200
0000
0300
,
0110
0000
0110
0000
,
1001
0000
1001
0000
,
0010
0000
0100
0000
,
0001
1000
0001
0000
,
0100
0000
0100
0000
,
0010
0000
0010
0000
,
1000
0001
1000
0000
,
0001
1000
0001
0000
,
0110
0000
1001
0000
,
0110
0000
1001
0000
,
0010
0000
0100
0000
,
0001
0000
1000
0000
,
0010
0000
0100
0000
,
0001
0000
1000
0000
,
0010
0000
1000
0000
,
0001
0000
0100
0000
,
0010
0000
1000
0000
,
0001
0000
0100
0000
,
0010
1000
0010
0000
,
0100
0000
0100
0000
,
0001
0010
0001
0000
,
0100
0000
0100
0000
,
0010
1000
0010
0000
,
0101
0000
0101
0000
,
0010
0001
0010
0000
,
1100
0000
1100
0000
;

//---------------dance-single - ----------------
#NOTES:
     dance-single:
     :
     Medium:
     8:
     0.300915,0.311971,0.021277,0.340429,0.000000,198.000000,196.000000,2.000000,32.000000,0.000000,0.000000,0.300915,0.311971,0.021277,0.340429,0.000000,198.000000,196.000000,2.000000,32.000000,0.000000,0.000000:
0000
0000
0000
0000
,
0000
0000
0000
0000
,
0000
0000
0000
0000
,
2000
0000
0000
0000
,
3002
0000
0000
0000
,
1003
0000
0100
0000
,
1000
0000
0010
0000
,
2000
0100
0010
0100
,
3002
0100
0010
0100
,
1003
0000
1000
0000
0001
0100
0001
0000
,
1000
0000
1000
0000
0001
0010
0001
0000
,
0100
0000
0100
0000
0001
1000
0001
0000
,
0010
0010
0100
0100
,
0001
0000
0100
0000
0010
1000
0010
0000
,
1000
0000
0100
0000
0010
0001
0010
0000
,
0100
1000
0100
0000
1000
0001
1000
0000
,
0001
0100
0010
1000
,
1000
1000
2000
0000
0001
0000
3001
0000
,
0001
0001
0002
0000
1000
0000
1003
0000
,
1000
0100
0010
0001
,
1000
0200
0010
0310
,
2000
3200
0320
0032
,
1003
0000
1000
0000
0010
0100
0020
0000
,
0100
0100
1000
1000
,
0100
0100
1000
1030
,
0001
0100
0001
0000
0001
1000
0001
0000
,
0010
0000
0010
0000
0001
1000
0001
0000
,
2000
0100
0001
0100
,
0010
0100
0001
3100
,
1000
0010
1000
0000
1000
0001
1000
0000
,
0100
0000
0100
0000
1000
0001
1000
0000
,
0002
0100
1000
0010
,
0100
1000
0100
0013
,
0001
0000
1000
0100
1000
0000
0001
0000
,
0100
0100
0001
0001
,
1000
0000
0001
0010
0001
0000
1000
0000
,
0100
0100
1000
1000
,
0010
0000
1000
0001
1000
0000
0002
0000
,
0100
0100
1000
1003
,
0100
0000
0001
1000
0001
0000
2000
0000
,
0010
0010
0001
3001
,
2000
3200
0302
0023
,
0230
0302
2003
3001
,
0002
0203
2300
3020
,
0230
2300
3002
1003
,
0001
0010
0100
1000
0001
0000
1000
0000
,
0001
0001
0000
1001
,
1000
0100
0010
0001
1000
0000
0001
0000
,
1000
0000
1000
0000
0000
0000
2002
3003
;

//---------------dance-single - ----------------
#NOTES:
     dance-single:
     :
     Hard:
     11:
     0.413378,0.649940,0.202130,0.042554,0.042554,272.000000,253.000000,19.000000,4.000000,0.000000,0.000000,0.413378,0.649940,0.202130,0.042554,0.042554,272.000000,253.000000,19.000000,4.000000,0.000000,0.000000:
0000
0000
0000
0000
,
0000
0000
0000
0000
,
0000
0000
0000
0000
,
1000
0000
0001
0000
,
1000
0001
1000
0001
,
1000
0100
1000
0000
0010
0000
0100
0001
,
0010
0001
0010
0000
0100
0000
0000
0100
,
1000
0010
0100
0001
,
1000
0010
0100
0001
0010
0000
1100
0000
,
1000
0000
0010
0000
1000
0001
0100
0010
,
1000
0000
0010
0000
1000
0100
1000
0000
,
0001
0000
0100
0000
0001
1000
0001
0100
,
0001
0000
0100
0000
0001
0010
0001
0000
,
1000
0000
0100
0000
1000
0001
0000
0101
,
1000
0000
0100
0000
1000
0010
1000
0000
,
0001
0000
0010
0000
0001
1000
0100
1000
,
0001
0000
0010
0000
0001
0100
0001
0000
,
1000
1000
1000
0000
0010
0000
0100
0000
,
0001
0001
0001
0000
0010
0000
0100
0000
,
1000
1000
1000
0000
0010
0000
0101
0000
,
0001
0001
0001
0000
0100
0000
1010
0000
,
0010
0010
0010
0000
1000
0001
0000
1001
,
0100
0010
0100
0000
0001
1000
0001
0000
,
2000
0010
0100
3002
,
0100
0010
1003
1001
,
1000
1000
1000
0000
0001
0001
0001
0000
,
0110
0000
1001
0000
0100
0010
1000
0001
,
0100
0100
0100
0100
,
0010
0010
0010
0010
,
0001
1000
0001
0000
1000
0000
0010
0100
0001
1000
0001
0000
1000
0000
0010
0100
,
0001
1000
0001
0000
0010
0100
0010
0000
0001
1000
0001
0000
0010
0100
0010
0000
,
0001
0001
1000
1000
,
0001
0001
1000
1000
0010
0010
0100
0100
,
0010
0000
1000
0001
1000
0100
0000
0100
,
0000
1000
0000
1000
0000
0001
0000
0001
,
0010
0000
0001
1000
0001
0100
0000
0100
,
0000
0001
0000
0001
0000
1000
0000
1000
,
0100
0000
1000
0001
1000
0010
0000
0010
,
0000
1000
0000
1000
0000
0001
0000
0001
,
0100
0000
0001
1000
0001
0010
0000
0010
,
0000
1001
0000
1001
0000
0100
0010
0000
,
1001
0000
0010
0100
0010
1000
0000
1001
,
0000
1000
0100
0010
0001
0100
0010
0000
,
1001
0000
0100
0010
0100
0001
0000
1001
,
0000
0001
0010
0100
1000
0010
0100
0000
,
1001
0000
1000
0100
1000
0010
0000
0101
,
0000
1000
0010
0100
0001
0010
0000
0100
,
1001
0000
0001
0010
0001
0100
0000
1010
,
0000
0001
0010
0100
1000
0000
0022
0033
;

//---------------dance-double - ----------------
#NOTES:
     dance-double:
     :
     Easy:
     2:
     0.120062,0.128991,0.000000,0.074469,0.000000,79.000000,79.000000,0.000000,7.000000,0.000000,0.000000,0.120062,0.128991,0.000000,0.074469,0.000000,79.000000,79.000000,0.000000,7.000000,0.000000,0.000000:
00000000
00000000
00000000
00000000
,
00000000
00000000
00000000
00000000
,
00000000
00000000
00000000
00000000
,
00000000
00000000
00000000
00000000
,
00000000
00000000
00000000
00000000
,
00000001
00000000
00000001
00000000
,
00000001
00000000
00000001
00000000
,
00001000
00000002
00000000
00000003
,
00001000
00000002
00000000
00000003
,
00000100
00000000
00000010
00000000
,
00010000
00000000
00001000
00000000
,
00010000
00000000
00010000
00000000
,
00001000
00000000
01000000
00000000
,
00100000
00000000
01000000
00000000
,
00001000
00000000
00010000
00000000
,
00001000
00000000
00001000
00000000
,
00010000
00000000
00000010
00000000
,
00001000
00000000
00000000
00000000
,
00000001
00000000
00000000
00000000
,
00000100
00000000
00000000
00000000
,
00000010
00000000
00000000
00000000
,
00001000
00000000
00000000
00000000
,
00000100
00000000
00000000
00000000
,
00020000
00000000
00000000
00000000
,
00000000
00000000
00000000
00030000
,
00001000
00000000
00001000
00000000
,
00001000
00000000
00001000
00000000
,
00010000
00002000
00000000
00003000
,
00010000
00002000
00000000
00003000
,
01000000
00000000
01000000
00000000
,
01000000
00000000
01000000
00000000
,
00100000
02000000
00000000
03000000
,
00100000
02000000
00000000
03000000
,
00100000
00000000
00100000
00000000
,
10000000
00000000
10000000
00000000
,
00010000
00000000
00010000
00000000
,
01000000
00000000
01000000
00000000
,
00001000
00000000
00001000
00000000
,
00010000
00000000
00010000
00000000
,
00000100
00000000
00000100
00000000
,
00001000
00000000
00001000
00000000
,
00000001
00000000
00000100
00000000
,
00000001
00000000
00000100
00000000
,
00000010
00000000
00001000
00000000
,
00000010
00000000
00001000
00000000
,
00000100
00000000
00010000
00000000
,
00001000
00000000
00010000
00000000
,
00001000
00000000
01000000
00000000
,
00010000
00000000
10000000
00000000
,
00000000
00000000
00000000
00000000
;

//---------------dance-double - ----------------
#NOTES:
     dance-double:
     :
     Medium:
     5:
     0.296356,0.311971,0.000000,0.148938,0.000000,195.000000,195.000000,0.000000,14.000000,0.000000,0.000000,0.296356,0.311971,0.000000,0.148938,0.000000,195.000000,195.000000,0.000000,14.000000,0.000000,0.000000:
00000000
00000000
00000000
00000000
,
00000000
00000000
00000000
00000000
,
00000000
00000000
00000000
00000000
,
00000000
00000000
00000000
00000000
,
00000000
00000000
00000000
00000000
,
00000010
00000010
00000010
00000010
,
00000010
00000000
00000010
00000000
00000010
00000000
00000010
00001000
,
00000200
00000300
00020000
00030000
,
00002000
00003000
02000000
03000000
,
00100000
00000000
10000000
10000000
,
00010000
00000000
01000000
01000000
,
00001000
00000000
00000010
00000010
,
00000001
00001000
00000010
00000100
,
00001000
00000000
00010000
00010000
,
00001000
00000000
01000000
01000000
,
00100000
00000000
10000000
10000000
,
00010000
00010000
01000000
01000000
,
00100000
10000000
01000000
00010000
,
00000100
00000000
00001000
00000000
00000001
00000100
00000010
00000000
,
00001000
00000000
00000100
00000000
00010000
00001000
01000000
00000000
,
00100000
00000000
10000000
00000000
00010000
01000000
00100000
00000000
,
01000000
00000000
00001000
00000000
00010000
00000010
00001000
00000000
,
00000001
00000000
00001000
00000000
00000100
00000010
00000100
00000000
,
00010000
00000000
00001000
00000000
01000000
00100000
01000000
00000000
,
00010000
10000000
00010000
00000000
01000000
00100000
01000000
00000000
,
00001000
00000000
00001000
00000000
00010000
00001000
00010000
00000000
,
00000100
00000000
00000100
00000000
00000010
00000001
00000020
00000000
,
00000100
00000100
00000100
00000100
,
00000100
00000100
00000100
00000130
,
00010000
00000000
00010000
00000000
00001000
01000000
00100000
00000000
,
10000000
00000000
10000000
00000000
00010000
00100000
02000000
00000000
,
10000000
10000000
10000000
10000000
,
10000000
10000000
10000000
13000000
,
00100000
00000000
00001000
00010000
00000100
00001000
00000000
00000002
,
00000000
00000100
00000000
00000100
00000000
00000100
00000000
00000103
,
00000010
00000000
00010000
00001000
01000000
00100000
00000000
20000000
,
00000000
00010000
00000000
00010000
00000000
00010000
00000000
30010000
,
01000000
00000000
00100000
10000000
01000000
00100000
00000000
00002000
,
00000000
00010000
00000000
00010000
00000000
00010000
00000000
00013000
,
00000010
00000000
00001000
00000001
00000010
00000100
00000000
00002000
,
00000000
00000001
00000000
00000001
00000000
00000001
00000000
00003001
,
00000100
00000000
00000010
00010000
00001000
01000000
00000000
00020000
,
00000000
10000000
00000000
10000000
00000000
10000000
00000000
10030000
,
00100000
00000000
01000000
10000000
01000000
00010000
00000000
00200000
,
00000000
00001000
00000000
00001000
00000000
00001000
00000000
00301000
,
00010000
00000000
00000100
00000010
00000001
00001000
00000000
00000020
,
00000000
00001000
00000000
00001000
00000000
00001000
00000000
00001030
,
00000010
00000000
00010000
00001000
01000000
00200000
00000000
01000000
,
00000000
01000000
00000000
01000000
00000000
01000000
00000000
01300000
,
00000000
00000000
00000000
00000000
;

//---------------dance-double - ----------------
#NOTES:
     dance-double:
     :
     Hard:
     7:
     0.454412,0.467957,0.000000,0.170215,0.186172,299.000000,299.000000,0.000000,16.000000,0.000000,0.000000,0.454412,0.467957,0.000000,0.170215,0.186172,299.000000,299.000000,0.000000,16.000000,0.000000,0.000000:
00000000
00000000
00000000
00000000
,
00000000
00000000
00000000
00000000
,
00000000
00000000
00000000
00000000
,
00000000
00000000
00000010
00001000
00000000
00000000
00000001
00001000
00000000
00000000
00000010
00010000
00000000
00000000
00000100
00010000
,
00000000
00000000
00001000
01000000
00000000
00000000
00100000
01000000
00000000
00000000
00010000
10000000
00000000
00000000
01000000
10000000
,
00000000
00010000
00000000
00010000
00000000
01000000
00100000
10000000
,
00000000
01000000
00000000
01000000
00000000
00100000
00001000
00010000
,
00000000
00000000
00000010
00001000
00000000
00000000
00000001
00001000
00000000
00000000
00000010
00010000
00000000
00000000
00000100
00010000
,
00000000
00000000
00001000
01000000
00000000
00000000
00100000
01000000
00000000
00000000
00010000
10000000
00000000
00000000
00100000
10000000
,
00000000
00010000
00000000
00010000
00000000
01000000
00001000
00010000
,
00001000
00010000
00000100
00000010
00000100
00001000
00000010
00000100
,
00000000
00000001
00000000
00000001
00000000
00000100
00000010
00000100
,
00001000
00000100
00000010
00010000
00001000
01000000
00100000
10000000
,
00000000
00010000
00000000
00010000
00000000
01000000
00001000
00010000
,
00001000
00010000
00000100
00000010
00000100
00001000
00000010
00000100
,
00000000
00000001
00000000
00000001
00000000
00000100
00000010
00000100
,
00001000
00000100
00000010
00010000
00001000
01000000
00100000
10000000
,
00000000
00010000
00000000
00010000
00000000
01000000
00000000
01000000
,
00100000
00000000
01000000
00010000
10000000
00000000
01000000
00000000
10000000
00000000
00010000
00000000
01000000
00000000
00100000
00000000
,
00000000
01000000
00000000
01000000
00000000
00001000
00000000
00001000
,
00010000
00000000
00000010
00001000
00000100
00000000
00000010
00000000
00000001
00000000
00001000
00000000
00000010
00000000
00010000
00000000
,
00000000
00001000
00000000
00001000
00000000
01000000
00000000
01000000
,
00000000
00000000
00100000
10000000
00010000
00000000
01000000
00000000
00100000
00000000
01000000
00000000
00010000
00000000
10000000
00000000
,
02000000
03200000
00302000
00023000
,
00030020
00000230
00000302
00002003
,
00003010
00000100
00000001
00000100
00000001
00001000
00000100
00010000
,
00000000
01000000
00100000
01000000
00100000
00010000
10000000
00100000
,
01000000
00000000
00100000
10000000
00000000
00000000
00010000
01000000
00000000
00000000
00001000
00010000
00000000
00000000
00000010
00001000
,
00000000
00000000
00000001
00000100
00000000
00000000
00000010
00010000
00000000
00000000
00001000
01000000
00000000
00000000
00100000
10000000
,
00010000
01000000
00010000
10000000
00010000
01000000
00001000
00000000
,
00010000
00000010
00000100
00000010
00000100
00000010
00010000
01000000
,
00100000
00000000
01000000
10000000
00000000
00000000
00010000
00100000
00000000
00000000
00001000
00010000
00000000
00000000
00000100
00001000
,
00000000
00000000
00000001
00000010
00000000
00000000
00000100
00010000
00000000
00000000
00001000
00100000
00000000
00000000
00010000
01000000
,
00200000
00000000
01300000
00001000
00010000
00000010
00000100
00000001
,
00000000
00001000
00000000
00000100
00000000
00010000
00001000
01000000
,
00200000
00000000
10300000
01000000
00100000
00010000
01000000
00001000
,
00000000
00010000
00000000
00000100
00000000
00000010
00000001
00001000
,
00000020
00000000
00010030
00001000
01000000
00100000
10000000
00010000
,
00000000
00100000
00000000
00001000
00000000
00010000
00000010
00000100
,
00000020
00000000
00001030
00000001
00000100
00010000
00001000
00100000
,
00000000
00010000
00000000
10000000
00000000
01000000
00100000
10000000
,
00020000
00000000
10030000
00100000
01000000
00010000
00100000
00001000
,
00000000
00010000
00000000
00001000
00000000
00010000
00000100
00000010
,
00000002
00000000
00001003
00000010
00000100
00010000
00001000
00010000
,
00000000
01000000
00000000
00010000
00000000
00100000
01000000
10000000
,
00020000
00000000
10030000
00100000
01000000
10000000
00000000
01000000
,
00000000
00010000
00000000
01000000
00000000
00001000
00010000
00000010
,
00000200
00000000
00000301
00000010
00000100
00010000
00001000
00100000
,
00000000
01000000
00000000
10000000
00000000
00010000
01000000
00100000
,
00000000
00000000
00000000
00000000
;

//---------------dance-single - ----------------
#NOTES:
     dance-single:
     :
     Challenge:
     15:
     0.717333,0.857921,0.276599,0.170215,0.707454,472.000000,446.000000,26.000000,16.000000,0.000000,0.000000,0.717333,0.857921,0.276599,0.170215,0.707454,472.000000,446.000000,26.000000,16.000000,0.000000,0.000000:
// measure 0
0000
0000
0000
0000
,  // measure 1
0000
0000
0000
0000
,  // measure 2
0000
0000
0000
0000
,  // measure 3
1000
0100
0010
0001
1000
0010
0100
0001
1000
0100
0010
0001
0010
0100
1000
0001
,  // measure 4
0100
0010
1000
0100
0010
0001
1000
0010
0100
0001
1000
0100
0010
0001
0010
0100
,  // measure 5
1000
0001
0010
1000
0100
0010
0001
0010
0100
1000
0010
0100
0001
0010
0100
1000
,  // measure 6
0100
0010
1000
0001
0100
0010
1000
0100
0010
0001
1000
0010
0100
0001
1000
0001
,  // measure 7
0010
0001
0100
0001
1000
0100
0010
0001
0010
1000
0100
0010
0001
0010
1000
0010
,  // measure 8
0100
0001
0010
0100
1000
0001
0010
0100
0001
1000
0100
0000
0110
0000
0000
0000
,  // measure 9
0200
0000
1300
0001
0100
0100
0100
0010
,  // measure 10
2000
0000
3001
0010
1000
1000
1000
0100
,  // measure 11
0020
0000
0130
1000
0010
0010
0010
0001
,  // measure 12
0002
0000
1003
0001
0101
0000
1100
0000
,  // measure 13
2000
0000
3010
0100
0001
0001
0001
0100
,  // measure 14
0020
0000
1030
0010
0100
0100
0100
0001
,  // measure 15
0200
0000
0301
1000
0010
0010
0010
0100
,  // measure 16
0101
0101
1100
1010
,  // measure 17
2000
0000
3000
0100
1000
0000
0100
0001
1000
0000
0100
0000
0000
0000
0010
0000
,  // measure 18
0000
0001
0000
0100
0100
0100
1100
0000
,  // measure 19
0020
0000
0030
0100
0010
0000
1000
0010
0100
0000
0010
0000
0000
0000
0001
0000
,  // measure 20
0000
1000
0000
0010
0010
0010
0110
0000
,  // measure 21
0200
0000
0300
0010
0100
0000
0001
1000
0100
0000
0010
0000
0001
0000
0001
0000
,  // measure 22
0200
0000
0310
0000
1000
0001
0100
0010
,  // measure 23
0200
0000
0000
0001
0001
0000
0000
0010
,  // measure 24
0010
0000
0000
1000
1300
0000
1001
0000
,  // measure 25
1000
0010
0100
0001
1000
0100
0010
0001
0010
0100
1000
0001
0100
0010
1000
0100
,  // measure 26
0010
0001
1000
0010
0100
0001
1000
0100
0010
0001
0010
0100
1000
0001
0100
0010
,  // measure 27
1000
0000
0010
0100
0001
0000
0010
1000
0100
0000
0010
0001
0100
0000
0010
1000
,  // measure 28
0100
0000
0010
0001
0100
0000
0010
1000
0100
0000
0010
0001
0100
0000
0001
1000
,  // measure 29
0100
0010
0001
1000
0010
0100
0001
0010
0100
1000
0001
0100
0010
1000
0100
0010
,  // measure 30
0001
1000
0010
0100
0001
1000
0100
0010
0001
0010
0100
1000
0001
0100
0010
1000
,  // measure 31
0010
0000
0100
0001
1000
0000
0100
0001
1000
0000
0100
0001
1000
0000
0100
0001
,  // measure 32
1000
0001
0100
0010
1000
0100
0010
0001
0100
0010
1000
0001
0010
0100
1000
0100
,  // measure 33
0020
0000
0001
1000
0001
1030
0000
1100
,  // measure 34
0000
1010
0000
0101
0000
0011
0001
0100
,  // measure 35
0200
0000
1000
0001
1000
0301
0000
0101
,  // measure 36
0000
1100
0000
1010
0000
0110
0010
0100
,  // measure 37
0002
0000
1000
0010
0100
1003
0000
1001
,  // measure 38
0000
0011
0000
0101
0000
1100
0100
0001
,  // measure 39
2000
0000
0100
0010
0001
3100
0000
1100
,  // measure 40
0000
1001
0000
0011
0000
0101
1000
0100
,  // measure 41
0010
0001
1000
0010
0001
0010
1000
0010
,  // measure 42
0001
0010
1000
0010
0001
0010
1000
0001
,  // measure 43
1000
0100
0001
0100
1000
0100
0001
0100
,  // measure 44
1000
0100
0001
0100
1000
0100
0001
0100
,  // measure 45
1000
0010
0100
0001
1000
0100
0010
0001
0100
0010
1000
0001
0010
0100
1000
0001
,  // measure 46
0100
0010
1000
0100
0010
0001
0010
0100
1000
0001
0100
0010
1000
0010
0100
0000
,  // measure 47
0001
0100
0010
1000
0010
0100
0001
1000
0010
0100
0001
0010
0100
1000
0001
0100
,  // measure 48
0010
1000
0100
0010
0001
0010
0100
1000
0001
0100
0010
1000
0010
0100
0001
0000
;
