#VERSION:0.83;
#TITLE:THE BEST OF BOTH WORLDS;
#SUBTITLE:;
#ARTIST:HANNAH MONTANA;
#TITLETRANSLIT:;
#SUBTITLETRANSLIT:;
#ARTISTTRANSLIT:;
#GENRE:;
#ORIGIN:;
#CREDIT:;
#BANNER:THE BEST OF BOTH WORLDS.png;
#BACKGROUND:THE BEST OF BOTH WORLDS-bg.png;
#PREVIEWVID:;
#JACKET:;
#CDIMAGE:;
#DISCIMAGE:;
#LYRICSPATH:;
#CDTITLE:;
#MUSIC:THE BEST OF BOTH WORLDS.mp3;
#OFFSET:-0.048000;
#SAMPLESTART:34.098999;
#SAMPLELENGTH:15.000000;
#SELECTABLE:YES;
#DISPLAYBPM:124.000000;
#BPMS:0.000=126.000,
4.000=124.000;
#STOPS:;
#DELAYS:;
#WARPS:;
#TIMESIGNATURES:0.000=4=4;
#TICKCOUNTS:0.000=4;
#COMBOS:0.000=1;
#SPEEDS:0.000=1.000=0.000=0;
#SCROLLS:0.000=1.000;
#FAKES:;
#LABELS:0.000=Song Start;
#BGCHANGES:0.000=THE BEST OF BOTH WORLDS.avi=1.000=0=0=0=StretchNoLoop====,
99999=-nosongbg-=1.000=0=0=0 // don't automatically add -songbackground-
;
#KEYSOUNDS:;
#ATTACKS:
;

//---------------dance-single - ----------------
#NOTEDATA:;
#CHARTNAME:;
#STEPSTYPE:dance-single;
#DESCRIPTION:;
#CHARTSTYLE:;
#DIFFICULTY:Beginner;
#METER:3;
#RADARVALUES:0.136046,0.204210,0.107996,0.019636,0.000000,97.000000,86.000000,11.000000,2.000000,0.000000,0.000000,0.000000,0.000000,0.000000,0.136046,0.204210,0.107996,0.019636,0.000000,97.000000,86.000000,11.000000,2.000000,0.000000,0.000000,0.000000,0.000000,0.000000;
#CREDIT:;
#NOTES:
0000
0000
0000
0000
,
0000
0000
0000
0000
,
0100
0000
0000
0000
,
1001
0000
0000
0000
,
0100
0000
0100
0000
,
1001
0000
0000
0000
,
0001
0000
0001
0000
,
1000
0000
0000
0000
,
0100
0000
0010
0000
,
0100
0000
0000
0000
,
0001
0000
0001
0000
,
1000
0000
0000
0000
,
0100
0000
0010
0000
,
0100
0000
0000
0000
,
0010
0000
0010
0000
,
0100
0000
0100
0000
,
0010
0000
0010
0000
,
1001
0000
0000
0000
,
0001
0001
0001
0000
,
1000
1000
1000
0000
,
1001
0000
0000
0000
,
0110
0000
0000
0000
,
0001
0001
0001
0000
,
1000
1000
1000
0000
,
0010
0000
0010
0000
,
0100
0000
0100
0000
,
0100
0000
0000
0000
,
1001
0000
0000
0000
,
0010
0000
0000
0000
,
1001
0000
0000
0000
,
1000
0000
1000
0000
,
0001
0000
0000
0000
,
0010
0000
0100
0000
,
0010
0000
0000
0000
,
1000
0000
1000
0000
,
0001
0000
0000
0000
,
0010
0000
0100
0000
,
0010
0000
0000
0000
,
0100
0000
0100
0000
,
0001
0000
0001
0000
,
0100
0000
0100
0000
,
1001
0000
0000
0000
,
0001
0001
0001
0000
,
1000
1000
1000
0000
,
1001
0000
0000
0000
,
0110
0000
0000
0000
,
0001
0001
0001
0000
,
1000
1000
1000
0000
,
0001
0000
1000
0000
,
0001
0000
1000
0000
,
0100
0000
0100
0000
,
2002
0000
0000
0000
,
3003
0000
0000
0000
;

//---------------dance-single - ----------------
#NOTEDATA:;
#CHARTNAME:;
#STEPSTYPE:dance-single;
#DESCRIPTION:;
#CHARTSTYLE:;
#DIFFICULTY:Easy;
#METER:5;
#RADARVALUES:0.192148,0.255262,0.127631,0.225809,0.000000,137.000000,124.000000,13.000000,23.000000,0.000000,0.000000,0.000000,0.000000,0.000000,0.192148,0.255262,0.127631,0.225809,0.000000,137.000000,124.000000,13.000000,23.000000,0.000000,0.000000,0.000000,0.000000,0.000000;
#CREDIT:;
#NOTES:
0000
0000
0000
0000
,
0000
0000
0000
0000
,
0002
0000
0000
0003
,
2000
0000
0000
3000
,
0020
0000
0000
0030
,
0200
0000
0000
0300
,
0001
1000
0001
0000
,
0100
0000
0010
0000
,
1000
0100
0010
0001
,
0200
0000
0300
0000
,
1000
0001
1000
0000
,
0010
0000
0100
0000
,
0001
0010
0100
1000
,
0020
0000
0030
0000
,
1001
0000
0100
0000
,
0110
0000
0001
0000
,
1001
0000
0100
0000
,
0001
1000
1001
0000
,
0010
0100
0001
1000
,
0010
0100
0001
1000
,
0020
0030
2000
3000
,
0002
0003
0200
0300
,
0010
0100
0001
1000
,
0010
0100
0001
1000
,
0110
0000
1001
0000
,
0001
0010
0100
1000
,
0002
0000
0000
0003
,
2000
0000
0000
3000
,
0020
0000
0000
0030
,
0200
0000
0000
0300
,
1000
0001
0100
0000
,
0010
0000
1000
0000
,
0010
1000
0100
0001
,
0200
0000
0000
0300
,
1000
0010
0100
0000
,
0001
0000
1000
0000
,
0010
0001
0100
1000
,
0200
0000
0000
0300
,
1001
0000
0100
0000
,
0110
0000
1000
0000
,
1001
0000
0010
0000
,
0100
0010
0110
0000
,
0001
0100
0010
1000
,
0001
0100
0010
1000
,
0200
0300
0020
0030
,
0002
0003
2000
3000
,
0001
0100
0010
1000
,
0001
0100
0010
1000
,
1001
0000
0110
0000
,
1000
0100
0001
0100
,
2000
3000
0020
0030
,
0200
0300
0001
1000
,
1001
0000
0000
0000
;

//---------------dance-single - ----------------
#NOTEDATA:;
#CHARTNAME:;
#STEPSTYPE:dance-single;
#DESCRIPTION:;
#CHARTSTYLE:;
#DIFFICULTY:Medium;
#METER:7;
#RADARVALUES:0.308559,0.357367,0.196356,0.284716,0.000000,220.000000,200.000000,20.000000,29.000000,0.000000,0.000000,0.000000,0.000000,0.000000,0.308559,0.357367,0.196356,0.284716,0.000000,220.000000,200.000000,20.000000,29.000000,0.000000,0.000000,0.000000,0.000000,0.000000;
#CREDIT:;
#NOTES:
0000
0000
0000
0000
,
0000
0000
0000
0000
,
0100
0001
1000
0110
,
0100
0001
1000
0000
,
0001
1000
0010
0100
,
2002
0000
0000
3003
,
0100
0001
2000
0000
3002
0000
0003
0000
,
0020
0100
0130
0000
,
1000
0100
0010
0000
0100
0000
1000
0000
,
0102
0000
0000
0003
,
0010
1000
0001
0000
1000
0000
0010
0000
,
0200
0001
0301
0000
,
0100
0010
1000
0000
0001
0000
0010
0000
,
0020
0000
0000
0030
,
0001
1000
0001
0000
0100
0000
0101
0000
,
0010
1000
0010
0000
0001
0000
1001
0000
,
0100
0010
0100
0000
1000
0001
1000
0000
,
0002
0203
0310
0000
,
0200
1000
0001
1300
,
0020
0100
0001
0130
,
0010
1000
0100
0001
0000
0000
1100
0000
,
0100
0010
0001
0100
0000
0000
0110
0000
,
2000
0001
0100
3001
,
0200
0010
1000
0310
,
1000
0100
0010
0000
0001
0100
1000
0000
,
0010
1000
0100
0000
0011
0000
1100
0000
,
0100
0001
1000
0110
,
0100
0001
1000
0000
,
0001
1000
0010
0100
,
2002
0000
0000
3003
,
0001
0100
0020
0000
2030
0000
3000
0000
,
0002
0010
0013
0000
,
0100
0010
1000
0000
0001
0000
0100
0000
,
2001
0000
0000
3000
,
0100
0001
1000
0000
0100
0000
0001
0000
,
0200
0010
0310
0000
,
0010
1000
0100
0000
0010
0000
0001
0000
,
1200
0000
0000
0300
,
0010
0001
0010
0000
0100
0000
1100
0000
,
0001
1000
0001
0000
0100
0000
0110
0000
,
0100
0010
1000
0000
0001
0100
1000
0000
,
0002
0203
0310
0000
,
0020
1000
0100
1030
,
0200
0010
0001
0310
,
1000
0001
0100
1000
0000
0000
0101
0000
,
0001
1000
0100
0001
0000
0000
1100
0000
,
0002
1000
0010
1003
,
0200
0001
1000
0301
,
1000
0100
0010
0000
0001
0010
0100
0000
,
1000
0001
0011
1100
,
0100
0001
0100
0000
0010
0000
0110
0000
,
0001
0100
1000
0000
0200
0000
0010
0000
,
0310
0000
0000
0000
;

//---------------dance-single - ----------------
#NOTEDATA:;
#CHARTNAME:;
#STEPSTYPE:dance-single;
#DESCRIPTION:;
#CHARTSTYLE:;
#DIFFICULTY:Hard;
#METER:10;
#RADARVALUES:0.402529,0.433946,0.235627,0.235627,0.000000,287.000000,263.000000,24.000000,24.000000,0.000000,0.000000,0.000000,0.000000,0.000000,0.402529,0.433946,0.235627,0.235627,0.000000,287.000000,263.000000,24.000000,24.000000,0.000000,0.000000,0.000000,0.000000,0.000000;
#CREDIT:;
#DISPLAYBPM:124.000000;
#NOTES:
0000
0000
0000
0000
,
0000
0000
0000
0000
,
0010
1000
0001
1000
0010
1000
0000
0000
,
0100
0001
0010
0001
0100
1000
0000
0000
,
0010
0100
0001
1000
0010
0100
0001
0200
,
0000
0000
0000
0000
0000
0300
0000
0000
,
1010
0101
0100
1001
,
0000
0010
1000
0100
0000
0000
0010
0001
,
0100
0000
0001
1000
0001
0100
1000
0200
,
0000
0320
0000
0000
0000
0030
0000
0000
,
1100
0101
0100
0110
,
1000
0000
0100
0000
0010
0000
0001
1000
,
0100
0000
0001
0100
1000
0100
0010
0200
,
0000
0320
0000
0000
0000
0000
0030
0000
,
0001
0010
1000
0000
0010
0100
0001
0000
,
0001
0100
1000
0000
0010
0100
0001
0000
,
1000
0010
0001
0000
0010
0100
1000
0000
,
0100
0010
0010
0010
0110
0000
0000
0000
,
1000
0001
1000
0001
0010
0100
0010
0000
,
0011
1100
0002
2003
,
3010
0100
0001
0010
0000
0000
0010
0100
,
1000
0010
0100
1000
0000
0100
0001
1000
,
0010
0100
0010
0100
0001
1000
0001
0000
,
1100
0101
0020
2030
,
3001
0100
1000
0100
0001
0100
0010
1000
,
0100
0001
0100
1000
0010
0100
1001
0000
,
0100
0001
1000
0001
0100
0001
0000
0000
,
0010
1000
0100
1000
0010
0001
0010
0000
,
0100
0010
1000
0001
0100
0010
1000
0200
,
0000
0000
0000
0300
,
0011
1010
0001
1001
,
0001
0000
0010
0000
0100
0000
1000
0010
,
0100
0000
0001
0010
0100
0001
0100
2000
,
0000
3020
0000
0000
0000
0000
0030
0000
,
1100
0110
0001
0011
,
1000
0000
0001
0000
0100
0000
0010
1000
,
0100
0000
0010
0100
0001
1000
0010
0200
,
0000
0302
0000
0000
0000
0000
0003
0000
,
0001
0010
1000
0000
0010
0100
0001
0000
,
0001
0100
1000
0000
0010
0100
0001
0000
,
1000
0010
0001
0000
0010
0100
1000
0000
,
0100
0010
0010
0010
0110
0000
0000
0000
,
1000
0100
1000
0001
0010
0001
0100
0000
,
1001
0110
0020
2030
,
3100
0001
0100
0010
0000
0000
0001
0100
,
0010
1000
0010
0100
0000
0001
1000
0010
,
0100
0001
0100
0001
1000
0010
1000
0000
,
0011
0110
2000
3002
,
0103
0010
1000
0001
0020
0000
0230
0000
,
2300
0001
0100
3001
,
0020
0000
0230
0000
2300
0000
3001
0100
,
1000
0100
0001
0100
0010
1000
0100
0000
,
1001
0000
0000
0000
;

//---------------dance-double - ----------------
#NOTEDATA:;
#CHARTNAME:;
#STEPSTYPE:dance-double;
#DESCRIPTION:;
#CHARTSTYLE:;
#DIFFICULTY:Easy;
#METER:3;
#RADARVALUES:0.176720,0.229736,0.058907,0.304351,0.000000,126.000000,120.000000,6.000000,31.000000,0.000000,0.000000,0.000000,0.000000,0.000000,0.176720,0.229736,0.058907,0.304351,0.000000,126.000000,120.000000,6.000000,31.000000,0.000000,0.000000,0.000000,0.000000,0.000000;
#CREDIT:;
#NOTES:
00000000
00000000
00000000
00000000
,
00000000
00000000
00000000
00000000
,
01000000
00000000
00100000
00000000
,
00001000
00000000
00010000
00000000
,
00001000
00000000
00000100
00000000
,
00001001
00000000
00000000
00000000
,
00000001
00000100
00001000
00000000
,
00010000
00000000
00100000
00000000
,
10000000
00010000
01000000
00000000
,
10010000
00000000
00000000
00000000
,
01000000
00010000
00001000
00000000
,
00000100
00000000
00000010
00000000
,
00001000
00000001
00000100
00000000
,
00001001
00000000
00000000
00000000
,
00000002
00000003
00000200
00000300
,
00002000
00003000
00020000
00030000
,
02000000
03000000
20000000
30000000
,
00200000
00000000
00000000
00300000
,
00010000
00001000
00010000
00001000
,
00000100
00000001
00000100
00000001
,
00000020
00000030
00000002
00000003
,
00000200
00000300
00002000
00003000
,
00001000
00010000
00001000
00010000
,
01000000
10000000
01000000
10000000
,
00020000
00030000
00200000
00300000
,
00002000
00003000
00020000
00030000
,
00011000
00000000
00001000
00000000
,
00000100
00000000
00000001
00000000
,
00000100
00000000
00001000
00000000
,
00020000
00000000
00000000
00030000
,
00010000
01000000
00010000
00000000
,
00001000
00000000
00000100
00000000
,
00001000
00010000
00001000
00000000
,
00011000
00000000
00000000
00000000
,
00100000
10000000
00100000
00000000
,
01000000
00000000
00010000
00000000
,
00010000
00001000
00010000
00000000
,
01100000
00000000
00000000
00000000
,
20000000
30000000
02000000
03000000
,
00020000
00030000
00002000
00003000
,
00000200
00000300
00000002
00000003
,
00000020
00000000
00000000
00000030
,
00000001
00001000
00000001
00001000
,
00000100
00000010
00000100
00000010
,
00000200
00000300
00020000
00030000
,
00002000
00003000
00200000
00300000
,
00010000
10000000
00010000
10000000
,
01000000
00100000
01000000
00100000
,
00020000
00030000
20000000
30000000
,
02000000
03000000
00020000
00030000
,
00001000
00000100
00000001
00000000
,
00000010
00000001
00000100
00001000
,
00010000
00000000
00000000
00000000
;

//---------------dance-double - ----------------
#NOTEDATA:;
#CHARTNAME:;
#STEPSTYPE:dance-double;
#DESCRIPTION:;
#CHARTSTYLE:;
#DIFFICULTY:Medium;
#METER:6;
#RADARVALUES:0.294533,0.331841,0.049089,0.265080,0.000000,210.000000,205.000000,5.000000,27.000000,0.000000,0.000000,0.000000,0.000000,0.000000,0.294533,0.331841,0.049089,0.265080,0.000000,210.000000,205.000000,5.000000,27.000000,0.000000,0.000000,0.000000,0.000000,0.000000;
#CREDIT:;
#NOTES:
00000000
00000000
00000000
00000000
,
00000000
00000000
00000000
00000000
,
00000100
00001000
00010000
01000000
,
01000000
00010000
00001000
00000100
,
00000100
00001000
00010000
01000000
,
20020000
00000000
00000000
30030000
,
10000000
01000000
00010000
00000000
00002000
00000000
00000000
00000000
,
00000000
00013000
00001000
00000010
00000000
00000000
00000000
00000000
,
00000100
00000000
00000001
00000000
00000010
00000100
00001000
00000200
,
00000000
00020300
00000000
00000000
00000000
00000000
00030000
00000000
,
00001000
00010000
01000000
00010000
01000000
00000000
10000000
00000000
,
00200000
00000000
00000000
00000000
00000000
00310000
00001000
00010000
,
00000010
00000000
00000100
00000000
00000001
00000100
00001000
00000100
,
00000000
00000002
00000000
00000000
00000000
00000000
00000003
00000000
,
00001000
00000000
00000100
00000000
00010000
00000000
00001000
00001000
,
00010000
00000000
01000000
00000000
00100000
00000000
00010000
10000000
,
10000000
00000000
00010000
00000000
01000000
00010000
00100000
00020000
,
00000000
00000000
00000000
00000000
00000000
10030000
01000000
00010000
,
00001000
00000000
00000100
00000000
00000001
00000000
00000010
00000200
,
00000000
00002300
00000000
00000000
00000000
00000000
00003000
00000000
,
00000010
00000001
00000100
00001000
00000000
00000000
00001000
00010000
,
00001000
00010000
01000000
00010000
00000000
00000000
10000000
00100000
,
01000000
00000000
00010000
00000000
00100000
00000000
01000000
20000000
,
00000000
30020000
00000000
00000000
00000000
00000000
00030000
00000000
,
00100000
00001000
00010000
00001000
00010000
00000000
00011000
00000000
,
00001000
00000100
00000001
00000000
00000020
00000000
00000032
00000000
,
00000103
00001000
00010000
01000000
,
01000000
00010000
00001000
00000100
,
00000100
00001000
00010000
01000000
,
20020000
00000000
00000000
30030000
,
00100000
10000000
01000000
00000000
00010000
00000000
00001000
00000000
,
00000010
00000000
00000001
00000000
00000000
00000000
00001000
00000001
,
00001000
00000000
00010000
00001000
00010000
00000000
00001000
00000200
,
00000000
00000320
00000000
00000000
00000000
00000000
00001030
00000001
,
00000100
00000001
00001000
00000000
00000000
00000000
00000100
00000000
,
00010000
00001000
00000100
00001000
,
00010000
00000000
01000000
10000000
01000000
00100000
01000000
20000000
,
00000000
30200000
00000000
00000000
00000000
00000000
00300000
00000000
,
00010000
00000000
01000000
00000000
00001000
00000000
00010000
00010000
,
00001000
00000000
00000100
00000000
00000010
00000000
00001000
00000001
,
00000001
00000000
00001000
00000000
00000100
00001000
00000010
00002000
,
00000000
00000000
00000000
00000000
00000000
00003001
00000100
00001000
,
00010000
00000000
01000000
00000000
10000000
00000000
00100000
02000000
,
00000000
03020000
00000000
00000000
00000000
00000000
00030000
00000000
,
00100000
10000000
01000000
00010000
00000000
00000000
00010000
00001000
,
00010000
00001000
00000100
00001000
00000000
00000000
00000001
00000100
,
00000010
00000000
00001000
00000000
00000001
00000000
00000100
00000020
,
00000000
00002030
00000000
00000000
00000000
00000000
00003000
00000000
,
00000100
00010000
00001000
00010000
00001000
00000000
00011000
00000000
,
00000000
00002000
00000000
02003000
00000000
00000000
03000000
00000000
,
00100000
10000000
01000000
00010000
,
00001000
00000010
00000001
00000100
,
00001001
00000000
00000000
00000000
;

//---------------dance-double - ----------------
#NOTEDATA:;
#CHARTNAME:;
#STEPSTYPE:dance-double;
#DESCRIPTION:;
#CHARTSTYLE:;
#DIFFICULTY:Hard;
#METER:7;
#RADARVALUES:0.373076,0.408420,0.058907,0.549796,0.000000,266.000000,260.000000,6.000000,56.000000,0.000000,0.000000,0.000000,0.000000,0.000000,0.373076,0.408420,0.058907,0.549796,0.000000,266.000000,260.000000,6.000000,56.000000,0.000000,0.000000,0.000000,0.000000,0.000000;
#CREDIT:;
#NOTES:
00000000
00000000
00000000
00000000
,
00000000
00000000
00000000
00000000
,
00000010
00000001
00000100
00001000
00000100
00001000
00000000
00000000
,
00010000
01000000
10000000
00100000
10000000
00100000
00000000
00000000
,
00010000
00001000
00000100
00000010
00000100
00000010
00001000
00000002
,
00000000
00000000
00000000
00000003
,
00001000
00000001
00002000
00000000
00003200
00000000
00020300
00000000
,
00032000
00203000
00320000
20030000
,
30100000
01000000
00010000
00100000
00001000
00010000
00001000
00020000
,
00000000
00000200
00000000
00000000
00000000
00000000
00030300
00000000
,
00001000
00000001
00001000
00000100
00000010
00000001
00000100
00002000
,
00000000
00023000
00230000
02300000
,
03010000
10000000
00100000
01000000
00010000
10000000
01000000
00020000
,
00000000
00002000
00000000
00000000
00000000
00000000
00033000
00000000
,
00010000
00001000
00010000
00000000
00000100
00000010
00000001
00000000
,
00000100
00001000
00000100
00000000
00001000
00010000
01000000
00000000
,
10000000
00010000
10000000
00000000
00100000
00010000
00001000
00000000
,
00010000
00001000
00000100
00000010
00000110
00000000
00000000
00000000
,
00000010
00001000
00000100
00010000
00001000
00010000
00000200
00000000
,
00002300
00003002
00002003
00003200
,
00010300
00001000
00010000
01000000
00000000
00000000
00010000
00001000
,
00010000
01000000
10000000
01000000
00000000
00000000
00000000
00000000
,
00100000
00010000
01000000
00001000
00010000
00001000
02000000
00000000
,
03020000
20030000
30020000
02030000
,
03100000
10000000
01000000
10000000
01000000
00010000
01000000
00010000
,
00001000
00010000
00001000
00000100
00001000
00000100
00000001
00000000
,
00000010
00000001
00000100
00001000
00000100
00001000
00000000
00000000
,
00010000
01000000
10000000
00100000
10000000
00100000
00000000
00000000
,
00010000
00001000
00000100
00000010
00000100
00000010
00001000
00000002
,
00000000
00000000
00000000
00000003
,
00001000
00000100
00002000
00000000
00003200
00000000
00020300
00000000
,
00032000
00203000
00320000
02030000
,
03010000
10000000
01000000
00100000
00010000
01000000
00100000
20000000
,
00000000
02000000
00000000
00000000
00000000
00000000
33000000
00000000
,
00100000
01000000
00001000
00010000
00000000
00002020
00000000
00000000
,
00003030
00000002
00002003
00003002
,
00000103
00000010
00001000
00000100
00010000
00001000
00010000
00000200
,
00000000
00002000
00000000
00000000
00000000
00000000
00003300
00000000
,
00000001
00000100
00000001
00000000
00000100
00001000
00010000
00000000
,
01000000
00100000
01000000
00000000
00010000
10000000
00100000
00000000
,
10000000
01000000
10000000
00000000
00010000
00100000
01000000
00000000
,
00100000
01000000
10000000
00100000
01100000
00000000
00000000
00000000
,
00010000
00100000
00001000
00010000
00001000
00100000
00020000
00000000
,
02030000
03002000
00023000
00030200
,
00001300
00000100
00001000
00010000
00000000
00000000
00001000
00000100
,
00001000
00010000
00100000
00010000
00000000
00000000
00000000
00000000
,
00001000
00000100
00000001
00000010
00000100
00001000
00000200
00000000
,
00002300
00003002
00000203
00002300
,
00013000
01000000
10000000
00100000
01000000
00000000
00010000
00000000
,
00000000
01001000
00000000
00011000
00000000
00000000
00000000
00010000
,
00002000
00000000
00003200
00000000
00000302
00000000
00000013
00000001
,
00000100
00001000
00010000
01000000
10000000
00100000
01000000
00000000
,
10010000
00000000
00000000
00000000
;

//---------------dance-single - ----------------
#NOTEDATA:;
#CHARTNAME:;
#STEPSTYPE:dance-single;
#DESCRIPTION:;
#CHARTSTYLE:;
#DIFFICULTY:Challenge;
#METER:14;
#RADARVALUES:0.617118,0.692522,0.323987,0.294533,0.255262,440.000000,407.000000,33.000000,30.000000,0.000000,0.000000,0.000000,0.000000,0.000000,0.617118,0.692522,0.323987,0.294533,0.255262,440.000000,407.000000,33.000000,30.000000,0.000000,0.000000,0.000000,0.000000,0.000000;
#CREDIT:;
#NOTES:
// measure 0
0000
0000
0000
0000
,  // measure 1
0000
0000
0000
0000
,  // measure 2
0010
0010
0001
1000
0100
0010
1000
1000
,  // measure 3
0010
0010
0001
0010
0100
0100
1000
0001
,  // measure 4
0100
0000
0100
0000
0010
0000
1000
0000
0001
0000
0001
0000
0100
0000
0010
1000
,  // measure 5
0010
1000
0100
0001
0100
1000
0010
0100
,  // measure 6
0001
0010
0100
0000
1001
0000
1100
0000
,  // measure 7
1000
0000
0010
0100
0001
0000
0010
0000
0100
0000
0000
0100
0010
0000
0100
0000
,  // measure 8
0010
0000
0000
0010
1000
0000
0001
0000
0100
0000
0010
0000
1000
0000
0200
0000
,  // measure 9
0000
0002
0000
0303
0000
0001
0010
0100
,  // measure 10
1000
0000
1010
1000
0100
0020
0000
0130
,  // measure 11
0002
0000
1000
0000
0103
0001
0100
0010
,  // measure 12
1000
1000
0010
0100
0010
0010
0001
0200
,  // measure 13
0000
0020
0000
0330
0000
0100
0010
1000
,  // measure 14
0010
0000
0010
0000
0001
0000
0100
0000
1000
0000
1000
0000
0010
0100
0010
0000
,  // measure 15
1000
0000
1000
0000
0001
0000
0100
0000
0010
0000
0010
0000
1000
0100
1000
0000
,  // measure 16
0010
0000
0010
0000
0100
0000
1000
0000
0001
0000
0001
0000
1000
0001
1000
0000
,  // measure 17
1001
1001
1001
1001
1001
0100
0010
0001
,  // measure 18
0010
0000
1000
0010
1000
0000
0100
0000
0001
0000
1000
0001
1000
0000
0020
0000
,  // measure 19
0000
0230
0000
0302
0000
1003
0100
0001
,  // measure 20
0100
0000
0010
0100
1000
0000
0200
0000
0000
0000
0310
0000
1000
0010
1000
0000
,  // measure 21
0100
0000
0100
0000
0010
0000
1000
0000
0000
0000
1000
0001
1000
0000
0100
0000
,  // measure 22
0010
0000
0100
0010
0100
0000
0010
0000
0001
0000
1000
0001
1000
0000
0200
0000
,  // measure 23
0000
0302
0000
2003
0000
3010
0100
0001
,  // measure 24
0010
0001
0010
0000
0100
0000
1000
0000
0010
1000
0010
0000
0100
0000
0001
0000
,  // measure 25
1000
0001
1000
0000
0001
1000
0001
0000
1000
0000
0100
0000
0010
0000
0001
0000
,  // measure 26
0101
0100
0010
0100
1100
1000
0001
0100
,  // measure 27
0110
0010
1000
0100
0101
0001
0010
1000
,  // measure 28
1010
0010
0001
0100
0110
0010
1000
0001
,  // measure 29
2002
0000
0000
3003
1000
0001
0100
0010
,  // measure 30
1000
0000
0100
1000
0100
0000
0010
0000
0001
0000
0100
0000
0010
1000
0010
1000
,  // measure 31
0010
0100
0010
0000
0002
0000
0000
0000
0103
0000
0010
0000
1000
0100
0001
0000
,  // measure 32
0100
0000
0010
1000
0100
0000
0010
0000
0002
0000
0203
0000
0320
0000
2030
0000
,  // measure 33
0000
0000
3100
0000
0010
0000
0001
0000
0100
0000
0010
0000
1000
0001
1000
0000
,  // measure 34
0001
0000
0010
0000
0100
0000
1000
0000
0000
0000
0001
0010
0100
1000
0100
0010
,  // measure 35
0002
0000
0000
0200
0000
0303
0000
0100
,  // measure 36
0010
0000
1000
0010
0100
0000
0010
0000
0200
0000
0320
0000
0230
0000
0320
0000
,  // measure 37
0000
1030
0200
0000
0310
0001
0100
0010
,  // measure 38
1000
1000
0010
0100
0001
0001
0010
1000
,  // measure 39
0100
0000
0100
0000
0010
0000
0001
0000
0010
0000
0010
0000
1000
0001
1000
0000
,  // measure 40
0010
0010
0100
0010
0001
0001
1000
0010
,  // measure 41
0110
0110
0110
0110
0110
0001
1000
0010
,  // measure 42
0100
0000
0001
0100
0001
0000
1000
0100
1000
0000
0010
0100
0010
0000
0011
0000
,  // measure 43
0000
0110
0000
1100
0000
1010
1000
0100
,  // measure 44
0010
0000
0001
0010
0100
0000
2000
0000
0000
0000
3010
0000
0100
0000
0001
0000
,  // measure 45
0100
0010
0100
0010
0100
0010
0100
0000
0000
0000
1010
0000
0011
0000
1010
0000
,  // measure 46
0011
0000
0001
0100
0001
0000
0010
1000
0010
0000
1000
0100
1000
0000
1010
0000
,  // measure 47
0000
0110
0000
0101
0000
0011
0001
0100
,  // measure 48
0010
0100
1000
0000
0010
0000
0100
0000
0001
1000
0001
1000
0001
0000
0100
0000
,  // measure 49
0010
1000
0010
1000
0010
0000
0100
0000
0010
0001
0010
0001
0010
0000
0100
0000
,  // measure 50
1000
0001
1000
0000
0001
1000
0001
0000
1000
0001
1000
0000
0010
0100
0010
0100
,  // measure 51
0010
0010
0001
0001
0100
0100
1000
0001
,  // measure 52
2002
3003
0000
0000
;
