#TITLE:THAT'S SO RAVEN THEME SONG;
#SUBTITLE:;
#ARTIST:THAT'S SO RAVEN;
#TITLETRANSLIT:;
#SUBTITLETRANSLIT:;
#ARTISTTRANSLIT:;
#GENRE:;
#CREDIT:;
#BANNER:THAT'S SO RAVEN THEME SONG.png;
#BACKGROUND:THAT'S SO RAVEN THEME SONG-bg.png;
#LYRICSPATH:;
#CDTITLE:;
#MUSIC:THAT'S SO RAVEN THEME SONG.mp3;
#OFFSET:-0.040000;
#SAMPLESTART:0.020000;
#SAMPLELENGTH:15.000000;
#SELECTABLE:YES;
#DISPLAYBPM:122.000000:126.000000;
#BPMS:0.000000=126.999992
,4.000000=124.999992
,94.000000=122.000000
,98.000000=124.999992
;
#STOPS:
;
#BGCHANGES:0.000=THAT'S SO RAVEN THEME SONG.avi=1.000=0=0=0=StretchNoLoop====,
99999=-nosongbg-=1.000=0=0=0 // don't automatically add -songbackground-
;
#KEYSOUNDS:;
#ATTACKS:;

//---------------dance-single - ----------------
#NOTES:
     dance-single:
     :
     Beginner:
     2:
     0.117907,0.155928,0.094027,0.020895,0.000000,79.000000,70.000000,9.000000,2.000000,0.000000,0.000000,0.117907,0.155928,0.094027,0.020895,0.000000,79.000000,70.000000,9.000000,2.000000,0.000000,0.000000:
0000
0000
0000
0000
,
0000
0000
0000
0000
,
0000
0000
0000
0000
,
0000
0000
0000
0000
,
0001
0000
1000
0000
,
0010
0000
0000
0000
,
1000
0000
0000
0000
,
0001
0000
0000
0000
,
0001
0000
1000
0000
,
1001
0000
0000
0000
,
1001
0000
0000
0000
,
0110
0000
0000
0000
,
0110
0000
0000
0000
,
0010
0000
1000
0000
,
0001
0000
0000
0000
,
0100
0000
1000
0000
,
0001
0000
0000
0000
,
0001
0000
0001
0000
,
1000
0000
1000
0000
,
0100
0000
0010
0000
,
0100
0000
0001
0000
,
1000
0000
1000
0000
,
0001
0000
0010
0000
,
0100
0000
1000
0000
,
0001
0000
1000
0000
,
1000
0000
0000
0000
,
0001
0000
0000
0000
,
0010
0000
0000
0000
,
0100
0000
1000
0000
,
0010
0000
0000
0000
,
0001
0000
0000
0000
,
1000
0000
0000
0000
,
0100
0000
0100
0000
,
1001
0000
0000
0000
,
1001
0000
0000
0000
,
0110
0000
0000
0000
,
0110
0000
0000
0000
,
0100
0000
0001
0000
,
1000
0000
0000
0000
,
0010
0000
0001
0000
,
1000
0000
0000
0000
,
1000
0000
1000
0000
,
0001
0000
0001
0000
,
0010
0000
0100
0000
,
0010
0000
1000
0000
,
0001
0000
0001
0000
,
1000
0000
0100
0000
,
0010
0000
0001
0000
,
1000
0000
0001
0000
,
0202
0000
0000
0303
;

//---------------dance-single - ----------------
#NOTES:
     dance-single:
     :
     Easy:
     5:
     0.259694,0.311857,0.188054,0.052237,0.000000,174.000000,156.000000,18.000000,5.000000,0.000000,0.000000,0.259694,0.311857,0.188054,0.052237,0.000000,174.000000,156.000000,18.000000,5.000000,0.000000,0.000000:
0000
0000
0000
0000
,
0000
0000
0000
0000
,
0000
0000
0000
0000
,
1000
0001
1000
0000
,
0001
0010
0100
1000
,
0100
0010
0100
0000
,
1000
0001
0010
1000
,
0100
0000
0001
0000
,
1000
1000
0001
0001
,
0010
0000
0001
1000
,
0100
0010
1000
0001
,
0110
0000
0110
0000
,
0001
1000
0100
0001
,
0010
0000
1000
0000
,
0001
0000
0100
0000
,
0010
0000
1000
0001
,
0010
0100
1000
0001
,
1000
0010
1000
0110
,
0001
0010
1000
0100
,
0001
1000
0110
1001
,
0001
0010
0100
0000
,
0110
1001
0100
0110
,
1000
0010
0001
0100
,
0001
1000
0010
0100
,
0001
0001
1000
0000
,
0010
1000
0001
0200
,
0000
0000
0300
0001
,
1000
0100
0010
0001
,
0100
0010
1000
0001
,
0001
0010
0100
1000
,
0220
0000
0000
0330
,
1000
0100
0100
0001
,
0010
0010
0100
0000
,
1000
1000
0001
0001
,
0100
1000
0001
0010
,
0001
0000
0010
0000
,
1000
1001
0100
0110
,
1000
0000
0001
0000
,
0100
0000
0010
0000
,
0001
1000
0000
0010
,
0100
0010
0001
0001
,
1000
0100
0001
0110
,
1000
0100
0001
0010
,
1000
0001
0110
1001
,
1000
0100
0010
0000
,
0110
1001
0010
0110
,
0001
0100
1000
0010
,
1000
0001
0100
0010
,
1000
1000
0001
0010
,
2020
0000
0000
3030
;

//---------------dance-single - ----------------
#NOTES:
     dance-single:
     :
     Medium:
     8:
     0.285067,0.363833,0.282082,0.104475,0.000000,191.000000,164.000000,27.000000,10.000000,0.000000,0.000000,0.285067,0.363833,0.282082,0.104475,0.000000,191.000000,164.000000,27.000000,10.000000,0.000000,0.000000:
0000
0000
0000
0000
,
0000
0000
0000
0000
,
0000
0000
0000
0000
,
1000
0001
1000
0000
,
0001
0010
0100
1000
,
0100
0010
0100
0000
,
1000
0001
0100
0000
,
0001
1000
0010
0010
,
1000
0100
0010
0001
,
1100
0010
0001
0000
,
0011
0100
1000
0000
,
1001
0000
0110
0000
,
0001
0001
0100
0100
,
1000
0010
0100
0000
,
0001
0100
0010
0000
,
1000
0100
0001
0000
,
0001
0010
1000
0000
,
0010
1000
0100
0000
0011
0000
0022
0000
,
0000
0000
0000
0033
,
0100
0001
0010
0000
1100
0000
2200
0000
,
0000
0000
0000
3300
,
0010
0001
0010
0000
0110
0000
1100
0000
,
0010
0000
0100
0000
0001
1000
0010
0000
,
0100
1000
0100
0000
0110
0000
0011
0000
,
0100
0000
0010
0000
1000
0001
0100
0000
,
0010
0000
1000
0000
0001
0100
0001
0000
,
0010
0100
1100
0000
,
0100
0000
0001
0000
1000
0100
1000
0000
,
0001
0010
0100
1000
,
0100
0000
0001
0000
1000
0010
1000
0000
,
0100
0010
0011
0000
,
0010
0000
1000
0000
0001
0010
0001
0000
,
1000
0100
0010
0001
,
0011
0100
1000
0000
,
1100
0010
0001
0000
,
1001
0000
0110
0000
,
1000
1000
0010
0010
,
0001
0100
0010
0000
,
1000
0010
0100
0000
,
0001
0010
1000
0000
,
1000
0100
0001
0000
,
0100
0001
0010
0000
1100
0000
2200
0000
,
0000
0000
0000
3300
,
0010
1000
0100
0000
0011
0000
0022
0000
,
0000
0000
0000
0033
,
0100
1000
0100
0000
0110
0000
0011
0000
,
0100
0000
0010
0000
1000
0001
0100
0000
,
0010
0001
0010
0000
0110
0000
1100
0000
,
0010
0000
0100
0000
0001
1000
0010
0000
,
0220
0000
0000
0330
;

//---------------dance-single - ----------------
#NOTES:
     dance-single:
     :
     Hard:
     10:
     0.365661,0.415809,0.407451,0.240292,0.041790,245.000000,206.000000,39.000000,23.000000,0.000000,0.000000,0.365661,0.415809,0.407451,0.240292,0.041790,245.000000,206.000000,39.000000,23.000000,0.000000,0.000000:
0000
0000
0000
0000
,
0000
0000
0000
0000
,
0000
0000
0000
0000
,
1000
0001
0010
0000
,
2000
3002
0203
0320
,
1030
0000
0000
0010
0000
0000
0200
0000
0000
0000
0000
0000
0300
0000
0000
0000
,
0001
0000
0000
1000
0000
0000
0001
0000
0000
0000
0000
0000
0100
0000
0000
0000
,
0002
0000
0000
0003
,
1000
0100
0010
0001
,
1000
0010
0100
0000
0001
0000
0010
0000
,
1000
0001
0100
0000
0010
0000
1000
0000
,
0001
1000
0100
0000
0010
0000
0001
0000
,
0002
0023
0230
1300
,
1100
0000
0001
1000
0001
0000
0110
0000
,
0011
0000
0100
1000
0000
0010
0001
0000
,
0011
0000
1000
0001
1000
0000
0110
0000
,
1100
0000
0010
0001
0000
0100
1000
0000
,
0110
0110
1001
0110
,
0010
1000
0001
0000
1000
0001
0100
0000
,
1001
1001
0110
1001
,
0100
0001
1000
0000
0001
1000
0010
0000
,
0101
1100
0011
1010
,
1000
0100
0001
0000
0001
0100
1000
0000
,
1010
0101
0011
1100
,
0001
0010
1000
0000
1000
0010
0001
0000
,
0001
0000
0000
0100
0000
0000
0020
0000
0000
0000
0000
0000
0030
0000
0000
0000
,
1000
0000
0000
0001
0000
0000
2000
0000
0000
0000
0000
0000
3010
0000
0000
0000
,
0100
0000
0000
0010
0000
0000
0002
0000
0000
0000
0000
0000
0003
0000
0000
0000
,
0100
1000
0001
0010
,
1000
0000
0000
0100
0000
0000
0002
0000
0000
0000
0000
0000
0003
0000
0000
0000
,
0100
0000
0000
1000
0000
0000
0020
0000
0000
0000
0000
0000
0130
0000
0000
0000
,
0001
0000
0000
0010
0000
0000
0200
0000
0000
0000
0000
0000
1300
0000
0000
0000
,
0010
0001
1000
0100
,
0001
0100
0010
0000
1000
0000
0100
0000
,
0001
1000
0010
0000
0100
0000
0001
0000
,
1000
0001
0010
0000
0100
0000
1000
0000
,
2000
3200
0320
0031
,
0001
0100
0010
0000
1000
0000
0100
0000
,
0001
1000
0010
0000
0100
0000
0001
0000
,
1000
0001
0010
0000
0100
0000
1000
0000
,
0002
0023
0230
1300
,
0110
0110
1001
0110
,
0100
0001
1000
0000
0001
1000
0010
0000
,
1001
1001
0110
1001
,
0010
1000
0001
0000
1000
0001
0100
0000
,
1010
0011
1100
0101
,
0001
0010
1000
0000
1000
0010
0001
0000
,
0101
1010
1100
0011
,
1000
0100
0001
0000
0001
0100
1000
0000
,
2002
0000
0000
3003
;

//---------------dance-double - ----------------
#NOTES:
     dance-double:
     :
     Easy:
     2:
     0.179099,0.204770,0.083580,0.010447,0.000000,120.000000,112.000000,8.000000,1.000000,0.000000,0.000000,0.179099,0.204770,0.083580,0.010447,0.000000,120.000000,112.000000,8.000000,1.000000,0.000000,0.000000:
00000000
00000000
00000000
00000000
,
00000000
00000000
00000000
00000000
,
00000000
00000000
00000000
00000000
,
00000001
00000000
00000100
00000000
,
00010000
00100000
00100000
00000000
,
10000000
00000000
00100000
00000000
,
00001000
00010000
00010000
00000000
,
00000010
00000000
00000100
00000000
,
00000001
00000000
00000001
00000000
,
00000010
00000000
00001000
00000000
,
00010000
00000000
01000000
00000000
,
10000000
00000000
00100000
00000000
,
00010000
00010000
00001000
00001000
,
00000010
00000000
00000100
00000000
,
00000001
00000000
00000010
00000100
,
00001000
00000000
00010000
00000000
,
01000000
10000000
00100000
00000000
,
10010000
00010000
00010000
00000000
,
00100000
00000000
00001000
00000000
,
00011000
00010000
00010000
00000000
,
00000100
00000000
00000010
00000000
,
00001001
00001000
00001000
00000000
,
00000010
00000000
00010000
00000000
,
00011000
00001000
00001000
00000000
,
01000000
00000000
00100000
00000000
,
01000000
00000000
00100000
00000000
,
10000000
01000000
01000000
00000000
,
00100000
00000000
00001000
00000000
,
00010000
00000100
00000100
00000000
,
00000010
00000000
00000001
00000000
,
00000200
00000000
00000000
00000300
,
00001000
00000000
00010000
00000000
,
00100000
01000000
01000000
00000000
,
10000000
00000000
00010000
00000000
,
01000000
00000000
00001000
00000000
,
00010000
00000000
00000010
00000000
,
00000100
00000000
00000001
00000001
,
00000100
00000000
00000010
00000000
,
00001000
00000000
00000001
00000100
,
00010000
00000000
00001000
00000000
,
00100000
00010000
01000000
00000000
,
10010000
10000000
10000000
00000000
,
01000000
00000000
00001000
00000000
,
00011000
00001000
00001000
00000000
,
00000100
00000000
00000010
00000000
,
00000110
00000100
00000100
00000000
,
00000001
00000000
00000010
00000000
,
00001000
00000000
00010000
00000000
,
00100000
10000000
01000000
00000000
,
10010000
00000000
00000000
00000000
;

//---------------dance-double - ----------------
#NOTES:
     dance-double:
     :
     Medium:
     4:
     0.243277,0.307155,0.177607,0.020895,0.000000,163.000000,146.000000,17.000000,2.000000,0.000000,0.000000,0.243277,0.307155,0.177607,0.020895,0.000000,163.000000,146.000000,17.000000,2.000000,0.000000,0.000000:
00000000
00000000
00000000
00000000
,
00000000
00000000
00000000
00000000
,
00000000
00000000
00000000
00000000
,
10000000
00000000
01000000
00000000
,
00010000
00001000
00001000
00000000
,
00000010
00000100
00000100
00000000
,
00000001
00000000
00000010
00000000
,
00001000
00000000
00010000
00000000
,
00100000
10000000
00010000
01000000
,
00001000
00000000
00010000
00000000
,
00000010
00001000
00000001
00000000
,
00000100
00000000
00000001
00000000
,
00001000
00010000
01000000
10000000
,
01100000
00000000
01000000
00000000
,
00010000
00001000
00010000
00000010
,
00000001
00000000
00000100
00000000
,
00001000
01000000
00010000
10000000
,
10010000
01000000
00001000
00010000
,
00000010
00001000
00000001
00001000
,
00001001
00000010
00010000
00001000
,
01000000
00010000
10000000
00010000
,
10010000
01000000
00001000
00010000
,
00000010
00001000
00000001
00001000
,
00001001
00000100
00010000
00001000
,
01000000
00010000
01100000
10010000
,
01000000
00100000
00100000
00000000
,
10000000
00000000
01000000
00000000
,
00010000
00000000
00001000
00000000
,
00000100
00000001
00001000
00000010
,
00001000
00010000
00100000
01000000
,
02200000
00000000
00000000
03300000
,
10000000
01000000
00010000
00000000
,
00001000
00000010
00000100
00000000
,
00000001
00000000
00000001
00000000
,
00000100
00000000
00001000
00000000
,
00000100
00000000
00010000
00000000
,
10010000
00000000
01100000
00000000
,
10010000
00000000
01000000
00000000
,
00010000
00001000
00010000
00000010
,
00000001
00000000
00000100
00000000
,
00001000
01000000
00010000
10000000
,
10010000
01000000
00001000
00010000
,
00000010
00001000
00000001
00001000
,
00001001
00000100
00010000
00001000
,
01100000
10000000
00010000
01000000
,
00001000
00000010
00000100
00001000
,
00001001
00000010
00001000
00000100
,
00010000
00001000
01000000
10010000
,
01000000
00100000
00010000
10000000
,
10010000
00000000
00000000
00000000
;

//---------------dance-double - ----------------
#NOTES:
     dance-double:
     :
     Hard:
     7:
     0.373124,0.409541,0.323871,0.334319,0.041790,250.000000,219.000000,31.000000,32.000000,0.000000,0.000000,0.373124,0.409541,0.323871,0.334319,0.041790,250.000000,219.000000,31.000000,32.000000,0.000000,0.000000:
00000000
00000000
00000000
00000000
,
00000000
00000000
00000000
00000000
,
00000000
00000000
00000000
00000000
,
00000001
00000000
00000000
00000100
00000000
00000000
00001000
00000000
00000000
00000000
00000000
00000000
00010000
00000000
00000000
00000000
,
00200000
20300000
32000000
03200000
,
00310000
00000000
00000000
00001000
00000000
00000000
00020000
00000000
00000000
00000000
00000000
00000000
00030000
00000000
00000000
00000000
,
00000010
00000000
00000000
00000100
00000000
00000000
00000001
00000000
00000100
00000000
00000000
00000000
00001000
00000000
00000000
00000000
,
00000010
00001000
00010000
01000000
,
00010000
10000000
01000000
00100000
,
01000000
00010000
00001000
00000000
00010000
00001000
00000010
00000000
,
00001000
00000010
00000100
00000000
00000100
00001000
00000001
00000000
,
00000100
00000010
00001000
00000000
00000100
00001000
00010000
00000000
,
00001000
00010000
02000000
00000000
03200000
00000000
10300000
00000000
,
00100000
00000000
01000000
10000000
00010000
00000000
00100000
00000000
,
00110000
00000000
00011000
00000000
00001100
00000000
00000010
00000001
,
00000100
00000000
00000010
00000001
00001000
00000000
00000100
00000000
,
00001100
00000000
00011000
00000000
00110000
00000000
01000000
10000000
,
02000000
03020000
00032000
00003020
,
00000130
00000000
00000100
00000000
00001000
00000001
00000010
00000000
,
00000020
00002030
00023000
02030000
,
03100000
00000000
00100000
00000000
00010000
10000000
01000000
00000000
,
01010000
00011000
00001010
00001001
,
00000001
00000100
00001000
00000100
00000001
00000000
00001000
00000000
,
00001010
00011000
01010000
10010000
,
10000000
00100000
00010000
00100000
10000000
00000000
00010000
00000000
,
01000000
00000000
00000000
00010000
00000000
00000000
00002000
00000000
00000000
00000000
00000000
00000000
00013000
00000000
00000000
00000000
,
00010000
00000000
00000000
00000010
00000000
00000000
00002000
00000000
00000000
00000000
00000000
00000000
00003001
00000000
00000000
00000000
,
00000010
00000000
00000000
00000100
00000000
00000000
00020000
00000000
00000000
00000000
00000000
00000000
00031000
00000000
00000000
00000000
,
00100000
01100000
10000000
10010000
,
00100000
00000000
00000000
01000000
00000000
00000000
00002000
00000000
00000000
00000000
00000000
00000000
00013000
00000000
00000000
00000000
,
00010000
00000000
00000000
00000010
00000000
00000000
00000002
00000000
00000000
00000000
00000000
00000000
00000103
00000000
00000000
00000000
,
00000010
00000100
00001000
00000000
00022000
00000000
00033000
00000000
,
00010000
01010000
11000000
10010000
,
00100000
01000000
00001000
00000000
00010000
00001000
00000100
00000000
,
00001000
00000100
00000001
00000000
00000100
00001000
00000001
00000000
,
00000100
00000010
00001000
00000000
00001000
00010000
01000000
00000000
,
20000000
32000000
03200000
00310000
,
00100000
00000000
01000000
10000000
00010000
00000000
00100000
00000000
,
00010000
00000000
00011000
00000000
00001000
00000000
00000010
00000001
,
00000100
00000000
00000010
00001000
00000001
00000000
00000100
00000000
,
00001000
00000000
00011000
00000000
00010000
00000000
01000000
10000000
,
02000000
03020000
00032000
00003020
,
00000130
00000000
00000100
00000000
00001000
00000001
00000010
00000000
,
00000020
00002030
00003002
00000103
,
00001010
00011000
01010000
10010000
,
10000000
00100000
00010000
00100000
10000000
00000000
00010000
00000000
,
01010000
00011000
00001010
00001001
,
00000001
00000100
00001000
00000100
00000001
00000000
00001000
00000000
,
00000001
00000000
00001000
00000100
00000010
00000001
00000010
00000000
,
00001100
00000000
00000000
00000000
;

//---------------dance-single - ----------------
#NOTES:
     dance-single:
     :
     Challenge:
     14:
     0.802962,0.775724,0.637295,0.762665,0.830573,538.000000,477.000000,61.000000,73.000000,0.000000,0.000000,0.802962,0.775724,0.637295,0.762665,0.830573,538.000000,477.000000,61.000000,73.000000,0.000000,0.000000:
// measure 0
0000
0000
0000
0000
,  // measure 1
0000
0000
0000
0000
,  // measure 2
0000
0000
0000
0000
0000
0000
0000
0000
0000
0000
0000
0000
0001
0000
0100
0010
,  // measure 3
1000
0000
0100
0010
0001
0000
1000
0010
0100
0001
0010
0100
0010
1000
0100
0010
,  // measure 4
2000
0000
3200
0000
0302
0000
0203
0000
2300
0000
3020
0000
0130
0001
0010
0001
,  // measure 5
0100
0010
0000
1000
0010
0000
1000
0100
0000
0001
0010
0000
0001
0010
0100
0010
,  // measure 6
2000
0000
3020
0000
0032
0000
0023
0000
2030
0000
3200
0000
0310
0001
1000
0001
,  // measure 7
0010
0001
0000
0100
0001
0000
2000
0000
3020
0000
0230
0000
0302
0000
1003
0000
,  // measure 8
1100
0000
0000
0000
0110
0000
0000
0000
0011
0000
0001
0000
1000
0001
0100
0000
,  // measure 9
0101
0000
0001
0010
0100
0000
1100
0000
1000
0010
0100
0000
0101
0000
0001
1000
,  // measure 10
0010
1000
0100
1000
0100
0010
1000
0000
1100
0000
0100
0010
0001
1000
0010
0000
,  // measure 11
0011
0000
0001
0100
0010
0000
1010
0000
1100
0000
1000
0010
0100
0000
0101
0000
,  // measure 12
0002
0000
0023
0000
2030
0000
3200
0000
0302
0000
0203
0000
2300
0000
3010
0100
,  // measure 13
0001
0000
1000
0100
0010
0000
1010
0000
1100
0000
1000
0010
0100
0001
0010
0000
,  // measure 14
0011
0000
0001
0100
0010
0000
1010
0000
0110
0000
0100
0001
1000
0100
0010
0000
,  // measure 15
0010
0001
0100
0001
0010
0001
0100
0001
0010
0000
1010
0000
1000
0100
0010
0001
,  // measure 16
0100
0000
0010
1000
0100
0000
1100
0000
0110
0000
0010
0001
0100
0000
0101
0000
,  // measure 17
1000
0100
0001
0000
0001
0100
1000
0000
1000
0100
0001
0100
1000
0000
0000
0000
,  // measure 18
2000
3200
0302
0203
2300
3200
0301
0000
,  // measure 19
0001
0100
1000
0000
1000
0100
0001
0000
0001
0100
1000
0100
0001
0010
0100
1000
,  // measure 20
0200
0000
0000
0310
0002
0000
0000
0013
0200
0000
0000
0310
2000
0000
0000
3100
,  // measure 21
0010
0001
1000
0000
0010
1000
0001
0000
0010
1000
0001
0010
1000
0000
0000
0000
,  // measure 22
0020
2030
3020
0032
0023
2030
3010
0000
,  // measure 23
1000
0010
0001
0000
0001
0010
1000
0000
1000
0010
0001
0010
1000
0010
0100
0001
,  // measure 24
0020
0000
0000
0130
0002
0000
0000
0013
2000
0000
0000
3100
0010
0001
0000
0101
,  // measure 25
0000
1010
0000
0101
0000
0011
0000
0110
0000
1200
0000
0000
0000
0000
0000
0001
,  // measure 26
0000
1000
0000
0000
0000
0000
0000
1000
0000
0301
0000
0010
0100
1000
0010
0100
,  // measure 27
0001
0000
0010
0100
1000
0000
1000
0100
0010
0001
0100
0001
1000
0100
0010
0001
,  // measure 28
0200
0000
2300
0000
3200
0000
0302
0000
0023
0000
2030
0000
3010
0001
1000
0010
,  // measure 29
0100
0001
0000
1000
0100
0000
0010
0001
0000
1000
0010
0000
0100
0001
1000
0100
,  // measure 30
0010
0002
0000
0000
0003
0000
0101
0000
1100
0000
0101
0000
1000
0100
0010
0001
,  // measure 31
0100
0000
0010
1000
0000
0100
1000
0000
0020
0000
0230
0000
0302
0000
1003
0000
,  // measure 32
1100
0000
0000
0000
1001
0000
0000
0000
0011
0000
0000
0001
0100
0010
1000
0001
,  // measure 33
0010
0000
0001
0010
0100
0000
1100
0000
1010
0000
0100
0010
0001
0000
0011
0000
,  // measure 34
1001
0000
0001
0100
1000
0000
1100
0000
1010
0000
0010
1000
0100
0000
0101
0000
,  // measure 35
0011
0000
0001
0010
1000
0000
1100
0000
0101
0000
0001
1000
0010
0100
0001
0010
,  // measure 36
2000
0000
3020
0000
0032
0000
0203
0000
2300
0000
3200
0000
0301
0000
0010
1000
,  // measure 37
0100
0000
1000
0100
0010
0100
1000
0000
1100
0000
1000
0010
0001
0010
1000
0000
,  // measure 38
0000
0000
1001
0000
0000
0010
0001
0000
0101
0000
0001
1000
0100
0010
0001
0000
,  // measure 39
0011
0000
0001
0100
0010
1000
0100
0010
1000
0000
1010
0000
0010
1000
0100
0010
,  // measure 40
0001
0000
0010
0001
0100
0000
0101
0000
1100
0000
1000
0100
0010
0000
1010
0000
,  // measure 41
1100
1000
0100
0000
0010
0001
0100
0000
0001
1000
0100
0010
0001
0000
0000
0000
,  // measure 42
0002
0023
0230
2300
3020
0032
0103
0000
,  // measure 43
1010
0010
0100
0000
0001
0010
0100
0000
1000
0010
0100
0001
0010
0100
0010
1000
,  // measure 44
0100
0000
0000
1100
0010
0000
0000
0101
0010
0000
0000
1001
0010
0000
0000
0100
,  // measure 45
0011
0001
0100
0000
0010
1000
0100
0000
0001
1000
0100
0010
0001
0000
0000
0000
,  // measure 46
2000
3020
0230
0302
2003
3020
0031
0000
,  // measure 47
0001
0010
0100
0000
0010
1000
0001
0000
0100
0010
1000
0001
0010
0100
0010
1000
,  // measure 48
0100
0000
0000
1010
0100
0000
0000
0011
0100
0000
0000
1001
0100
0000
0000
0110
,  // measure 49
2002
0000
3003
0000
;
