#VERSION:0.83;
#TITLE:Take It To The Morning Light;
#SUBTITLE:(Extended Vocal);
#ARTIST:Golden Gate;
#TITLETRANSLIT:;
#SUBTITLETRANSLIT:;
#ARTISTTRANSLIT:;
#GENRE:;
#ORIGIN:;
#CREDIT:;
#BANNER:Take It To The Morning Light (Extended Vocal).png;
#BACKGROUND:Take It To The Morning Light (Extended Vocal)-bg.png;
#PREVIEWVID:;
#JACKET:Take It To The Morning Light (Extended Vocal)-jacket.png;
#CDIMAGE:;
#DISCIMAGE:;
#LYRICSPATH:;
#CDTITLE:;
#MUSIC:Take It To The Morning Light (Extended Vocal).ogg;
#OFFSET:0.000000;
#SAMPLESTART:46.667000;
#SAMPLELENGTH:15.000000;
#SELECTABLE:YES;
#DISPLAYBPM:128.000000;
#BPMS:0.000=128.570;
#STOPS:;
#DELAYS:;
#WARPS:;
#TIMESIGNATURES:0.000=4=4;
#TICKCOUNTS:0.000=4;
#COMBOS:0.000=1;
#SPEEDS:0.000=1.000=0.000=0;
#SCROLLS:0.000=1.000;
#FAKES:;
#LABELS:0.000=Song Start;
#BGCHANGES:;
#KEYSOUNDS:;
#ATTACKS:
;

//---------------dance-single - ----------------
#NOTEDATA:;
#CHARTNAME:;
#STEPSTYPE:dance-single;
#DESCRIPTION:;
#CHARTSTYLE:;
#DIFFICULTY:Beginner;
#METER:2;
#RADARVALUES:0.134820,0.210197,0.075070,0.000000,0.000000,88.000000,81.000000,7.000000,0.000000,0.000000,0.000000,0.000000,0.000000,0.000000,0.134820,0.210197,0.075070,0.000000,0.000000,88.000000,81.000000,7.000000,0.000000,0.000000,0.000000,0.000000,0.000000,0.000000;
#CREDIT:;
#DISPLAYBPM:128.000000;
#NOTES:
0000
0000
0000
0000
,
0000
0000
0000
0000
,
0000
0000
0000
0000
,
0000
0000
0000
0000
,
0000
0000
0000
0000
,
0000
1000
0000
0001
,
0000
1000
0000
0100
,
0000
0001
0000
1000
,
0000
0001
0000
0100
,
0000
0001
0000
1000
,
0000
1000
0000
0100
,
0000
0000
0000
0000
,
0100
0000
0000
0000
,
1000
0000
0001
0000
,
0010
0000
1000
0000
,
0010
0000
0000
0000
,
1000
0000
0000
0000
,
0001
0000
0001
0000
,
1000
0000
0001
0000
,
1000
0000
0001
0000
,
0000
1001
0000
1001
,
0000
0001
0000
0100
,
0000
0010
0000
0100
,
0000
0000
0001
0000
,
0010
0000
1001
0000
,
0001
0000
0001
0000
,
0100
0000
0110
0000
,
0010
0000
1000
0000
,
0100
0000
0010
0000
,
1000
0000
0001
0000
,
1000
0000
0001
0000
,
0010
0000
1000
0000
,
0100
0000
0100
0000
,
0001
0000
0000
0100
,
0000
0010
0000
0010
,
0000
0001
0000
1000
,
0000
1000
0000
0001
,
0000
0100
0000
0100
,
0000
1000
0000
0001
,
0000
1000
0000
0001
,
0000
1000
0000
0100
,
0000
0000
0100
0000
,
0001
0000
1000
0000
,
0001
0000
0010
0000
,
1000
0000
0001
0000
,
1000
0000
0001
0000
,
0100
0000
0000
0000
,
0110
0000
1001
0000
,
0001
0000
0001
0000
,
1001
0000
0000
0000
;

//---------------dance-single - ----------------
#NOTEDATA:;
#CHARTNAME:;
#STEPSTYPE:dance-single;
#DESCRIPTION:;
#CHARTSTYLE:;
#DIFFICULTY:Easy;
#METER:5;
#RADARVALUES:0.229807,0.315295,0.107243,0.246659,0.000000,150.000000,140.000000,10.000000,23.000000,0.000000,0.000000,0.000000,0.000000,0.000000,0.229807,0.315295,0.107243,0.246659,0.000000,150.000000,140.000000,10.000000,23.000000,0.000000,0.000000,0.000000,0.000000,0.000000;
#CREDIT:;
#DISPLAYBPM:128.000000;
#NOTES:
0000
0000
0000
0000
,
0000
0000
0000
0000
,
0000
0000
0000
0000
,
0000
0000
0000
0000
,
0000
0000
0000
0000
,
0000
1000
0000
0001
,
0000
1000
0000
0100
,
0000
0002
0003
1000
,
0000
0001
1000
0100
,
0001
0001
1000
1000
,
0010
1000
0001
0100
,
0020
0000
0000
0030
,
0200
0000
0000
0300
,
1000
0100
0001
0100
,
0010
0001
1000
0100
,
0010
0002
0000
0003
,
2000
0000
3000
0100
,
0001
1000
0001
0100
,
1000
0100
0001
0010
,
2000
3010
0002
0103
,
0000
1001
0000
1001
,
0000
0001
1000
0100
,
0010
0010
0100
0100
,
2000
3000
0002
0003
,
0010
0100
1001
0100
,
0001
1000
0001
1001
,
0100
0010
0110
1001
,
0020
0130
2000
3001
,
0100
1000
0010
0001
,
2000
3100
0002
0013
,
1000
0000
0001
0000
,
0010
1000
1000
0001
,
0100
0010
0100
1001
,
0002
0100
0000
0103
,
2000
0010
0000
3010
,
0001
0001
1000
1000
,
0010
1000
0010
0001
,
1000
0100
0001
0100
,
0010
1000
0100
0001
,
1000
1000
0001
0001
,
0010
1000
0001
0100
,
0020
0030
0200
0300
,
0002
0003
2000
3000
,
0001
0100
0020
0030
,
1000
0100
0002
0103
,
2000
0000
0001
3100
,
0200
0000
0000
0300
,
0110
0000
1001
0000
,
0001
1000
0001
0100
,
1001
0000
0000
0000
;

//---------------dance-single - ----------------
#NOTEDATA:;
#CHARTNAME:;
#STEPSTYPE:dance-single;
#DESCRIPTION:;
#CHARTSTYLE:;
#DIFFICULTY:Medium;
#METER:8;
#RADARVALUES:0.314069,0.367844,0.182313,0.160865,0.000000,205.000000,188.000000,17.000000,15.000000,0.000000,0.000000,0.000000,0.000000,0.000000,0.314069,0.367844,0.182313,0.160865,0.000000,205.000000,188.000000,17.000000,15.000000,0.000000,0.000000,0.000000,0.000000,0.000000;
#CREDIT:;
#DISPLAYBPM:128.000000;
#NOTES:
0000
0000
0000
0000
,
0000
0000
0000
0000
,
0000
0000
0000
0000
,
0000
0000
0000
0000
,
0000
0000
0000
0000
,
0010
0000
0010
0000
,
1000
0000
0001
0000
0000
0000
0001
0100
,
2000
0000
3010
0100
,
0001
0001
1000
1000
,
0010
0100
0002
0003
,
1000
0100
0020
0030
,
0001
0010
2000
3100
,
0001
0001
0200
0300
,
0001
0100
0001
0000
2000
0000
3100
0000
,
0010
0001
1000
0000
0001
0000
1000
0000
,
0010
0100
0002
0203
,
0300
0000
1000
0000
0001
1000
0010
0000
,
1000
1001
0010
0100
,
0001
0000
1000
0000
0001
0100
1000
0000
,
0002
0013
1000
0100
,
0001
0100
0010
1010
,
0001
0001
0100
0000
0010
1000
0100
0000
,
0001
0002
1003
0100
,
0001
0010
0100
0000
0010
1000
0100
0000
,
0001
0002
1003
1000
,
0101
0000
1100
0000
0010
1000
0100
0000
,
0001
0100
1000
0010
,
1000
0100
0000
0000
0001
0100
0100
0000
,
0001
0000
1000
0000
0010
1000
0001
0000
,
0011
0000
1100
0000
0010
0010
0010
0000
,
1000
0100
0010
0000
0001
0100
1000
0000
,
0001
1000
0001
0000
0010
0001
0000
0000
,
0010
0110
1001
0100
,
0001
0100
1000
0100
,
0001
0010
0100
1000
,
0001
0001
1000
0000
0010
0100
0100
0000
,
1001
0100
1001
0010
,
0001
0000
1000
0000
0001
1000
0001
0000
,
0010
1000
0001
0100
,
0001
0011
0110
1001
,
1000
0110
0001
1000
,
0002
0010
0100
0013
,
2000
0001
0100
3001
,
0001
1000
0001
1100
,
1000
0001
0100
0101
,
0010
0001
1000
0000
0100
0000
0001
0000
,
0020
0030
0200
0300
,
1000
0000
1000
0100
0001
0000
0100
0000
,
0010
0001
0100
1000
,
1001
0000
0000
0000
;

//---------------dance-single - ----------------
#NOTEDATA:;
#CHARTNAME:;
#STEPSTYPE:dance-single;
#DESCRIPTION:;
#CHARTSTYLE:;
#DIFFICULTY:Hard;
#METER:10;
#RADARVALUES:0.340114,0.422538,0.085795,0.268108,0.134054,222.000000,214.000000,8.000000,25.000000,0.000000,0.000000,0.000000,0.000000,0.000000,0.340114,0.422538,0.085795,0.268108,0.134054,222.000000,214.000000,8.000000,25.000000,0.000000,0.000000,0.000000,0.000000,0.000000;
#CREDIT:;
#DISPLAYBPM:128.000000;
#NOTES:
0000
0000
0000
0000
,
0000
0000
0000
0000
,
0000
0000
0000
0000
,
0000
0000
0000
0000
,
0000
0000
0000
0000
,
0001
1000
0110
0001
,
0100
0000
0000
0010
0000
0000
0000
0000
1000
0000
0000
0100
0000
0000
0000
0000
,
0001
0000
0000
1000
0000
0000
0000
0000
0010
0000
0000
0001
0000
0000
0000
0000
,
1000
0000
0000
0010
0000
0000
0200
0000
0000
0000
0000
0000
0300
0000
0000
0000
,
0001
0000
1000
0000
0001
0100
0010
1000
,
0001
0000
0100
0000
0001
1000
0100
0000
,
0010
0001
1000
0100
0010
0001
0100
0000
,
1000
0000
0000
1000
0000
0000
0020
0000
0000
0000
0000
0000
0030
0000
0000
0000
,
0001
0000
0000
0000
1000
0000
0000
0000
0001
0000
0010
0001
0000
1000
0100
0000
,
0001
0000
0000
1000
0000
0000
0200
0000
0000
0000
0000
0000
0300
0000
0000
0000
,
0010
0000
0000
0000
2000
0000
0000
0000
3000
0000
0001
0010
0000
0100
1000
0000
,
0001
0000
0100
0000
1000
0001
0100
0000
,
0001
0100
0001
0000
1000
0010
0100
0000
,
0002
0003
0200
0300
,
1000
0100
0010
0000
1000
0001
0100
1000
,
0020
0000
0030
0200
0000
0301
1000
0000
,
0010
1000
0100
0010
0001
0100
1000
0000
,
0001
0000
0000
2000
0000
0000
0020
0000
0000
0000
0000
0000
3030
0000
0000
0000
,
0001
0000
1000
0010
0001
1000
0100
0000
,
0010
0010
1000
0001
0200
0000
0300
0000
,
0002
0000
0013
1000
0001
0100
0001
2000
,
0000
3000
0001
0100
,
1000
0001
0000
0000
0100
0010
0000
0000
,
0001
0000
0010
0001
0000
1000
0000
0000
0100
0000
0100
0000
0000
0000
0000
0000
,
0020
0000
1030
0001
0100
0100
0010
0200
,
0000
0000
0300
0000
0001
0100
1000
0000
,
0001
0001
0100
0000
0010
1000
0100
0000
,
1000
0000
0010
0100
0000
0001
0000
0000
1000
0000
0001
0000
0100
0000
0000
0000
,
0011
0011
1010
0101
,
2000
0000
3002
0000
1003
0010
0100
0000
,
0001
0100
0100
0000
1000
0001
0100
0000
,
0001
0010
0100
1000
,
0200
0000
0310
0001
1000
0001
1000
0020
,
0000
0000
0030
0000
0001
1000
0010
0000
,
1000
0000
1000
0000
0100
0000
0000
0000
0001
0000
0000
0100
0000
0000
0000
0000
,
1000
0000
0001
0100
0001
0000
0000
0000
0010
0000
0100
0000
0000
0000
0000
0000
,
0020
0000
1000
0001
,
1000
0000
0030
0100
0000
0001
1000
0000
,
0110
0000
0000
0002
0000
0000
2000
0000
0000
0000
0000
0000
3003
0000
0000
0000
,
1000
0100
0000
0000
0100
0010
0000
0000
1001
0000
0000
0000
0000
0000
0000
0000
,
0200
0000
0000
0000
,
0301
0000
0000
1000
0000
0000
0010
0000
0000
0000
1000
0000
0100
0000
0000
0000
,
0001
0100
0001
0000
1000
0010
0100
0000
,
0001
0100
0000
0000
0010
1000
0000
0000
1000
0100
0000
0000
0010
0000
0000
0000
,
2002
3003
0000
0000
;

//---------------dance-double - ----------------
#NOTEDATA:;
#CHARTNAME:;
#STEPSTYPE:dance-double;
#DESCRIPTION:;
#CHARTSTYLE:;
#DIFFICULTY:Beginner;
#METER:1;
#RADARVALUES:0.134820,0.183922,0.117968,0.000000,0.000000,88.000000,77.000000,11.000000,0.000000,0.000000,0.000000,0.000000,0.000000,0.000000,0.134820,0.183922,0.117968,0.000000,0.000000,88.000000,77.000000,11.000000,0.000000,0.000000,0.000000,0.000000,0.000000,0.000000;
#CREDIT:;
#DISPLAYBPM:128.000000;
#NOTES:
00000000
00000000
00000000
00000000
,
00000000
00000000
00000000
00000000
,
00000000
00000000
00000000
00000000
,
00000000
00000000
00000000
00000000
,
00000000
00000000
00000000
00000000
,
00000001
00000000
00000001
00000000
,
00001000
00000000
00001000
00000000
,
00000010
00000000
00001000
00000000
,
01000000
00000000
00010000
00000000
,
10010000
00000000
00000000
00000000
,
00100000
00000000
00000000
00000000
,
01000000
00000000
00000000
00000000
,
00010000
00000000
00100000
00000000
,
00001000
00000000
00000000
00000000
,
00000010
00000000
00000000
00000000
,
00000001
00000000
00000010
00000000
,
00000001
00000000
00000000
00000010
,
00000000
00000100
00000000
00000010
,
00000000
00010000
00000000
10000000
,
00000000
00100000
00000000
10000000
,
00000000
00000000
10010000
00000000
,
01000000
00000000
10000000
00000000
,
00010000
00000000
00000100
00000000
,
00001000
00000000
00000100
00000000
,
00001000
00000000
00000001
00000000
,
00000110
00000000
00000001
00000000
,
00001000
00000000
00000000
00000000
,
00000100
00000000
01000000
00000000
,
00010000
00000000
10000000
00000000
,
01100000
00000000
10000000
00000000
,
00010000
00000000
00000000
00000000
,
00100000
00000000
00000010
00000000
,
00001000
00000000
00000001
00000000
,
00001001
00000000
00000000
00000000
,
00000000
00000000
00000000
00000000
,
00000001
00000000
00001000
00000000
,
00000010
00000000
00100000
00000000
,
00010000
00000000
10000000
00000000
,
01100000
00000000
00000000
00000000
,
00010000
00000000
10000000
00000000
,
10010000
00000000
00100000
00000000
,
00011000
00000000
00000100
00000000
,
00000010
00000000
00000001
00000000
,
00000110
00000000
00000001
00000000
,
00000010
00000000
01000000
00000000
,
10000000
00000000
00010000
00000000
,
01000000
00000000
10000000
00000000
,
01100000
00000000
10000000
00000000
,
01000000
00000000
00000010
00000000
,
00001001
00000000
00000000
00000000
;

//---------------dance-double - ----------------
#NOTEDATA:;
#CHARTNAME:;
#STEPSTYPE:dance-double;
#DESCRIPTION:;
#CHARTSTYLE:;
#DIFFICULTY:Easy;
#METER:3;
#RADARVALUES:0.211422,0.262746,0.117968,0.139416,0.000000,138.000000,127.000000,11.000000,13.000000,0.000000,0.000000,0.000000,0.000000,0.000000,0.211422,0.262746,0.117968,0.139416,0.000000,138.000000,127.000000,11.000000,13.000000,0.000000,0.000000,0.000000,0.000000,0.000000;
#CREDIT:;
#DISPLAYBPM:128.000000;
#NOTES:
00000000
00000000
00000000
00000000
,
00000000
00000000
00000000
00000000
,
00000000
00000000
00000000
00000000
,
00000000
00000000
00000000
00000000
,
00000000
00000000
00000000
00000000
,
00000001
00000000
00000001
00000000
,
00001000
00000000
00001000
00000000
,
00000010
00000100
00001000
00010000
,
01000000
10000000
00010000
01000000
,
20020000
00000000
00000000
30030000
,
00200000
00000000
00000000
00300000
,
02000000
00000000
00000000
03000000
,
00010000
10000000
00100000
00010000
,
00002000
00000000
00000000
00003000
,
00000020
00000000
00000000
00000030
,
00000001
00001000
00000010
00000100
,
00000002
00000000
00000003
00000010
,
00001000
00000100
00000001
00000010
,
00001000
00010000
00100000
10000000
,
01000000
00100000
00010000
10000000
,
00100000
01000000
10010000
00000000
,
01000000
00100000
10000000
01000000
,
00010000
00001000
00000100
00000001
,
00001000
00000010
00000100
00000001
,
00002000
00003000
00000002
00000003
,
00000110
00000001
00000001
00000001
,
00001000
00000000
00000000
00000000
,
00000100
00010000
01000000
10000000
,
00010000
00010000
10000000
01000000
,
01100000
10000000
10000000
10000000
,
00010000
00000000
00000000
00000000
,
00100000
00001000
00000010
00000001
,
00001000
00001000
00000001
00000010
,
00002002
00000000
00000000
00003003
,
00000000
00000000
00000000
00000000
,
00000001
00000001
00001000
00001000
,
00000010
00001000
00100000
10000000
,
00010000
00010000
10000000
10000000
,
02200000
00000000
00000000
03300000
,
00010000
01000000
10000000
01000000
,
10010000
00000000
00100000
00001000
,
00011000
00000000
00000100
00000000
,
00000010
00000000
00000001
00001000
,
00000110
00000000
00000001
00000000
,
00000010
00001000
01000000
00100000
,
10000000
00000000
00010000
00000000
,
01000000
00100000
10000000
00010000
,
01100000
00000000
10000000
00000000
,
01000000
00010000
00000010
00000100
,
00001001
00000000
00000000
00000000
;

//---------------dance-double - ----------------
#NOTEDATA:;
#CHARTNAME:;
#STEPSTYPE:dance-double;
#DESCRIPTION:;
#CHARTSTYLE:;
#DIFFICULTY:Medium;
#METER:6;
#RADARVALUES:0.298749,0.341570,0.139416,0.064346,0.000000,195.000000,182.000000,13.000000,6.000000,0.000000,0.000000,0.000000,0.000000,0.000000,0.298749,0.341570,0.139416,0.064346,0.000000,195.000000,182.000000,13.000000,6.000000,0.000000,0.000000,0.000000,0.000000,0.000000;
#CREDIT:;
#DISPLAYBPM:128.000000;
#NOTES:
00000000
00000000
00000000
00000000
,
00000000
00000000
00000000
00000000
,
00000000
00000000
00000000
00000000
,
00000000
00000000
00000000
00000000
,
00000000
00000000
00000000
00000000
,
10000000
00010000
00000000
01000000
,
00000000
10000000
00000000
00100000
,
00010000
00001000
00000000
00000010
,
00000000
00000001
00001000
00000100
,
00001001
00000100
00000010
00000001
,
00000100
00001000
00010000
01000000
,
10000000
00100000
00010000
00100000
,
10000000
00010000
01000000
00100000
,
10000000
00010000
10000000
00100000
,
01000000
00001000
00010000
00001000
,
00000010
00000001
00001000
00000010
,
00000200
00000000
00000000
00000301
,
00001010
00000000
00000001
00000000
00000100
00000010
00001000
00000000
,
00000001
00000100
00010000
00100000
,
01000000
00000000
10000000
00000000
00010000
00100000
01000000
00000000
,
10000000
00100000
01000000
10010000
,
01000000
00010000
00001000
00000100
,
00000001
00000010
00000100
00000000
00001000
00000010
00000100
00000000
,
00000001
00001000
00000001
00001000
,
00000010
00000100
00001001
00000100
,
00000021
00001000
00000001
00000130
,
00001001
00000000
00000100
00001000
,
00100000
01000000
10000000
00010000
,
01000000
00010000
00100000
00000000
01000000
10000000
00010000
00000000
,
10200000
00010000
10000000
01300000
,
10010000
00000000
00100000
00010000
,
00001000
00000010
00000001
00001000
,
00000010
00000100
00000001
00000000
00000010
00000100
00001000
00000000
,
00000110
00000001
00000100
00001000
,
00010000
00000000
01000000
10000000
,
00100000
01000000
00010000
00000000
00100000
01000000
10000000
00000000
,
00100000
00000000
01000000
00000000
00010000
10000000
00010000
00000000
,
10000000
01000000
00010000
00001000
,
00000010
00000001
00000100
00000010
,
00001002
00000103
00002001
00003100
,
00000010
00000000
00000001
00000000
00000100
00000000
00001000
00010000
,
00001000
01000000
00100000
10000000
,
00010000
00000000
00100000
00000000
01000000
00000000
10000000
00010000
,
01000000
00100000
10000000
01000000
,
00010000
00000000
00000010
00000000
00000100
00000000
00000001
00001000
,
00000001
00000010
00000100
00001000
,
00000010
00000100
00010000
00100000
,
00010000
01000000
00100000
10000000
,
00010000
00100000
01000000
00000000
10020000
00000000
01030000
00000000
,
00101000
00000000
00000000
00000000
;

//---------------dance-double - ----------------
#NOTEDATA:;
#CHARTNAME:;
#STEPSTYPE:dance-double;
#DESCRIPTION:;
#CHARTSTYLE:;
#DIFFICULTY:Hard;
#METER:8;
#RADARVALUES:0.344710,0.394119,0.160865,0.193038,0.042897,225.000000,210.000000,15.000000,18.000000,0.000000,0.000000,0.000000,0.000000,0.000000,0.344710,0.394119,0.160865,0.193038,0.042897,225.000000,210.000000,15.000000,18.000000,0.000000,0.000000,0.000000,0.000000,0.000000;
#CREDIT:;
#DISPLAYBPM:128.000000;
#NOTES:
00000000
00000000
00000000
00000000
,
00000000
00000000
00000000
00000000
,
00000000
00000000
00000000
00000000
,
00000000
00000000
00000000
00000000
,
00000000
00000000
00000000
00000000
,
00002001
00003100
00000010
00000001
,
00001000
00000000
00010000
00000000
10000000
00000000
00100000
01000000
,
00010000
10000000
00100000
01000000
,
00120000
10000000
01030000
10010000
,
01200000
00000000
10000000
01300000
,
00010000
00001000
00000001
00000010
,
00000100
00001000
00000001
00000100
,
00001020
00000000
00000001
00001030
,
00010000
01000000
10000000
00010000
,
01000000
00000000
00100000
00000000
10000000
00010000
01000000
00000000
,
10200000
00010000
01000000
01300000
,
00020000
01030000
20000000
31000000
,
00110000
00000000
00001000
00000000
00000010
00000001
00001000
00000000
,
00000010
00000000
00000100
00000000
00000001
00001000
00000100
00000000
,
00000020
00000031
00000200
00001300
,
00020000
00031000
02000000
13000000
,
00100000
00000000
01000000
00000000
00010000
10000000
01000000
00000000
,
00100000
00010000
01000000
00000000
00100000
00000000
10000000
00000000
,
01000000
00000000
00010000
00000000
00001000
00000100
00000001
00000000
,
00000010
00000100
00001000
00000001
00000100
00000010
00001000
00000000
,
00001002
00000000
00000103
00000000
00000010
00001000
00000001
00000010
,
00000100
00000000
00010000
00000100
,
01000000
00100000
10000000
00000000
01000000
00100000
00010000
00000000
,
10000000
00100000
01000000
00010000
00100000
00000000
11000000
00000000
,
20010000
00000000
31000000
00000000
00100000
00010000
10000000
00100000
,
01000000
00000000
00001000
00010000
,
00000100
00000010
00000001
00000000
00000100
00000010
00001000
00000000
,
00000001
00000010
00000100
00001000
00000010
00000000
00000101
00000001
,
00002000
00000100
00000001
00003100
,
00010100
00000000
00001000
00100000
,
00010000
10000000
01000000
00000000
00100000
00010000
01000000
00000000
,
00100000
10000000
01000000
00010000
00001000
00000000
00010100
00000000
,
00000020
00000001
00001000
00000031
,
00001100
00000000
00000010
00000001
,
00001000
00000001
00000100
00000000
00000010
00001000
00000100
00000000
,
00000010
00001000
00010000
00001000
01000000
00100000
20000000
00000000
,
00020000
00000000
00000000
30030000
,
00100000
00000000
00010000
00000000
00000100
00000000
00000010
00000001
,
00002000
00003000
00000010
00000100
,
00000001
00000010
00000000
00000000
00000100
00001000
00000000
00000000
00010000
00100000
00000000
00000000
01000000
10000000
00000000
00000000
,
00010000
00100000
01000000
10000000
,
00100000
00000000
01000000
00000000
00010000
00000000
10000000
00100000
,
00010000
00000000
00001000
00000000
00000010
00000001
00001000
00000000
,
00000100
00000010
00000000
00000000
00000001
00000100
00000000
00000000
00001000
00010000
00000000
00000000
01000000
10000000
00000000
00000000
,
10010000
00000000
00000000
00000000
;

//---------------dance-single - ----------------
#NOTEDATA:;
#CHARTNAME:;
#STEPSTYPE:dance-single;
#DESCRIPTION:;
#CHARTSTYLE:;
#DIFFICULTY:Challenge;
#METER:13;
#RADARVALUES:0.603626,0.660216,0.311005,0.117968,0.477232,394.000000,365.000000,29.000000,11.000000,0.000000,0.000000,0.000000,0.000000,0.000000,0.603626,0.660216,0.311005,0.117968,0.477232,394.000000,365.000000,29.000000,11.000000,0.000000,0.000000,0.000000,0.000000,0.000000;
#CREDIT:;
#DISPLAYBPM:128.000000;
#NOTES:
// measure 0
0000
0000
0000
0000
,  // measure 1
0000
0000
0000
0000
,  // measure 2
0000
0000
0000
0000
,  // measure 3
0000
0000
0000
0000
,  // measure 4
0000
0000
0000
0000
,  // measure 5
1000
0100
0001
0100
1000
0001
0100
0000
,  // measure 6
0001
0100
1000
0100
0001
1000
0100
0000
,  // measure 7
1000
0010
0001
0010
1000
0001
0010
0000
,  // measure 8
0011
0000
1100
0000
0011
0000
1100
0010
,  // measure 9
0100
0000
0000
0000
1100
0000
1000
0100
0000
1000
0100
0000
0010
0000
0001
0000
,  // measure 10
1000
0000
0001
0100
0000
0010
1000
0000
0002
0000
1000
0000
0000
0000
1003
0000
,  // measure 11
0002
0023
0230
2300
,  // measure 12
3001
0000
0000
1010
0000
0000
2200
0000
0000
0000
3300
0000
1100
0000
1000
0000
,  // measure 13
0001
0000
0000
0000
0101
0000
0001
0100
0000
0010
1000
0000
0001
0000
1000
0000
,  // measure 14
0001
0000
1000
0100
0000
0010
0001
0020
0000
0001
0030
0000
0010
0000
0001
0000
,  // measure 15
0100
0110
1010
1001
,  // measure 16
1000
0010
1000
0010
0000
0100
0000
0001
0000
1000
0001
1000
0001
0000
1000
0000
,  // measure 17
0001
1000
0000
0001
0000
1000
0100
1000
0000
0001
0000
0100
0010
0000
0100
0000
,  // measure 18
0001
0010
0000
0001
0000
0010
0100
0000
1000
0000
0000
0000
1100
0000
1000
0000
,  // measure 19
0010
0100
0000
0001
0000
0010
0001
0010
0000
0001
0000
0010
0100
0000
1000
0000
,  // measure 20
0001
1000
0000
0001
0000
1000
0100
1000
0000
0100
0000
0010
0001
0000
0010
0000
,  // measure 21
0001
0010
1000
0010
0001
0100
1000
0100
,  // measure 22
0001
1000
0100
1000
0010
0100
0001
0100
,  // measure 23
0010
1000
0010
0001
0100
1000
0100
0001
,  // measure 24
1000
0100
1000
0100
0000
0010
0000
0100
0000
1000
0100
1000
0100
0000
1000
0000
,  // measure 25
1001
0000
0100
0100
0100
0100
0100
0100
,  // measure 26
0100
0000
0000
0000
1001
0000
0000
0000
0010
0100
0010
0000
0100
0000
0000
0000
,  // measure 27
0001
0000
0101
0000
0100
0010
0100
0000
0010
0000
1010
0000
1000
0010
1000
0000
,  // measure 28
0001
0000
0010
0001
0000
0001
0000
0010
0001
0000
0010
0000
0100
1000
0001
0000
,  // measure 29
1001
0000
0010
0010
0010
0010
0010
0010
,  // measure 30
0010
0000
0000
0000
1001
0000
0000
0000
0100
0010
0100
0000
0010
0000
0000
0000
,  // measure 31
1000
0100
0010
0000
0110
0000
0100
0000
0010
0100
1000
0000
1100
0000
1000
0000
,  // measure 32
0001
0000
0100
0010
0000
1000
0000
0001
0010
0000
0001
0000
1000
0001
0010
0000
,  // measure 33
0012
0000
0100
0100
1000
1000
0010
0010
,  // measure 34
0013
0000
0000
0000
0101
0000
0001
0000
1000
0100
1000
0000
1100
0000
0000
0000
,  // measure 35
1000
0010
0100
0001
1000
0000
0001
0000
0001
0010
0100
1000
0001
0000
1000
0000
,  // measure 36
0010
0000
1000
0010
0000
0110
0000
0100
0001
0000
1000
0000
0001
1000
0001
0000
,  // measure 37
2001
0000
0010
0010
0001
0001
0100
0100
,  // measure 38
3100
0000
0000
0000
0110
0000
0010
0000
0100
1000
0001
0000
0101
0000
0000
0000
,  // measure 39
0100
0010
1000
0001
0010
0000
0001
0000
0010
0001
0100
0010
1000
0000
0100
0000
,  // measure 40
1000
0000
0100
1000
0000
1010
0000
0010
0100
0000
0001
0000
1000
0001
1000
0000
,  // measure 41
0001
0100
1000
0100
0001
0010
1000
0000
,  // measure 42
1000
0010
0001
0010
1000
0100
0001
0000
,  // measure 43
0001
0010
0100
0010
0001
0100
0010
0000
,  // measure 44
1000
0010
0100
0010
1000
0100
0010
0000
,  // measure 45
0010
0000
0010
0000
0100
1000
0100
0000
0010
0000
0010
0000
0001
0010
0001
0000
,  // measure 46
0010
0000
0001
0010
0000
0001
0000
1000
0010
0000
1000
0000
0001
1000
0001
0000
,  // measure 47
0100
0000
0001
0000
1000
0001
1000
0000
0001
0000
1000
0000
0001
1000
0001
0000
,  // measure 48
1000
0010
0100
0001
1000
0000
0001
0010
0000
0001
1000
0000
0001
0000
2000
0000
,  // measure 49
0010
0000
0000
0010
3000
0000
0000
0000
0000
0000
0000
0000
0000
0000
0000
0000
;
