#TITLE:Take A Chance;
#SUBTITLE:;
#ARTIST:neuras feat. GATZ;
#TITLETRANSLIT:;
#SUBTITLETRANSLIT:;
#ARTISTTRANSLIT:;
#GENRE:;
#CREDIT:;
#BANNER:Take A Chance.png;
#BACKGROUND:Take A Chance-bg.png;
#LYRICSPATH:;
#CDTITLE:;
#MUSIC:Take A Chance.ogg;
#OFFSET:0.000000;
#SAMPLESTART:65.462997;
#SAMPLELENGTH:15.000000;
#SELECTABLE:YES;
#DISPLAYBPM:88.000000;
#BPMS:0.000000=88.019997
,4.000000=88.002998
;
#STOPS:
;
#BGCHANGES:;
#KEYSOUNDS:;
#ATTACKS:;

//---------------dance-single - ----------------
#NOTES:
     dance-single:
     :
     Beginner:
     2:
     0.088899,0.098835,0.000000,0.009151,0.000000,68.000000,68.000000,0.000000,1.000000,0.000000,0.000000,0.088899,0.098835,0.000000,0.009151,0.000000,68.000000,68.000000,0.000000,1.000000,0.000000,0.000000:
0000
0000
0000
0000
,
0000
0000
0000
0000
,
0000
0000
0000
0000
,
0020
0000
0000
0030
,
0010
0000
0010
0000
,
1000
0000
1000
0000
,
0001
0000
0001
0000
,
0000
0100
0000
0100
,
0000
0001
0000
1000
,
0000
0001
0000
1000
,
0000
0100
0000
0010
,
0000
0001
0000
0001
,
0001
0000
0100
0000
,
1000
1000
1000
0000
,
0100
0000
0001
0000
,
0010
0010
0010
0000
,
0100
0000
0010
0000
,
0001
0000
0100
0000
,
0010
0000
1000
0000
,
0100
0000
0010
0010
,
0010
0000
0100
0000
,
1000
0000
0010
0000
,
0100
0000
0010
0000
,
0100
0100
0100
0000
,
0001
0000
1000
0000
,
0100
0000
0001
0000
,
0100
0000
1000
0000
,
0001
0000
0000
0000
,
0010
0000
0001
0000
,
0100
0000
1000
0000
,
0100
0000
0001
0000
,
0010
0000
0000
0000
,
0000
0100
0000
1000
,
0000
0001
0000
0100
,
0000
0010
0000
1000
,
0000
0001
0000
1000
,
1000
0000
0000
0000
,
0000
0000
0000
0000
;

//---------------dance-single - ----------------
#NOTES:
     dance-single:
     :
     Easy:
     3:
     0.133349,0.164725,0.045757,0.073211,0.000000,102.000000,97.000000,5.000000,8.000000,0.000000,0.000000,0.133349,0.164725,0.045757,0.073211,0.000000,102.000000,97.000000,5.000000,8.000000,0.000000,0.000000:
0000
0000
0000
0000
,
0000
0000
0000
0000
,
0000
0000
0000
0000
,
1001
0000
0100
0000
,
0001
0001
1000
1000
,
0100
0000
0010
0000
,
0001
0001
1000
1000
,
0000
0010
0000
0010
,
0100
0000
0001
0000
,
0100
0000
1000
0000
,
0100
0000
0001
0000
,
2002
0000
3003
0000
,
0001
0100
0001
0000
,
1000
0100
1000
0000
,
0010
0001
0010
0000
,
1001
0000
0100
0100
,
0100
0001
0010
0000
,
0100
1000
0010
0000
,
1000
1000
0001
0001
,
0010
0100
0010
0100
,
0110
0000
0001
0010
,
0001
0000
1000
0010
,
2000
3000
0002
0003
,
0100
0100
0100
0000
,
0001
0000
1000
1000
,
0100
0000
0001
0001
,
0010
0000
0100
0100
,
2000
3000
0002
0003
,
0100
0100
0000
0010
,
1000
1000
0000
0100
,
0010
0010
0000
0001
,
2000
3000
0002
0003
,
0100
0100
0001
0001
,
0100
0010
1000
0100
,
1000
1000
0100
0100
,
1000
0010
0100
0001
,
1001
0000
0000
0000
,
0000
0000
0000
0000
;

//---------------dance-single - ----------------
#NOTES:
     dance-single:
     :
     Medium:
     6:
     0.224863,0.280033,0.146422,0.036606,0.000000,172.000000,156.000000,16.000000,4.000000,0.000000,0.000000,0.224863,0.280033,0.146422,0.036606,0.000000,172.000000,156.000000,16.000000,4.000000,0.000000,0.000000:
0000
0000
0000
0000
,
0000
0000
0000
0000
,
0000
0000
0000
0000
,
1000
1000
0001
0000
0100
0100
0001
0000
,
1000
0001
0100
0001
,
0010
0010
0100
0000
1000
1000
0100
0000
,
0010
0000
0100
0000
1000
0000
0001
0100
,
0000
0100
0000
0100
0000
0110
0000
0000
,
1000
0000
0000
0000
0100
0000
0000
0001
,
0100
0000
0000
0000
1000
0000
0000
0010
,
0001
0010
1000
0100
,
0020
0000
0000
0030
0001
1000
0001
0000
,
0100
0000
0001
0000
0100
0100
0001
0000
,
1000
0000
0100
0000
1000
1000
0100
0000
,
0010
0000
0001
0000
1000
0001
0100
0010
,
2000
0000
0000
0000
3001
1000
0001
0000
,
1000
0100
0001
0000
1000
0010
0001
0000
,
1000
0010
0100
0000
1000
0100
0010
0000
,
1100
0101
0011
1010
,
0110
0000
1001
0000
0001
1000
0001
0000
,
0110
0000
0000
0000
0001
0010
0100
0000
,
0001
0100
0010
0000
0001
0100
1000
0000
,
0011
0101
1100
1010
,
0110
1001
0220
0330
,
0001
0001
0000
1000
1000
0000
0100
0000
,
0010
0010
0000
0001
0001
0000
1000
0000
,
0010
0010
0000
0100
0100
0000
0001
0000
,
1000
0100
0001
0100
,
1000
0010
0000
0100
1000
0000
0100
0000
,
0001
0010
0000
0100
0001
0000
0100
0000
,
1000
0001
0000
0001
1000
0000
0001
0000
,
1000
0100
0001
0100
,
1000
0010
0001
0000
1000
0100
0001
0000
,
0010
0001
1000
0100
,
0010
0001
0100
0000
1000
0100
0001
0000
,
0010
0000
0100
0000
1000
0000
0001
1000
,
1001
0000
0000
0000
,
0000
0000
0000
0000
;

//---------------dance-single - ----------------
#NOTES:
     dance-single:
     :
     Hard:
     9:
     0.288922,0.329450,0.228785,0.054908,0.059484,221.000000,196.000000,25.000000,6.000000,0.000000,0.000000,0.288922,0.329450,0.228785,0.054908,0.059484,221.000000,196.000000,25.000000,6.000000,0.000000,0.000000:
0000
0000
0000
0000
,
0000
0000
0000
0000
,
0000
0000
0000
0000
,
0100
1000
0000
0010
1000
0100
0000
0010
,
0001
1000
0100
1000
0010
0100
0001
1000
,
0010
0100
0000
0001
0100
0010
0000
1000
,
0100
0000
0001
0000
0010
0000
1000
0200
,
0000
0001
0000
1000
0000
0301
1000
0000
,
0000
0001
0000
0001
0000
1000
0000
1000
,
0000
0010
0100
0001
0000
0010
0100
1000
,
0000
0001
0000
0001
0000
1000
0000
1000
,
0020
0000
0000
0000
0000
0000
0000
0130
0000
0000
0000
0000
0000
0001
1000
0000
,
0100
0100
0000
0010
1000
1000
0000
0010
,
0001
0001
0000
0100
1000
1000
0000
0100
,
0001
0001
1000
1000
0100
0100
0010
0010
,
0002
0000
0000
0000
0000
0000
0000
1003
0000
0000
0000
0010
0000
0100
0000
0000
,
0110
0000
1001
0000
0100
0001
1000
0000
,
1001
0000
0110
0000
0001
1000
0100
0000
,
0011
0000
1100
0000
0001
1000
0100
0010
,
0001
0000
1000
0000
0100
1000
0010
0000
,
1001
0000
0100
0001
,
1010
0000
0101
0000
0100
0001
0010
0100
,
1000
0000
0000
0010
0000
0100
0000
0000
0001
0000
0000
0010
0000
0100
0000
0000
,
1000
0010
0001
0100
1001
0000
0000
0000
,
0011
0011
0000
0100
1000
0010
0100
0001
,
1100
1100
0000
0010
0001
0010
0100
1000
,
1010
1010
0000
1000
0100
0001
0010
0100
,
2000
0000
0000
0000
0000
3010
0000
0100
0000
0000
0001
0000
0010
0000
0100
0000
,
0011
1010
0000
0001
0100
0010
1000
0100
,
0011
1100
0000
0010
0100
1000
0010
0100
,
1001
0110
0000
1000
0010
0100
0001
1000
,
0200
0000
0000
0000
0000
0010
0000
0020
0000
0000
0000
0000
0000
0000
0330
0000
,
0100
1000
0010
0001
0010
1000
0001
0010
,
0100
0100
1000
1000
0010
0010
0100
0100
,
0001
1100
1100
0001
0100
1000
0010
0100
,
0001
0001
0010
0010
0100
0100
0010
0100
,
1001
0000
0000
0000
,
0000
0000
0000
0000
;

//---------------dance-double - ----------------
#NOTES:
     dance-double:
     :
     Easy:
     3:
     0.128119,0.131780,0.027454,0.045757,0.000000,98.000000,95.000000,3.000000,5.000000,0.000000,0.000000,0.128119,0.131780,0.027454,0.045757,0.000000,98.000000,95.000000,3.000000,5.000000,0.000000,0.000000:
00000000
00000000
00000000
00000000
,
00000000
00000000
00000000
00000000
,
00000000
00000000
00000000
00000000
,
02000000
00000000
00000000
03000000
,
10000000
00000000
00010000
00000000
,
01000000
01000000
00100000
00100000
,
00010000
00010000
00001000
00001000
,
00000000
00000100
00000000
00000001
,
00001000
00000000
00000100
00000000
,
00010000
00000000
00001000
00000000
,
01000000
00000000
00010000
00000000
,
20020000
00000000
30030000
00000000
,
01000000
10000000
01000000
00000000
,
00010000
01000000
00010000
00000000
,
00001000
00010000
00001000
00000000
,
00011000
00000000
00000100
00000100
,
00000010
00000001
00000010
00000000
,
00001000
00000100
00001000
00000000
,
00010000
00001000
00010000
00000000
,
01000000
00100000
01000000
10000000
,
00010000
00000000
01000000
00100000
,
01000000
00000000
00001000
00010000
,
00002000
00003000
00020000
00030000
,
00001000
00000010
00000001
00000000
,
00001000
00000000
00000001
00000100
,
00000010
00000000
00000100
00001000
,
00010000
00000000
00001000
00010000
,
01000000
01000000
10000000
10000000
,
00010000
00000000
01000000
00100000
,
00010000
00000000
00001000
00000100
,
00000010
00000000
00000001
00000010
,
00000100
00000100
00001000
00001000
,
00010000
00000000
00001000
00000000
,
00010000
01000000
00010000
01000000
,
10000000
00000000
00100000
00000000
,
00010000
00001000
00010000
00001000
,
00011000
00000000
00000000
00000000
,
00000000
00000000
00000000
00000000
;

//---------------dance-double - ----------------
#NOTES:
     dance-double:
     :
     Medium:
     6:
     0.218326,0.247088,0.118968,0.045757,0.000000,167.000000,154.000000,13.000000,5.000000,0.000000,0.000000,0.218326,0.247088,0.118968,0.045757,0.000000,167.000000,154.000000,13.000000,5.000000,0.000000,0.000000:
00000000
00000000
00000000
00000000
,
00000000
00000000
00000000
00000000
,
00000000
00000000
00000000
00000000
,
00100000
00000000
00100000
00000000
01000000
00010000
00010000
00000000
,
00100000
00001000
00010000
00000010
,
00001000
00000000
00001000
00000000
00000010
00000001
00000001
00000000
,
00000100
00000000
00001000
00000000
00010000
00000000
01000000
10000000
,
00000000
10000000
00000000
10000000
00000000
10010000
00000000
00000000
,
01000000
00000000
00000000
00000000
00100000
00000000
00000000
00010000
,
00001000
00000000
00000000
00000000
00000010
00000000
00000000
00001000
,
00010000
01000000
10000000
00100000
,
00020000
00000000
00000000
00000000
00031000
00010000
00001000
00000000
,
00010000
00000000
00000100
00000000
00001000
00000100
00010000
00000000
,
00000010
00000000
00001000
00000000
00000001
00001000
00000010
00000000
,
00000100
00000000
00000001
00000000
00001000
00000001
00000100
00001000
,
00020000
00000000
00000000
00000000
00031000
00010000
00001000
00000000
,
00100000
00010000
00010000
00000000
01000000
00000000
00100000
00000000
,
10000000
00010000
00010000
00000000
00100000
00000000
00001000
00000000
,
00010000
00000100
00001000
00000000
00000010
00000100
00000001
00000000
,
00001100
00000000
00000101
00000000
00001000
00000010
00001000
00000001
,
00000020
00000030
00000100
00001000
,
00000010
00010000
00010000
00000000
00001000
00000000
00100000
00000000
,
00010000
01000000
00100000
00000000
10000000
01000000
00100000
00000000
,
00110000
00110000
00022000
00033000
,
00010000
00001000
00000100
00000000
00000001
00000000
00000101
00000000
,
00000010
00001000
00000001
00000000
00000010
00000000
00000011
00000000
,
00000100
00010000
00001000
00000000
00010000
00000000
00011000
00000000
,
00100000
00010000
01000000
10000000
,
00100000
01000000
00010000
00000000
00100000
00000000
01010000
00000000
,
00001000
00010000
00000100
00000000
00001000
00000000
00010100
00000000
,
00001000
00000001
00000100
00000000
00001000
00000000
00000101
00000000
,
00000010
00001000
00010000
01000000
,
10000000
00000000
00010000
00000000
10000000
01000000
00010000
00000000
,
00001000
00000000
00010000
00000000
00001000
00000100
00000010
00000000
,
00001000
00000000
00000100
00000000
00000010
00000001
00000100
00000000
,
00001000
00000000
00010000
00000000
01000000
10000000
00010000
00000000
,
10010000
00000000
00000000
00000000
,
00000000
00000000
00000000
00000000
;

//---------------dance-double - ----------------
#NOTES:
     dance-double:
     :
     Hard:
     9:
     0.298074,0.296505,0.128119,0.054908,0.096090,228.000000,214.000000,14.000000,6.000000,0.000000,0.000000,0.298074,0.296505,0.128119,0.054908,0.096090,228.000000,214.000000,14.000000,6.000000,0.000000,0.000000:
00000000
00000000
00000000
00000000
,
00000000
00000000
00000000
00000000
,
00000000
00000000
00000000
00000000
,
10000000
00000000
00000000
10000000
00000000
00000000
01000000
00000000
00010000
00000000
00000000
00010000
00000000
00000000
01000000
00000000
,
10000000
10000000
00100000
00010000
00001000
00100000
00010000
01000000
,
00001000
00000000
00000000
00001000
00000000
00000000
00000100
00000000
00000001
00000000
00000000
00000001
00000000
00000000
00000100
00000000
,
00000010
00010000
00000100
00001000
00000001
00000010
00001000
00020000
,
00000000
02030000
00000000
23000000
00000000
30010000
10000000
00010000
,
10010000
01000000
10000000
00100000
,
00010000
00001000
00000100
00000000
00000001
00001000
00000100
00000000
,
00000010
00000000
00000001
00000000
00001000
00000000
00000010
00010000
,
00002000
00000000
00000000
00000000
00000000
00000000
00000000
00103000
00000000
00000000
00000000
00000000
00000000
00010000
10000000
00000000
,
01000000
00100000
00000000
00100000
01000000
10000000
00000000
00100000
,
01000000
00001000
00100000
00001000
00010000
00000100
00010000
00001000
,
00000100
00000001
00000000
00000001
00000100
00001000
00000000
00000100
,
00000020
00000000
00000000
00000000
00000000
00000000
00000000
00001030
00000000
00000000
00000000
00001100
00000000
00010100
00000000
00000000
,
00101000
00010000
01000000
00000000
10000000
01000000
00100000
00000000
,
01010000
00100000
10000000
00000000
00010000
00100000
00001000
00010000
,
00000010
00001000
00000100
00000000
00000001
00000100
00000010
00000000
,
00000101
00000000
00001100
00000000
00000001
00000100
00001000
00010000
,
00011000
00000000
00000000
01000000
10000000
00000000
00010000
00000000
,
10100000
01000000
00010000
00000000
00100000
00001000
00010000
00000010
,
00000100
00000001
00000000
00000010
00000000
00000100
00000000
00000000
00001000
00000010
00000000
00000100
00000000
00000001
00000000
00000000
,
00000010
00001000
00010000
00100000
10010000
00000000
00000000
00000000
,
01000000
01000000
10000000
00010000
10000000
01000000
00010000
00001000
,
00000100
00000100
00000001
00001000
00000001
00000100
00001000
00010000
,
00100000
00100000
10000000
00010000
01000000
10000000
01000000
00010000
,
00100000
00000000
00101000
00000000
00010100
00000000
00001001
00000100
,
00000001
00000010
00000001
00000000
00000000
00000000
00001000
00000000
00000100
00000000
00010000
00000000
00001000
00000000
01000000
00000000
,
00100000
10000000
00100000
00000000
00000000
00000000
01000000
00000000
00010000
00000000
00100000
00000000
10000000
00000000
00100000
00000000
,
00010000
01000000
00001000
00000000
00000000
00000000
00010000
00000100
00001000
00000000
00000010
00000000
00000001
00000000
00000010
00000000
,
00002000
00000000
00000000
00000000
00000000
00000100
00000000
00003100
00000000
00000000
00000010
00000000
00000100
00000000
00010000
00000000
,
00001000
01000000
00100000
00000000
10000000
01000000
00100000
00000000
,
00010000
01000000
00100000
00010000
00001000
00000100
00000010
00000001
,
00000010
00001000
00000100
00000000
00000010
00000001
00000100
00000000
,
00000010
00001000
00000100
00000010
00001000
00010000
01000000
00100000
,
10010000
00000000
00000000
00000000
,
00000000
00000000
00000000
00000000
;

//---------------dance-single - ----------------
#NOTES:
     dance-single:
     :
     Challenge:
     13:
     0.520322,0.517740,0.475872,0.210482,0.672627,398.000000,346.000000,52.000000,23.000000,0.000000,0.000000,0.520322,0.517740,0.475872,0.210482,0.672627,398.000000,346.000000,52.000000,23.000000,0.000000,0.000000:
// measure 0
0000
0000
0000
0000
,  // measure 1
0000
0000
0000
0000
,  // measure 2
0000
0000
0000
0000
0000
0000
0000
0000
0000
0000
0000
0000
0000
0100
1000
0000
,  // measure 3
0100
0000
1000
0010
0100
0000
0001
0000
0010
0000
0001
0010
0100
0000
1000
0000
,  // measure 4
0010
0000
0100
0001
1000
0001
0000
0101
0000
0001
0100
0001
0010
0000
1000
0010
,  // measure 5
0000
0000
0010
0001
0100
0010
1000
0010
0000
0010
0001
0100
0000
0100
1000
0100
,  // measure 6
0000
0010
1000
0010
0000
0100
0001
0100
0010
0000
0000
0100
0000
0000
2002
0000
,  // measure 7
0000
0000
0000
0000
0000
0000
0000
0000
0000
0000
0000
0000
0000
0000
0000
3003
0000
0001
1000
0000
0000
1100
0000
0000
,  // measure 8
2000
0000
3100
0000
0020
0000
1030
0100
0001
0000
0100
0010
1000
0000
1010
0000
,  // measure 9
0020
0000
0130
0000
0002
0000
0013
0000
1000
0000
0010
0100
0001
0000
0101
0000
,  // measure 10
2000
0000
3010
0000
0002
0000
0103
0000
1000
0000
0100
0010
1000
0000
1001
0000
,  // measure 11
0010
0000
0000
0100
0000
0000
0010
0000
0000
0100
0000
0000
0010
0000
0000
0100
0000
0000
0010
0000
0000
0100
0000
0000
0110
0000
0000
0000
0000
0000
0000
0000
0000
0000
0000
0000
0001
0000
0000
0000
1000
0000
0001
0000
0000
0000
0000
0000
,  // measure 12
0011
0000
0001
0100
0010
0000
0010
1000
0100
0000
1100
0000
1000
0100
0010
0000
,  // measure 13
1010
0000
0010
1000
0100
0000
0100
0001
0010
0000
0011
0000
0001
0010
0100
0000
,  // measure 14
0110
0000
0010
1000
0001
0000
0001
0010
1000
0000
1100
0000
0100
1000
0010
0000
,  // measure 15
0100
0010
0100
0010
0100
0010
0100
0010
0110
0000
0000
0101
0000
1100
0000
0000
,  // measure 16
1020
0000
0000
0130
0001
0000
0010
0100
0000
1100
0000
1010
0000
1100
0000
0000
,  // measure 17
0021
0000
0000
0130
0001
0000
1000
0100
0000
0101
0000
0011
0000
0101
0000
0000
,  // measure 18
0120
0000
0000
0031
1000
0000
0100
0010
0000
1010
0000
0011
0000
1001
0000
0000
,  // measure 19
0001
1000
0001
1000
0001
1000
0001
1000
1001
1001
0000
1100
0000
0110
0000
0000
,  // measure 20
1002
0000
0000
0103
0010
0000
1000
0010
0000
0101
0000
1010
0000
0101
0000
0000
,  // measure 21
2001
0000
0000
3100
0010
0000
0001
0010
0000
1000
0100
0010
0001
0100
0010
0000
,  // measure 22
1020
1000
0000
0100
0000
0130
0000
0000
0021
0001
0000
0100
0000
0130
0000
0000
,  // measure 23
1000
0000
0000
0000
0001
0000
0000
0000
1000
0000
0000
0000
0001
0000
0000
0000
1000
0000
0000
0000
0001
0000
0000
0000
1000
0000
0000
0000
0001
0000
0000
0000
2002
0000
0000
0000
0000
0000
0000
0000
3003
0000
0000
0000
0000
0001
0000
0000
1000
0000
0000
0000
0000
0000
0000
0000
1001
0000
0000
0000
0000
0000
0000
0000
,  // measure 24
1000
0100
0010
0000
0011
0000
0010
0100
1000
0000
1000
0100
0010
0001
0100
0000
,  // measure 25
0010
1000
0100
0000
0110
0000
0010
0001
1000
0000
0100
0010
1000
0001
0010
0000
,  // measure 26
0100
0001
1000
0000
1001
0000
0001
0010
0100
0000
0010
1000
0100
0010
0001
1000
,  // measure 27
0100
0001
0100
1000
0100
0002
0000
2000
0000
0000
0000
3003
0000
0000
0000
0010
,  // measure 28
1000
0010
0100
0000
0101
0000
0001
0010
1000
0000
0010
0100
0001
1000
0100
0000
,  // measure 29
0100
0001
0010
0000
1100
0000
0010
1000
0001
0000
0100
0010
1000
0001
0010
0000
,  // measure 30
1000
0010
0001
0000
0110
0000
0001
1000
0010
0000
0001
0100
0010
1000
0100
0001
,  // measure 31
0010
1000
0010
0001
0010
2000
0000
0002
0000
0000
0000
0000
0000
0000
3003
0000
,  // measure 32
1001
0000
1000
0100
0010
0000
0001
0010
0100
0000
1000
0010
0000
0010
0000
0100
,  // measure 33
0001
0010
0001
0000
0100
0010
1000
0000
0010
1000
0100
0000
0010
0001
1000
0000
,  // measure 34
0100
0010
1000
0100
0010
0000
0000
0011
0000
0110
0000
1010
0000
0010
1000
0001
,  // measure 35
0100
0010
1000
0010
0100
0001
0010
0001
0100
0010
1000
0100
0010
0001
0100
0000
,  // measure 36
2002
0000
3003
0000
;
