#TITLE:旅人;
#SUBTITLE:;
#ARTIST:高杉さと美;
#TITLETRANSLIT:Tabibito;
#SUBTITLETRANSLIT:;
#ARTISTTRANSLIT:Satomi Takasugi;
#GENRE:;
#CREDIT:;
#BANNER:Tabibito.png;
#BACKGROUND:Tabibito-bg.png;
#LYRICSPATH:;
#CDTITLE:;
#MUSIC:Tabibito.ogg;
#OFFSET:0.000000;
#SAMPLESTART:58.884998;
#SAMPLELENGTH:15.000000;
#SELECTABLE:YES;
#DISPLAYBPM:109.000000;
#BPMS:0.000000=109.091003
,4.000000=108.999001
;
#STOPS:
;
#BGCHANGES:0.000=Tabibito.avi=1.000=0=0=0=StretchNoLoop====,
99999=-nosongbg-=1.000=0=0=0 // don't automatically add -songbackground-
;
#KEYSOUNDS:;
#ATTACKS:;

//---------------dance-single - ----------------
#NOTES:
     dance-single:
     :
     Beginner:
     1:
     0.080636,0.132464,0.027312,0.000000,0.000000,62.000000,59.000000,3.000000,0.000000,0.000000,0.000000,0.080636,0.132464,0.027312,0.000000,0.000000,62.000000,59.000000,3.000000,0.000000,0.000000,0.000000:
0000
0000
0000
0000
,
0000
0000
0000
0000
,
0000
0000
0000
0000
,
0000
0000
0000
0000
,
0000
0000
0000
0000
,
0000
0000
0000
0000
,
1000
0000
0000
0000
,
1000
0000
0000
0000
,
0001
0000
0000
0000
,
0001
0000
0000
0000
,
1000
0000
0000
0000
,
0001
0000
0000
0000
,
1000
0000
0000
0000
,
0001
0000
0000
0000
,
0001
0000
0000
0000
,
1000
0000
0000
0000
,
0001
0000
0000
0000
,
1000
0000
0000
0000
,
0001
0000
0001
0000
,
0001
0000
0000
0000
,
1000
0000
1000
0000
,
1000
0000
0000
0000
,
0001
0000
0001
0000
,
0001
0000
0000
0000
,
1000
0000
1000
0000
,
1000
0000
0000
0000
,
1001
0000
0000
0000
,
0001
0000
0001
0000
,
1000
0000
1000
0000
,
0001
0000
0000
0000
,
0100
0000
0000
0000
,
1000
0000
1000
0000
,
0001
0000
0001
0000
,
1000
0000
0000
0000
,
0100
0000
0000
0000
,
0001
0000
0001
0000
,
1000
0000
1000
0000
,
0001
0000
0001
0000
,
0001
0000
0000
0000
,
1000
0000
1000
0000
,
0001
0000
0001
0000
,
1000
0000
0000
0000
,
0001
0000
0000
0000
,
0100
0000
0000
0000
,
0100
0000
0000
0000
,
1000
0000
1000
0000
,
0001
0000
0001
0000
,
1000
0000
0000
0000
,
1001
0000
1001
0000
,
0000
0000
0000
0000
;

//---------------dance-single - ----------------
#NOTES:
     dance-single:
     :
     Easy:
     3:
     0.126156,0.176619,0.036416,0.018208,0.000000,97.000000,93.000000,4.000000,2.000000,0.000000,0.000000,0.126156,0.176619,0.036416,0.018208,0.000000,97.000000,93.000000,4.000000,2.000000,0.000000,0.000000:
0000
0000
0000
0000
,
0000
0000
0000
0000
,
0000
0000
0000
0000
,
0000
0000
0000
0000
,
0000
0000
0000
0000
,
0000
0000
0000
0000
,
0001
0000
0100
0000
,
1000
0000
0100
0000
,
0001
0000
1000
0000
,
1001
0000
0000
0000
,
1000
0000
0100
0100
,
0100
0000
0001
0000
,
0001
0000
0100
0100
,
0100
0000
0000
0000
,
1000
0000
0001
0001
,
1000
0000
0000
0000
,
0001
0000
1000
1000
,
0001
0000
0000
0000
,
0100
0000
0001
0001
,
0001
0000
1000
0000
,
0100
0000
1000
1000
,
1000
0000
0000
0000
,
0001
0000
0100
0001
,
0100
0000
0100
0000
,
1000
0000
0100
1000
,
0100
0000
0000
0000
,
1001
0000
1001
0000
,
0001
0100
1000
0000
,
1000
0100
0001
0000
,
0001
0000
0100
0000
,
1000
0000
0000
0000
,
1000
0100
0001
0000
,
0001
0100
1000
0000
,
1000
0000
0001
0000
,
0100
0000
0000
0000
,
0100
0010
0100
0000
,
0100
0010
0100
0000
,
1000
0000
0100
0000
,
0001
0000
0000
0000
,
0100
0001
0010
0000
,
0100
1000
0010
0000
,
2000
0000
0000
3000
,
0002
0000
0000
0003
,
0100
0000
0100
0000
,
0100
0100
0100
0000
,
0001
0000
0100
0000
,
1000
0000
0100
0000
,
0001
0000
1000
0000
,
0001
1000
1001
0000
,
0000
0000
0000
0000
;

//---------------dance-single - ----------------
#NOTES:
     dance-single:
     :
     Medium:
     6:
     0.197688,0.264928,0.118353,0.127457,0.000000,152.000000,139.000000,13.000000,14.000000,0.000000,0.000000,0.197688,0.264928,0.118353,0.127457,0.000000,152.000000,139.000000,13.000000,14.000000,0.000000,0.000000:
0000
0000
0000
0000
,
0000
0000
0000
0000
,
0000
0000
0000
0000
,
0000
0000
0000
0000
,
0000
0000
0000
0000
,
0000
0000
0000
0000
,
1000
0000
0001
0100
0001
0000
0000
0000
,
0001
0000
1000
0100
1000
0000
0000
0000
,
0020
0000
0000
0030
,
0001
0100
1000
0010
,
0001
0000
1000
0100
,
0020
0000
0030
0000
,
1000
0000
0001
0010
,
0200
0000
0300
0000
,
0010
0000
0001
1000
,
0200
0000
0310
0000
,
1000
0000
0010
0100
,
0002
0000
1003
0000
,
1001
0000
0100
0001
,
0020
0000
0130
1000
,
0001
0000
0010
1000
,
0200
0000
0310
1000
,
0001
0000
0100
0001
,
2000
0000
3001
0010
,
0100
0000
1000
0010
,
0002
0000
0000
0003
,
1001
1001
1001
0000
,
0100
0000
0001
1000
0001
0000
0100
0000
,
0010
0000
1000
0001
1000
0000
0010
0000
,
0001
0100
1000
0010
,
0110
0000
0000
0000
,
1000
0000
0010
0100
0010
0000
1000
0000
,
0001
0000
0100
0010
0100
0000
0001
0000
,
1001
0000
0110
0000
,
2002
0000
3003
0000
,
1000
0000
1000
0100
0010
0000
0001
0000
,
0100
0000
0100
0010
0001
0000
0100
0000
,
1000
0010
0001
0100
,
0110
0000
0000
0000
,
1000
0000
1000
0100
0001
0000
0100
0000
,
0001
0000
0001
0100
1000
0000
1000
0000
,
1001
0000
1000
0100
1000
0000
0010
0000
,
0001
0000
0001
0100
0001
0000
0010
0000
,
0100
0001
0010
1000
,
0200
0000
0300
0000
,
0010
0000
0010
0001
0100
0000
0010
0000
,
0010
0000
0010
1000
0100
0000
0010
0000
,
0002
0003
2000
3000
,
1001
0110
1001
0000
,
0000
0000
0000
0000
;

//---------------dance-single - ----------------
#NOTES:
     dance-single:
     :
     Hard:
     8:
     0.292631,0.331160,0.245810,0.191185,0.009104,225.000000,198.000000,27.000000,21.000000,0.000000,0.000000,0.292631,0.331160,0.245810,0.191185,0.009104,225.000000,198.000000,27.000000,21.000000,0.000000,0.000000:
0000
0000
0000
0000
,
0000
0000
0000
0000
,
0000
0000
0000
0000
,
0000
0000
0000
0000
,
0000
0000
0000
0000
,
0000
0000
0000
0000
0000
0000
1000
0001
,
1000
0000
0001
0100
1000
0000
0001
1000
,
0001
0000
1000
0010
0001
0000
0010
0000
,
2002
0000
0000
3003
,
1000
0100
0010
0001
1001
0000
0000
0000
,
0210
0000
0310
1000
,
1002
0000
0000
0000
0103
0000
0100
0010
,
2000
0000
3001
0100
,
0120
0000
0000
0000
1030
0000
0001
0100
,
2000
0000
0000
0000
3100
1000
0010
1000
,
0002
0000
0000
0000
0103
0000
1000
0001
,
0200
0000
0000
0000
0301
1000
0010
0000
,
0110
0000
0000
0000
,
1000
0000
1000
0000
0001
0001
0100
0001
,
1000
0000
0000
0100
0010
0000
1001
0000
,
0100
0000
0100
0000
0010
0010
1000
0010
,
0100
0000
0000
0001
1000
0000
0110
0000
,
0001
0000
0001
0000
1000
1000
0010
1000
,
0001
0000
0000
0010
1000
0000
1100
0000
,
0010
0000
0010
0000
0100
0001
0100
0001
,
0010
0000
0000
0010
0001
0000
0011
0000
,
0100
0000
0000
0100
0000
0000
0100
0000
1001
0000
0000
0000
0001
0000
1000
0000
,
1100
0000
0001
0100
1000
0000
1000
0100
,
1000
0000
1000
0100
0001
0000
0100
0000
,
0120
0000
0001
1030
,
1001
0000
0000
0000
0000
0000
1000
0001
,
0101
0000
1000
0100
0001
0000
0001
0100
,
0001
0000
0001
0100
1000
0000
0100
0000
,
0220
0300
1000
0031
,
2002
0000
0000
0000
3003
0000
0100
0010
,
0210
0000
0000
0001
0301
0000
1000
0100
,
2100
0000
0000
0010
3010
0000
0001
0100
,
1000
0000
0000
1000
0100
1000
0010
0000
,
1001
0000
0000
0000
0110
0000
0010
0100
,
0120
0000
0000
1000
1030
0000
0001
0010
,
0012
0000
0000
0100
0103
0000
0001
1000
,
0001
0000
1000
0100
0001
0000
1000
0001
,
1000
0000
0001
0010
1000
0000
0010
0000
,
1002
0103
2010
3001
,
0001
0100
0010
1000
0100
0000
0010
0001
,
0100
0000
0010
1000
0100
0000
0010
0001
,
1000
0000
0010
1000
0001
0000
0100
0010
,
0200
0001
0010
1300
,
0010
0000
0000
0010
0000
0000
0110
0000
1001
0000
0000
0000
0000
0000
0000
0000
,
0000
0000
0000
0000
;

//---------------dance-double - ----------------
#NOTES:
     dance-double:
     :
     Easy:
     4:
     0.140463,0.176619,0.054624,0.000000,0.000000,108.000000,102.000000,6.000000,0.000000,0.000000,0.000000,0.140463,0.176619,0.054624,0.000000,0.000000,108.000000,102.000000,6.000000,0.000000,0.000000,0.000000:
00000000
00000000
00000000
00000000
,
00000000
00000000
00000000
00000000
,
00000000
00000000
00000000
00000000
,
00000000
00000000
00000000
00000000
,
00000000
00000000
00000000
00000000
,
00000000
00000000
00000000
00000000
,
00001000
00000000
00001000
00000000
,
00010000
00000000
00010000
00000000
,
00001000
00000000
00000100
00000000
,
00000001
00001000
00001001
00000000
,
00000010
00000000
00000010
00000001
,
00000100
00000000
00000100
00000000
,
00000010
00000000
00001000
00000100
,
00001000
00000000
00000000
00000000
,
00010000
00000000
00010000
00001000
,
00100000
00000000
00100000
00000000
,
01000000
00000000
01000000
10000000
,
01000000
00000000
00000000
00000000
,
10000000
00000000
10000000
01000000
,
00010000
00000000
00010000
00000000
,
00001000
00000000
00001000
00000100
,
00000001
00000000
00000001
00000000
,
00000010
00000000
00000010
00000100
,
00001000
00000000
00001000
00000000
,
00010000
00000000
00010000
00100000
,
01000000
00000000
00000000
00000000
,
10010000
00000000
00011000
00000000
,
00000010
00010000
00001000
00000000
,
00100000
00001000
00010000
00000000
,
00001000
00000000
00000100
00000000
,
00000001
00000000
00000000
00000000
,
00001000
00010000
00000100
00000000
,
00010000
00001000
01000000
00000000
,
00010000
00000000
01000000
00000000
,
10010000
00000000
00000000
00000000
,
00010000
00001000
00000100
00000000
,
00001000
00010000
01000000
00000000
,
00100000
10000000
01000000
00010000
,
00001000
00000000
00000000
00000000
,
00001000
00010000
00100000
00000000
,
00010000
00001000
00000010
00000000
,
00000001
00000000
00000001
00000000
,
00001000
00000000
00001000
00000000
,
00010000
00000000
00010000
00000000
,
10000000
00000000
10000000
00000000
,
00100000
00010000
00100000
00000000
,
00001000
00010000
00001000
00000000
,
00000010
00000001
00000010
00000000
,
00001001
00000000
00011000
00000000
,
00000000
00000000
00000000
00000000
;

//---------------dance-double - ----------------
#NOTES:
     dance-double:
     :
     Medium:
     6:
     0.238006,0.331160,0.145665,0.063728,0.000000,183.000000,167.000000,16.000000,7.000000,0.000000,0.000000,0.238006,0.331160,0.145665,0.063728,0.000000,183.000000,167.000000,16.000000,7.000000,0.000000,0.000000:
00000000
00000000
00000000
00000000
,
00000000
00000000
00000000
00000000
,
00000000
00000000
00000000
00000000
,
00000000
00000000
00000000
00000000
,
00000000
00000000
00000000
00000000
,
00000000
00000000
00000000
00000000
,
00010000
00000000
00000100
00001000
00000100
00000000
00000000
00000000
,
00001000
00000000
01000000
00010000
01000000
00000000
00000000
00000000
,
00100000
10000000
01000000
00010000
,
00001000
00000100
00000001
00000000
,
00001001
00000000
00000010
00010000
,
00001000
00000000
00100000
00000000
,
10010000
00000000
00100000
00001000
,
00010000
00000000
00000010
00000000
,
00001000
00000000
00000100
00000000
00000001
00000000
00000100
00000010
,
00000100
00000000
00001000
00000000
,
00010000
00000000
01000000
00000000
10000000
00000000
01000000
00100000
,
01000000
00000000
00010000
00000000
,
00001000
00000000
00010000
00000000
00001000
00000000
00000010
00000100
,
00001000
00000001
00000100
00000000
,
00000010
00000000
00010000
00000000
00000010
00000100
00000010
00000000
,
00002001
00000000
00000000
00003000
,
00010000
00000000
00001000
00000000
00010000
00000000
00100000
01000000
,
00010000
10000000
01000000
00000000
,
00100000
00000000
00001000
00000000
00100000
01000000
00100000
00000000
,
10020000
00000000
00000000
00030000
,
10010000
00010000
00011000
00000000
,
00001000
00000100
00001000
00000100
00000001
00000000
00000100
00000000
,
00000010
00000001
00000010
00000001
00000100
00000000
00000010
00000000
,
00000200
00000300
00020000
00030000
,
00002000
00000000
00003000
00100000
,
00010000
01000000
00010000
01000000
10000000
00000000
01000000
00000000
,
00100000
00010000
00100000
00010000
01000000
00000000
00100000
00000000
,
01100000
00000000
00011000
00000000
,
00000220
00000000
00000330
00000001
,
00000100
00000010
00000100
00000010
00001000
00000000
00000100
00000000
,
00010000
00001000
00010000
00001000
00010000
00000000
01000000
00000000
,
10000000
01000000
00010000
00001000
,
00000100
00000001
00000010
00000110
,
00001000
00000001
00001000
00000001
00000100
00000000
00001000
00000000
,
00010000
00001000
00010000
00001000
00010000
00000000
00011000
00000000
,
00001000
00000000
01000000
00010000
01000000
00000000
00000000
00000000
,
00010000
00000000
00000100
00001000
00000100
00000000
00000000
00000000
,
00000010
00000001
00000100
00001000
,
00010000
01000000
10000000
00000000
,
10010000
00000000
01000000
00100000
01000000
00000000
00010000
00000000
,
00011000
00000000
00010000
00001000
00010000
00000000
00001000
00000000
,
00000110
00000000
00000001
00001000
00000001
00000000
00000100
00000000
,
00001001
00001000
00011000
00000000
,
00000000
00000000
00000000
00000000
;

//---------------dance-double - ----------------
#NOTES:
     dance-double:
     :
     Hard:
     8:
     0.274423,0.331160,0.145665,0.172977,0.009104,211.000000,195.000000,16.000000,19.000000,0.000000,0.000000,0.274423,0.331160,0.145665,0.172977,0.009104,211.000000,195.000000,16.000000,19.000000,0.000000,0.000000:
00000000
00000000
00000000
00000000
,
00000000
00000000
00000000
00000000
,
00000000
00000000
00000000
00000000
,
00000000
00000000
00000000
00000000
,
00000000
00000000
00000000
00000000
,
00000000
00000000
00000000
00000000
00000000
00000000
00000001
00001000
,
00000100
00000000
00010000
00000000
01000000
00000000
10000000
00010000
,
01000000
00000000
00001000
00000000
00000100
00000010
00000001
00000010
,
00000200
00000000
00000000
00000300
,
00000001
00001000
00010000
00001000
00011000
00000000
00000000
00000000
,
00120000
00000000
10000000
10030000
,
10000000
00000000
00010000
00001000
00010000
00000000
00000010
00000000
,
00002100
00000000
00000001
00003001
,
00000001
00000000
00001000
00010000
00001000
00000000
00100000
00000000
,
20000000
00000000
00000000
00010000
30010000
00000000
00001000
00000000
,
00010000
00000000
00100000
00000000
00010000
00001000
00000010
00000000
,
00000002
00000000
00000000
00001000
00001003
00000000
00010000
00000000
,
00011000
00000000
00000000
00000000
,
11000000
00000000
01000000
00000000
00100000
00010000
00001000
00000000
,
00000100
00000010
00000011
00000000
,
00000101
00000000
00000100
00000000
00000010
00001000
00010000
00000000
,
00100000
01000000
10100000
00000000
,
20000000
01000000
00010000
30100000
,
10000000
00010000
00001000
00000000
00010000
00001000
00000001
00000000
,
00000002
00000100
00001000
00000013
,
00001000
00000001
00001000
00010000
00001000
00010000
10000000
00000000
,
10000000
00000000
00000000
00010000
00000000
00000000
10010000
00000000
10010000
00000000
00000000
00000000
00000000
00000000
00000000
00000000
,
10000000
00000000
01000000
00010000
00001000
00000000
00001000
00100000
,
00010000
00000000
00001000
00000100
00000001
00000000
00000100
00000000
,
00002010
00000100
00000001
00003010
,
00010000
00001000
00010000
00100000
00010000
00000000
00000000
00000000
,
10000000
00000000
00100000
00010000
00001000
00000000
00001000
01000000
,
00010000
00000000
00001000
00000010
00000001
00000000
00000010
00000000
,
00002100
00000010
00000001
00003100
,
00022000
00000000
00033000
00000000
,
02000000
00000000
00000000
00100000
03010000
00000000
00100000
01000000
,
20000000
00000000
00000000
00100000
30010000
00000000
00010000
01000000
,
00100000
00000000
00000000
10000000
00010000
00000000
00001000
00000000
,
00002200
00000000
00000000
00000000
00003300
00000000
00000010
00000001
,
00000200
00000000
00000000
00000010
00000301
00000000
00001000
00000010
,
00020000
00000000
00000000
00000100
00031000
00000000
00011000
00000000
,
00100000
00010000
01000000
00000000
00001000
00000000
00000100
00000010
,
00000001
00001000
00000100
00000000
00010000
00000000
01000000
00100000
,
02000000
10000000
00100000
03010000
,
00001000
00010000
00001000
00000100
00001000
00010000
00001000
00000000
,
00000010
00001000
00000100
00000000
00010000
00000000
01000000
00100000
,
10000000
00010000
01000000
00000000
00001000
00000000
00000100
00000010
,
00000200
00000001
00000010
00001300
,
00010000
00000000
00000000
00001000
00000000
00000000
00010000
00000000
10010000
00000000
00000000
00000000
00000000
00000000
00000000
00000000
,
00000000
00000000
00000000
00000000
;

//---------------dance-single - ----------------
#NOTES:
     dance-single:
     :
     Challenge:
     14:
     0.609973,0.687926,0.227602,0.355059,0.705565,469.000000,444.000000,25.000000,39.000000,116.000000,0.000000,0.609973,0.687926,0.227602,0.355059,0.705565,469.000000,444.000000,25.000000,39.000000,116.000000,0.000000:
// measure 0
0000
0000
0000
0000
,  // measure 1
0000
0000
0000
0000
,  // measure 2
0000
0000
0000
0000
,  // measure 3
0000
0000
0000
0000
,  // measure 4
0000
0000
0000
0000
,  // measure 5
0000
0000
0000
0000
0000
0000
0000
0000
0000
0000
0000
0000
1000
0001
1000
0100
,  // measure 6
0010
0000
MMMM
0000
0001
0000
0100
0000
0010
0000
MMMM
0000
0010
1000
0010
1000
,  // measure 7
0100
0000
MMMM
0000
1000
0000
0100
0000
0010
0000
0001
0100
0010
0000
1000
0010
,  // measure 8
0200
0001
1300
MMMM
,  // measure 9
1100
0000
1000
0010
0100
0000
0101
0000
2002
0000
3003
0000
MMMM
0000
0200
0001
,  // measure 10
0010
0000
0000
0301
1000
0001
0010
0001
,  // measure 11
0200
0000
0000
0000
0301
0000
MMMM
0000
1000
0010
0100
0001
1000
0010
0200
0010
,  // measure 12
0001
0000
0000
1300
0010
1000
0100
0001
,  // measure 13
0200
0000
0000
0000
1300
0000
MMMM
0000
0100
1000
0010
1000
0100
0010
0200
0010
,  // measure 14
1000
0000
0000
0301
0010
1000
0100
0010
,  // measure 15
MMMM
0000
0100
0010
0001
0000
0100
0010
1000
0000
0010
0100
0001
1000
0200
0010
,  // measure 16
0001
0000
0000
1300
0010
0100
0001
1000
,  // measure 17
0020
0000
0000
0000
1000
0000
0000
0000
0130
0000
0000
0000
MMMM
0000
0020
0001
,  // measure 18
0100
0000
1000
0130
MMMM
0000
0010
0001
0100
0000
0001
0100
0010
1000
0100
0000
,  // measure 19
0020
0000
0031
0100
MMMM
0000
0010
0000
1000
0010
0001
0100
1000
0100
0002
0010
,  // measure 20
0100
0000
1003
0100
MMMM
0000
0010
0001
0100
0000
0001
0010
0100
1000
0010
0000
,  // measure 21
2000
0000
3010
0100
0000
0000
0010
0000
0001
0010
0100
1000
0010
1000
0200
0010
,  // measure 22
0001
0000
0310
1000
0000
0000
0010
0100
0001
0000
0100
0010
1000
0000
0010
0100
,  // measure 23
MMMM
0000
0100
0010
1000
0000
0010
0100
0001
0000
1000
0100
0010
0000
0002
0010
,  // measure 24
1000
0000
0103
0010
MMMM
0000
1000
0100
0010
0000
0010
0100
1000
0000
1100
0000
,  // measure 25
1000
0010
0100
0001
1000
0100
0010
0001
0100
0010
1000
0001
0010
0100
1000
0010
,  // measure 26
0100
0000
0001
0010
MMMM
0100
0010
0000
2200
3300
MMMM
0000
1000
0100
0010
0001
,  // measure 27
0100
0010
0001
0010
0100
0000
0101
0000
0202
0303
MMMM
0000
1000
0010
0100
0001
,  // measure 28
0010
1000
0010
1000
0100
0000
1100
0000
2200
3300
MMMM
0000
1000
0010
0001
0100
,  // measure 29
2000
0000
0000
3010
1000
0000
0100
0010
0001
0000
0001
0010
0100
0000
1000
0010
,  // measure 30
0200
0000
0001
0000
1000
0000
0301
0000
0010
0001
0100
0010
1000
0100
0010
0001
,  // measure 31
0100
0010
1000
0100
0010
0000
0011
0000
2002
3003
MMMM
0000
0010
0001
0100
0010
,  // measure 32
1000
0100
0010
0100
1000
0000
1100
0000
1010
0000
0110
0000
0101
0000
0011
0000
,  // measure 33
0101
MMMM
1100
MMMM
,  // measure 34
0100
0100
0010
0010
1000
0001
0010
0100
1000
0000
0010
0000
0001
0010
0100
1000
,  // measure 35
0010
0100
0001
0100
0010
0000
1100
0000
0022
0033
MMMM
0000
0001
0010
0100
1000
,  // measure 36
0010
0001
0100
1000
0010
0000
0101
0000
2020
3030
MMMM
0000
1000
0010
0100
0001
,  // measure 37
1000
0000
0100
0010
1000
0000
0010
0100
0001
0000
0100
0010
1000
0000
0100
0001
,  // measure 38
0020
0000
0100
0000
1000
0000
0130
0000
0010
0001
0100
0010
1000
0100
0010
0001
,  // measure 39
0100
0001
0010
1000
0100
0000
1001
0000
0110
0000
MMMM
0000
0010
0001
0100
0010
,  // measure 40
1000
0000
0100
1000
MMMM
0000
0010
0100
0001
0000
0100
0010
1000
0000
0010
0001
,  // measure 41
0100
0001
0010
0001
0100
0001
0010
0001
0100
0000
MMMM
0000
1000
0100
0010
0001
,  // measure 42
1000
0010
0100
0010
1000
0010
0100
0010
1000
0000
MMMM
0000
0010
0001
0100
1000
,  // measure 43
0010
0000
0100
0001
1000
0000
0010
0100
0001
0000
1000
0100
0010
0000
0001
0010
,  // measure 44
0200
0000
2000
3000
0002
0003
2000
3000
2000
3000
0002
0303
0010
0100
0001
1000
,  // measure 45
0100
0010
1000
0100
0010
0001
0100
0010
1000
0000
MMMM
0000
0010
0100
0001
1000
,  // measure 46
0100
0010
0001
0100
0010
1000
0001
0010
0100
0000
0010
1000
0100
0000
0010
0001
,  // measure 47
1000
0100
0010
0100
1000
0010
0100
0010
1000
0100
0010
0100
1000
0010
0100
0010
,  // measure 48
1000
0000
0010
0001
MMMM
0100
0010
0000
0202
0000
0000
0000
0303
0000
0000
0000
;
