#TITLE:TURN ME ON (HEAVENLY MIX);
#SUBTITLE:;
#ARTIST:E-ROTIC;
#TITLETRANSLIT:;
#SUBTITLETRANSLIT:;
#ARTISTTRANSLIT:;
#GENRE:;
#CREDIT:;
#BANNER:TURN ME ON (HEAVENLY MIX).png;
#BACKGROUND:TURN ME ON (HEAVENLY MIX)-bg.png;
#LYRICSPATH:;
#CDTITLE:;
#MUSIC:TURN ME ON (HEAVENLY MIX).ogg;
#OFFSET:0.000000;
#SAMPLESTART:50.113998;
#SAMPLELENGTH:15.000000;
#SELECTABLE:YES;
#DISPLAYBPM:170.000000;
#BPMS:0.000000=169.906006
,60.000000=170.035995
,216.000000=182.207001
,217.000000=170.026993
,232.000000=170.979004
,236.000000=169.477997
;
#STOPS:
;
#BGCHANGES:;
#KEYSOUNDS:;
#ATTACKS:;

//---------------dance-single - ----------------
#NOTES:
     dance-single:
     :
     Beginner:
     1:
     0.126231,0.208754,0.000000,0.000000,0.000000,80.000000,80.000000,0.000000,0.000000,0.000000,0.000000,0.126231,0.208754,0.000000,0.000000,0.000000,80.000000,80.000000,0.000000,0.000000,0.000000,0.000000:
0000
0000
0000
0000
,
0000
0000
0000
0000
,
0000
0000
0000
0000
,
0000
0000
0000
0000
,
0000
0000
0000
0000
,
0010
0000
0000
0000
,
1000
0000
0000
0000
,
0001
0000
0000
0000
,
1000
0000
0000
0000
,
0010
0010
0000
0000
,
1000
1000
0000
0000
,
0001
0000
0000
0000
,
0010
0000
0000
0000
,
0100
0100
0000
0000
,
0010
0010
0000
0000
,
1000
0000
0000
0000
,
0001
0000
0000
0000
,
1000
0000
0000
0000
,
0010
0000
0000
0000
,
0100
0000
0000
0000
,
0001
0000
0000
0000
,
1000
0000
0000
0000
,
0010
0000
0000
0000
,
0010
0000
0001
0000
,
0100
0000
1000
0000
,
0100
0100
0100
0100
,
0000
0000
0000
0000
,
0100
0000
0000
0000
,
0001
0000
0000
0000
,
0100
0000
0000
0000
,
1000
0000
0000
0000
,
0010
0000
0000
0000
,
0001
0000
0000
0000
,
0100
0000
0000
0000
,
0010
0000
0000
0000
,
1000
1000
0000
0000
,
0001
0000
0001
0000
,
1000
0000
1000
0000
,
0010
0000
0000
0000
,
0100
0000
0000
0000
,
0001
0000
0000
0000
,
0010
0000
0000
0000
,
0001
0000
0001
0000
,
1000
0000
1000
0000
,
0010
0000
0000
0000
,
0100
0000
0000
0000
,
1000
0000
0000
0000
,
0001
0001
0000
0000
,
1000
1000
0000
0000
,
0010
0000
0010
0000
,
0010
0000
0000
0000
,
0001
0000
0000
0000
,
1000
0000
0000
0000
,
0100
0000
0000
0000
,
0010
0000
0000
0000
,
0001
0000
0000
0000
,
1000
0000
0000
0000
,
0100
0000
0000
0000
,
0010
0000
0010
0000
,
0001
0000
0001
0000
,
1000
0000
1000
0000
,
0100
0000
0100
0000
,
0001
0000
0100
0000
,
1000
0000
0000
0000
;

//---------------dance-single - ----------------
#NOTES:
     dance-single:
     :
     Easy:
     5:
     0.260351,0.313132,0.000000,0.000000,0.000000,165.000000,165.000000,0.000000,0.000000,0.000000,0.000000,0.260351,0.313132,0.000000,0.000000,0.000000,165.000000,165.000000,0.000000,0.000000,0.000000,0.000000:
0000
0000
0000
0000
,
0000
0000
0000
0000
,
0000
0000
0000
0000
,
0000
0000
0000
0000
,
0000
0000
0000
0000
,
0001
1000
0010
0100
,
0001
1000
0010
0100
,
0001
1000
0010
0100
,
0001
1000
0010
0100
,
0001
0100
1000
0100
,
0010
0100
0001
1000
,
0001
0100
1000
0100
,
0010
0100
0001
1000
,
0001
0100
1000
0010
,
0100
0001
1000
0010
,
0100
0000
0000
0000
,
0001
0000
0000
0000
,
1000
0000
0000
0000
,
0010
0000
0000
0000
,
0100
0000
0000
0000
,
0001
0000
0000
0000
,
1000
0000
0000
0000
,
0010
0000
0000
0000
,
0100
0001
1000
0010
,
0100
0001
1000
0010
,
0100
0010
0100
0010
,
1000
0001
1000
0001
,
0100
0000
0010
0000
,
1000
0000
0001
0000
,
0100
0000
1000
0000
,
0100
0000
0001
0000
,
1000
0000
0001
0000
,
0010
0000
0100
0000
,
1000
0000
0100
0000
,
0001
0000
0100
0000
,
1000
1000
0000
0000
,
0001
1000
0010
0100
,
0001
1000
0010
0100
,
0001
1000
0010
0100
,
0001
1000
0010
0100
,
0001
0100
1000
0100
,
0010
0100
0001
1000
,
0001
0100
1000
0100
,
0010
0100
0001
1000
,
0001
0100
1000
0010
,
0100
0001
1000
0010
,
0100
0001
1000
0100
,
0001
0010
1000
0100
,
0001
0010
1000
0100
,
0001
0100
1000
0100
,
0010
0000
0000
0000
,
0001
0000
0000
0000
,
1000
0000
0000
0000
,
0100
0000
0000
0000
,
0010
0000
0000
0000
,
0001
0000
0000
0000
,
1000
0000
0000
0000
,
0100
0000
0000
0000
,
0010
0100
1000
0001
,
0100
0010
1000
0001
,
1000
1000
0001
0001
,
0010
0010
0100
0100
,
0001
0000
0100
0000
,
1000
0000
0000
0000
;

//---------------dance-single - ----------------
#NOTES:
     dance-single:
     :
     Medium:
     9:
     0.435497,0.451404,0.000000,0.000000,0.000000,276.000000,276.000000,0.000000,0.000000,0.000000,0.000000,0.435497,0.451404,0.000000,0.000000,0.000000,276.000000,276.000000,0.000000,0.000000,0.000000,0.000000:
0000
0000
0000
0000
,
0000
0000
0000
0000
,
0000
0000
0000
0000
,
0000
0000
0000
0000
,
0000
0000
0000
0000
,
1000
0100
1000
0000
0001
0100
0001
0000
,
1000
0010
1000
0000
0001
0010
0001
0000
,
1000
0100
0001
0000
0001
0100
1000
0000
,
1000
0010
0001
0000
0001
0010
1000
0000
,
0010
0100
0010
0000
0100
0010
0100
0000
,
0010
1000
0010
0000
0100
0001
0100
0000
,
0010
1000
0100
0000
0010
0001
0100
0000
,
0010
0100
0001
0000
0010
0100
1000
0000
,
0001
1000
0100
0000
1000
0001
0010
0000
,
0001
1000
0010
0000
1000
0001
0100
0000
,
0010
0000
0000
0010
0000
0000
0000
0000
,
0001
0000
0000
0001
0000
0000
0000
0000
,
1000
0000
0000
1000
0000
0000
0000
0000
,
0100
0000
0000
0100
0000
0000
0000
0000
,
0010
0000
0000
0010
0000
0000
0000
0000
,
0001
0000
0000
0001
0000
0000
0000
0000
,
1000
0000
0000
1000
0000
0000
0000
0000
,
0100
0000
0000
0100
0000
0000
0000
0000
,
1000
0010
1000
0000
0001
0100
0001
0000
,
1000
0100
1000
0000
0001
0000
0001
0000
,
0010
0100
0010
0000
0100
1000
0100
0000
,
0010
0001
0010
0000
0100
0000
0100
0000
,
1000
0001
0010
0100
,
1000
0010
0100
0001
,
0010
0100
1000
0001
,
0100
0010
1000
0100
,
0010
0001
0100
0010
,
1000
0001
0010
0100
,
1000
0010
0100
0001
,
0010
0100
1000
0001
,
1000
0000
1000
1000
0000
0000
0000
0000
,
1000
0100
1000
0000
0001
0100
0001
0000
,
1000
0010
1000
0000
0001
0010
0001
0000
,
1000
0100
0001
0000
0001
0100
1000
0000
,
1000
0010
0001
0000
0001
0010
1000
0000
,
0010
0100
0010
0000
0100
0010
0100
0000
,
0010
1000
0010
0000
0100
0001
0100
0000
,
0010
1000
0100
0000
0010
0001
0100
0000
,
0010
0100
0001
0000
0010
0100
1000
0000
,
0001
1000
0100
0000
1000
0001
0010
0000
,
0001
1000
0010
0000
1000
0001
0100
0000
,
0001
0010
0100
0000
1000
0010
0100
0000
,
0001
0010
1000
0000
1000
0100
0001
0000
,
0001
0010
1000
0000
1000
0100
0001
0000
,
0001
0010
0001
0000
1000
0100
1000
0000
,
0010
0010
0010
0010
,
0001
0001
0001
0001
,
1000
1000
1000
1000
,
0100
0100
0100
0100
,
0010
0010
0010
0010
,
0001
0001
0001
0001
,
1000
1000
1000
1000
,
0100
0100
0100
0100
,
1000
0100
1000
0000
0001
0010
0001
0000
,
1000
0010
1000
0000
0001
0000
0001
0000
,
0100
0010
0100
0000
0010
0100
0010
0000
,
1000
0100
0001
0000
0100
0000
0100
0000
,
0010
0000
0010
0000
0010
0000
0100
0010
;

//---------------dance-single - ----------------
#NOTES:
     dance-single:
     :
     Hard:
     12:
     0.471788,0.555574,0.000000,0.000000,0.000000,299.000000,299.000000,0.000000,0.000000,0.000000,0.000000,0.471788,0.555574,0.000000,0.000000,0.000000,299.000000,299.000000,0.000000,0.000000,0.000000,0.000000:
0000
0000
0000
0000
,
0000
0000
0000
0000
,
0000
0000
0000
0000
,
0000
0000
0000
0000
,
0000
0000
0000
0000
,
1000
0100
1000
0001
0100
0010
0100
0000
,
0001
0010
0001
0100
0010
1000
0100
0000
,
0010
0001
0100
0010
1000
0100
0010
0000
,
0001
1000
0001
0100
0010
1000
0100
0000
,
1000
0001
1000
0010
0100
0001
0010
0000
,
0100
1000
0010
0100
0001
0010
0100
0000
,
1000
0010
0100
0001
0010
0100
1000
0000
,
0001
0100
0001
1000
0100
0010
0001
0000
,
1000
0010
1000
0001
0010
0100
1000
0000
,
0001
0010
0100
1000
0010
0100
0001
0000
,
0010
0000
0000
0010
0000
0000
0000
0000
,
0001
0000
0000
0001
0000
0000
1000
1000
,
1000
0000
0000
1000
0000
0000
0000
0000
,
0100
0000
0000
0100
0000
0000
0010
0010
,
0010
0000
0000
0010
0000
0000
0000
0000
,
0001
0000
0000
0001
0000
0000
0000
0000
,
1000
0000
0000
1000
0000
0000
0000
0000
,
0100
0000
0000
0100
0000
0000
0000
0000
,
1000
0000
1000
0000
1000
0000
0001
0010
,
0000
0100
1000
0000
0001
0001
0001
0000
,
0010
0000
0010
0000
0100
0000
0100
0010
,
0000
0100
0100
0100
,
1000
0000
0001
0000
0010
0100
0010
0000
,
0001
0000
0100
0000
0010
0100
0010
0000
,
0100
0000
0010
0000
1000
0001
1000
0000
,
0100
0000
0010
0000
0001
1000
0100
0000
,
0010
0000
0001
0000
0100
0010
1000
0000
,
0001
0000
1000
0000
0010
0100
0001
0000
,
1000
0000
0010
0000
0100
0001
0010
0000
,
0100
0000
1000
0000
0001
0100
0001
0000
,
1000
0000
1000
1000
0000
0000
0000
0000
,
1000
0100
1000
0001
0100
0010
0100
0000
,
0001
0010
0001
0100
0010
1000
0100
0000
,
0010
0001
0100
0010
1000
0100
0010
0000
,
0001
1000
0001
0100
0010
1000
0100
0000
,
1000
0001
1000
0010
0100
0001
0010
0000
,
0100
1000
0010
0100
0001
0010
0100
0000
,
1000
0010
0100
0001
0010
0100
1000
0000
,
0001
0100
0001
1000
0100
0010
0001
0000
,
1000
0010
1000
0001
0010
0100
1000
0000
,
0001
0010
0100
1000
0010
0100
0001
0000
,
1000
0100
1000
0001
0100
0001
1000
0000
,
0001
0010
0001
1000
0010
1000
0001
0000
,
0010
0100
1000
0001
0100
0010
1000
0100
,
0010
0001
0100
0010
1000
0001
0100
0000
,
0010
0000
0010
0010
0000
0000
0000
0000
,
0001
0000
0001
0001
0000
0000
0000
0000
,
1000
0000
1000
1000
0000
0000
0000
0000
,
0100
0000
0100
0100
0000
0000
0000
0000
,
0010
0000
0010
0010
0000
0000
0000
0000
,
0001
0000
0001
0001
0000
0000
0000
0000
,
1000
0000
1000
1000
0000
0000
0000
0000
,
0100
0000
0100
0100
0000
0000
0000
0000
,
0010
0000
0100
0000
1000
0000
0001
0010
,
0000
0100
0010
0000
0001
0001
0001
0000
,
1000
0000
0001
0000
0010
0000
0100
0010
,
0000
0001
1000
0000
0100
0100
0100
0000
,
0010
0000
0010
0000
0010
0000
0100
0010
;

//---------------dance-couple - ----------------
#NOTES:
     dance-couple:
     :
     Medium:
     7:
     0.317155,0.555574,0.265085,0.000000,0.000000,201.000000,177.000000,24.000000,0.000000,0.000000,0.000000,0.317155,0.555574,0.265085,0.000000,0.000000,201.000000,177.000000,24.000000,0.000000,0.000000,0.000000:
00000000
00000000
00000000
00000000
,
00000000
00000000
00000000
00000000
,
00000000
00000000
00000000
00000000
,
00000000
00000000
00000000
00000000
,
00000000
00000000
00000000
00000000
,
00011000
10000001
00100010
01000100
,
00011000
10000001
00100010
01000100
,
00010000
10000000
00100000
01000000
,
00001000
00000001
00000010
00000100
,
00100000
01000000
00100000
00000000
01000000
00100000
01000000
00000000
,
00000010
00000001
00000010
00000000
00000100
00001000
00000100
00000000
,
00100000
10000000
01000000
00000000
00100000
00010000
01000000
00000000
,
00000010
00000100
00001000
00000000
00000010
00000100
00000001
00000000
,
10000000
00100000
10000000
00010000
00100000
01000000
10000000
00000000
,
00001000
00000010
00000100
00000001
00000010
00000100
00001000
00000000
,
10010000
00000000
00000000
00001001
00000000
00000000
00000000
00000000
,
00000110
00000000
00000000
01100000
00000000
00000000
00000010
00000010
,
00000010
00000000
00000000
10010000
00000000
00000000
00000000
00000000
,
01010000
00000000
00000000
00001100
00000000
00000000
00100000
00100000
,
00100000
00000000
00000000
00000101
00000000
00000000
00000000
00000000
,
00001010
00000000
00000000
00110000
00000000
00000000
00000000
00000000
,
00111010
00000000
00000000
01011010
00000000
00000000
00000000
00000000
,
11000101
00000000
00000000
10100011
00000000
00000000
00000000
00000000
,
10000001
00000000
10000001
00000000
10000001
00000000
00011000
00100010
,
00000000
01000100
10000001
00000000
00011000
00011000
00011000
00000000
,
00100010
00000000
00100010
00000000
01000100
00000000
01000100
00100010
,
00000000
10000001
10000001
10000001
,
10000000
00000000
00010000
00000000
00100000
01000000
00100000
00000000
,
00010000
00000000
01000000
00000000
00100000
01000000
00100000
00000000
,
01000000
00000000
00100000
00000000
10000000
00010000
10000000
00000000
,
01000000
00000000
00100000
00000000
00010000
10000000
01000000
00000000
,
00001000
00000000
00000001
00000000
00000010
00000100
00000010
00000000
,
00000001
00000000
00000100
00000000
00000010
00000100
00000010
00000000
,
00000100
00000000
00000010
00000000
00001000
00000001
00001000
00000000
,
00000100
00000000
00000010
00000000
00000001
00001000
00000100
00000000
,
10011001
00000000
01000100
01000100
00000000
00000000
00000000
00000000
,
10000000
01000000
10000000
00010000
01000000
00100000
01000000
00000000
,
00001000
00000100
00001000
00000001
00000100
00000010
00000100
00000000
,
00100000
00010000
01000000
00100000
10000000
01000000
00100000
00000000
,
00000010
00000001
00000100
00000010
00001000
00000100
00000010
00000000
,
10000000
00010000
10000000
00100000
01000000
00010000
00100000
00000000
,
00001000
00000001
00001000
00000010
00000100
00000001
00000010
00000000
,
10001000
00100010
01000100
00010001
00100010
01000100
10001000
00000000
,
00010001
01000100
00010001
10001000
01000100
00100010
00010001
00000000
,
00001000
00000010
00001000
00000001
00000010
00000100
00001000
00000000
,
10000000
00100000
10000000
00010000
00100000
01000000
10000000
00000000
,
00000001
00000010
00000001
00001000
00000010
00001000
00000001
00000000
,
00010000
00100000
00010000
10000000
00100000
10000000
00010000
00000000
,
00100010
01000100
10001000
00010001
01000100
00100010
10001000
01000100
,
00100010
00010001
01000100
00100010
10001000
00010001
01000100
00000000
,
00100010
00000000
10000001
01000100
00000000
00000000
00000000
00000000
,
10010000
00000000
00001000
00000001
00000000
00000000
00000000
00000000
,
00001001
00000000
00010000
10000000
00000000
00000000
00000000
00000000
,
00100000
00000000
10000000
01000000
00000000
00000000
00000000
00000000
,
00000001
00000000
00001000
00000100
00000000
00000000
00000000
00000000
,
00100000
00000000
00010000
01000000
00000000
00000000
00000000
00000000
,
00001000
00000000
00000001
00000100
00000000
00000000
00000000
00000000
,
10011001
00000000
00100010
01000100
00000000
00000000
00000000
00000000
,
10010000
00000000
00001001
00000000
10010000
00000000
00001001
10010000
,
00000000
00001001
10010000
00000000
00001001
10010000
00001001
00000000
,
00000110
00000000
01100000
00000000
00000110
00000000
01100000
00000110
,
00000000
01100000
00000110
00000000
01100000
00000110
01100000
00000000
,
00001001
00000000
10010000
00000000
10011001
00000000
00011000
01000100
;

//---------------dance-double - ----------------
#NOTES:
     dance-double:
     :
     Easy:
     5:
     0.356602,0.416680,0.110452,0.000000,0.000000,226.000000,216.000000,10.000000,0.000000,0.000000,0.000000,0.356602,0.416680,0.110452,0.000000,0.000000,226.000000,216.000000,10.000000,0.000000,0.000000,0.000000:
00000000
00000000
00000000
00000000
,
00000000
00000000
00000000
00000000
,
00000000
00000000
00000000
00000000
,
00000000
00000000
00000000
00000000
,
00000000
00000000
00000000
00000000
,
10000000
10000000
00010000
00010000
,
00001000
00001000
00000001
00000001
,
00000001
00000100
00001000
00010000
,
10000000
01000000
00010000
00001000
,
00000001
00000100
00001000
00010000
,
10000000
01000000
00010000
00001000
,
00000001
00000001
00000100
00000100
,
00010000
10000000
01000000
00010000
,
00000010
00000010
00000100
00000100
,
00010000
10000000
01000000
00010000
,
00000010
00000000
00000000
00000100
00000000
00000000
00000000
00000000
,
00001000
00000000
00000000
00010000
00000000
00000000
00000000
00000000
,
01000000
00000000
00000000
00100000
00000000
00000000
00000000
00000000
,
00001000
00000000
00000000
00010000
00000000
00000000
00000000
00000000
,
00000001
00000000
00000000
00000100
00000000
00000000
00000000
00000000
,
00010000
00000000
00000000
00000010
00000000
00000000
00000000
00000000
,
00001000
00000000
00000000
01000000
00000000
00000000
00000000
00000000
,
00010000
00000000
00000000
10000000
00000000
00000000
00000000
00000000
,
10000000
10000000
00010000
00010000
,
00001000
00001000
00001001
00001001
,
00000100
00000000
00000100
00000000
00010000
00000000
00010000
01000000
,
00000000
10000000
01000000
10000000
,
00010000
01000000
00001000
00010000
,
00000010
00001000
00000001
00000100
,
00001000
00000100
00010000
00001000
,
00100000
00010000
10000000
01000000
,
10010000
01000000
00001000
00000001
,
00001001
00000100
00010000
10000000
,
10010000
01000000
00001000
00000001
,
00001001
00000100
00010000
10000000
,
01000000
00000000
00010000
00001000
00000000
00000000
00000000
00000000
,
00000001
00000001
00000100
00001000
,
00010000
00010000
01000000
10000000
,
10000000
10000000
00010000
01000000
,
00001000
00001000
00000100
00000001
,
00000010
00000010
00000100
00000100
,
00010000
00010000
00100000
00100000
,
10000000
01000000
00010000
00000010
,
00000100
00000100
00010000
00100000
,
01000000
01000000
00010000
00000010
,
00000100
00000001
00001000
01000000
,
10000000
10000000
00010000
01000000
,
00001000
00001000
00000100
00000100
,
00010000
00010000
00100000
00100000
,
10000000
00010000
00000100
00000001
,
00001000
00001000
00000100
00000100
,
00010000
00010000
01000000
01000000
,
10000000
10000000
00100000
00100000
,
00010000
00010000
00001000
00001000
,
00000100
00000100
00000001
00000001
,
00000010
00000010
00000100
00000100
,
00010000
00010000
00001000
00001000
,
00100000
00100000
01000000
01000000
,
10000000
10000000
00010000
00010000
,
00001000
00001000
00001001
00000101
,
00000001
00000001
00001000
00001000
,
00010000
00010000
10010000
11000000
,
10000000
00000000
00010000
00000000
00001000
00000000
00000001
00000100
;

//---------------dance-double - ----------------
#NOTES:
     dance-double:
     :
     Medium:
     6:
     0.459165,0.555574,0.165678,0.000000,0.000000,291.000000,276.000000,15.000000,0.000000,0.000000,0.000000,0.459165,0.555574,0.165678,0.000000,0.000000,291.000000,276.000000,15.000000,0.000000,0.000000,0.000000:
00000000
00000000
00000000
00000000
,
00000000
00000000
00000000
00000000
,
00000000
00000000
00000000
00000000
,
00000000
00000000
00000000
00000000
,
00000000
00000000
00000000
00000000
,
10000000
01000000
10000000
00000000
00010000
00000000
00010000
00000000
,
00001000
00000100
00001000
00000000
00000001
00000000
00000001
00000000
,
00000001
00000000
00000100
00000000
00001000
00010000
01000000
00000000
,
10000000
00000000
01000000
00000000
00010000
00001000
00000100
00000000
,
00000001
00000000
00000100
00000000
00001000
00010000
01000000
00000000
,
10000000
00000000
01000000
00000000
00010000
00001000
00000100
00000000
,
00000001
00000001
00001000
00001000
,
00010000
00000000
10000000
00000000
01000000
00010000
00001000
00000000
,
00000010
00000010
00000100
00000100
,
00010000
00000000
10000000
00000000
01000000
00010000
00001000
00000000
,
00000010
00000000
00000000
00000100
00000000
00000000
00001000
00000000
,
00001000
00000000
00000000
00010000
00000000
00000000
01000000
00000000
,
01000000
00000000
00000000
00100000
00000000
00000000
00001000
00000000
,
00001000
00000000
00000000
00010000
00000000
00000000
00000100
00000000
,
00000001
00000000
00000000
00000100
00000000
00000000
00010000
00000000
,
00010000
00000000
00000000
00000100
00000000
00000000
00001000
00000000
,
00001000
00000000
00000000
01000000
00000000
00000000
00001000
00000000
,
00001000
00000000
00000000
01000000
00000000
00000000
10000000
00000000
,
10000000
01000000
10000000
00000000
00010000
01000000
00010000
00000000
,
00001000
00000000
00001000
00000000
00000001
00000100
00000010
00000000
,
00000100
00000000
00000100
00000000
00001000
00000000
00010000
01000000
,
00000000
10010000
10010000
10010000
,
10000000
00010000
01000000
00000000
00001000
00010000
00001000
00000000
,
00000010
00001000
00000100
00000000
00000001
00001000
00000100
00000000
,
00001000
00000100
00010000
00000000
00010000
00001000
01000000
00000000
,
00100000
10000000
00010000
00000000
10000000
00010000
01000000
00000000
,
10010000
00000000
00011000
00000000
00000001
00001000
00000100
00000000
,
00001001
00000000
00011000
00000000
10000000
00010000
01000000
00000000
,
10010000
00000000
00011000
00000000
00001000
00000001
00000100
00000000
,
00001001
00000000
00011000
00000000
00010000
10000000
01000000
00000000
,
00011000
00000000
00001000
00010000
00000000
00000000
00000000
00000000
,
00000001
00000100
00000001
00000000
00001000
00000100
00001000
00000000
,
00010000
01000000
00010000
00000000
10000000
01000000
10000000
00000000
,
10000000
00000000
10000000
00000000
00010000
01000000
00010000
00000000
,
00001000
00000000
00001000
00000000
00000001
00000100
00000001
00000000
,
00000010
00000000
00000010
00000000
00000100
00001000
00000100
00000000
,
00100000
00000000
00100000
00000000
01000000
10000000
01000000
00000000
,
10000000
01000000
00010000
00000010
,
00000100
00000001
00001000
00000000
00001000
00000000
01000000
00000000
,
01000000
10000000
00010000
00000000
00010000
00000000
00000100
00000000
,
00000100
00000001
00001000
00000000
00001000
00000000
01000000
00000000
,
01000000
10000000
00010000
00000000
00010000
00000000
00000100
00000000
,
00001000
00000000
00001000
00000000
00010000
00001000
00010000
00000000
,
00100000
00000000
10000000
00000000
00100000
10000000
01000000
00000000
,
10000000
00000000
00010000
00000000
00000100
00000001
00001000
00000000
,
00001000
00000000
00001000
00000000
00000100
00001000
00000001
00000000
,
00001000
00000000
00010000
00000000
10000000
01000000
00010000
00000000
,
10000000
00000000
10000000
00000000
00100000
00010000
00001000
00000000
,
00010000
00000000
00010000
00000000
00001000
00000010
00000001
00000000
,
00000100
00000000
00000100
00000000
00000001
00001000
00000100
00000000
,
00000010
00000000
00000010
00000000
00000100
00010000
00001000
00000000
,
00010000
00000000
00010000
00000000
00001000
00010000
00100000
00000000
,
10000000
00000000
10000000
00000000
01000000
00100000
00010000
00000000
,
10000000
01000000
10000000
00000000
00010000
01000000
00010000
00000000
,
00001000
00000000
00001000
00000000
00000001
00000100
00000010
00000000
,
00000001
00000100
00000001
00000000
00001000
00000100
00001000
00000000
,
00010000
00000000
00010000
00000000
10000000
01000000
00100000
00000000
,
10010000
00000000
00011000
00000000
00001001
00000000
00000100
00000010
;

//---------------dance-double - ----------------
#NOTES:
     dance-double:
     :
     Hard:
     9:
     0.558572,0.590297,0.320311,0.000000,0.000000,354.000000,325.000000,29.000000,0.000000,0.000000,0.000000,0.558572,0.590297,0.320311,0.000000,0.000000,354.000000,325.000000,29.000000,0.000000,0.000000,0.000000:
00000000
00000000
00000000
00000000
,
00000000
00000000
00000000
00000000
,
00000000
00000000
00000000
00000000
,
00000000
00000000
00000000
00000000
,
00000000
00000000
00000000
00000000
,
10000000
01000000
10000000
00000000
00010000
01000000
00100000
00000000
,
00001000
00000100
00001000
00000000
00000001
00000100
00000010
00000000
,
00000001
00000000
00000100
00000000
00001000
00010000
01000000
00000000
,
10000000
00000000
01000000
00000000
00010000
00001000
00000100
00000000
,
00000001
00000000
00000100
00000000
00001000
00010000
01000000
00000000
,
10000000
00000000
01000000
00000000
00010000
00001000
00000100
00000000
,
00000001
00000000
00000001
00000000
00001000
00010000
10000000
00000000
,
00010000
00000000
10000000
00000000
01000000
00010000
00001000
00000000
,
00000010
00000010
00000100
00000100
,
00010000
00000000
10000000
00000000
01000000
00010000
00001000
00000000
,
00000010
00000000
00000001
00000100
00000000
00000010
00001000
00000100
,
00010000
00000000
00001000
00010000
00000000
00100000
10000000
00010000
,
01000000
00000000
10000000
00100000
00000000
01000000
00010000
10000000
,
01000000
00000000
00010000
00001000
00000000
00000100
00000010
00001000
,
00000001
00000000
00001000
00000100
00000000
00000001
00000100
00001000
,
00010000
00000000
01000000
10000000
00000000
00010000
10000000
01000000
,
00010000
00000000
00010000
00001000
00000000
00000010
00001000
00010000
,
00100000
00000000
10000000
01000000
00000000
00000000
00000000
00000000
,
10010000
00000000
00011000
00000000
00001001
00000000
00010000
00001000
,
00000000
10000000
01000000
00000000
00100000
00001000
00010000
00000000
,
00001001
00000000
00011000
00000000
10010000
00000000
00011000
00000100
,
00000000
00011000
00101000
10010000
,
00010000
10000000
01000000
00100000
00001000
00010000
00001000
00000000
,
00000010
00001000
00000001
00000100
00001000
00100000
01000000
00000000
,
10000000
00010000
01000000
00001000
00010000
00000010
00000100
00000000
,
00001000
00000100
00000001
00000100
00001000
00010000
01000000
00000000
,
00100000
00010000
00001000
00000001
00000100
00001000
00010000
00000000
,
00000100
00000001
00000100
00010000
00100000
00010000
00001000
00000000
,
01000000
10000000
00010000
01000000
00001000
00000100
00000001
00000010
,
00001000
00010000
00100000
10000000
01000000
00010000
00000010
00000000
,
00011000
00000000
00001000
00000100
00000000
00000001
00001000
00000000
,
00000010
00000001
00000100
00000000
00001000
00010000
00001000
00000000
,
00100000
00001000
00010000
00000000
10000000
00010000
01000000
00000000
,
00100000
10000000
01000000
00000000
00010000
00001000
00000100
00000000
,
00000010
00001000
00010000
00000000
00001000
00000100
00000001
00000000
,
00000100
00000010
00001000
00000000
00000100
00010000
00001000
00000000
,
00100000
10000000
01000000
00000000
00010000
00001000
01000000
00000000
,
10000000
01000000
00010000
00000000
00010000
00000010
00000001
00000000
,
00000100
00000001
00001000
00000000
00001000
00000010
00010000
00000000
,
01000000
10000000
00010000
00000000
00000100
00000010
00001000
00000000
,
00000100
00001000
00100000
00000000
01000000
00010000
10000000
00000000
,
01000000
10000000
00010000
00000000
00000100
00000001
00000010
00000000
,
00000100
00001000
00100000
00000000
00010000
00100000
10000000
00000000
,
00010000
00000010
00000001
00000000
00000100
00010000
01000000
00000000
,
00100000
10000000
01000000
00000000
00010000
00000010
00000100
00000000
,
00001001
00000000
00001000
00010000
00000000
01000000
01000000
00000000
,
10010000
00000000
00010000
00001000
00000000
00000100
00000100
00000000
,
00001001
00000000
00001000
00010000
00000000
01000000
01000000
00000000
,
10010000
00000000
00010000
00001000
00000000
00000100
00000100
00000000
,
00000110
00000000
00010000
01000000
00000000
10000000
10000000
00000000
,
01100000
00000000
00001000
00000100
00000000
00000001
00000001
00000000
,
00000101
00000000
00001000
00010000
00000000
00100000
00100000
00000000
,
11000000
00000000
00010000
00001000
00000000
00000010
00000010
00000000
,
00001001
00000000
00011000
00000000
10010000
00000000
00010000
00001000
,
00000000
10000000
01000000
00000000
00100000
00001000
00010000
00000000
,
00001001
00000000
00011000
00000000
10010000
00000000
00001000
00010000
,
00000000
00000001
00000100
00000000
00000010
00010000
00001000
00000000
,
10010000
00000000
01100000
00000000
00011000
00000000
00000110
00000001
;

//---------------dance-solo - ----------------
#NOTES:
     dance-solo:
     :
     Easy:
     4:
     0.260351,0.313132,0.000000,0.000000,0.000000,165.000000,165.000000,0.000000,0.000000,0.000000,0.000000,0.260351,0.313132,0.000000,0.000000,0.000000,165.000000,165.000000,0.000000,0.000000,0.000000,0.000000:
000000
000000
000000
000000
,
000000
000000
000000
000000
,
000000
000000
000000
000000
,
000000
000000
000000
000000
,
000000
000000
000000
000000
,
000001
010000
001000
010000
,
000001
100000
001000
100000
,
000001
010000
001000
010000
,
000001
100000
001000
100000
,
000010
001000
000001
001000
,
100000
000100
001000
000001
,
000001
001000
000100
100000
,
000100
001000
000010
100000
,
001000
000100
010000
000001
,
001000
000100
100000
000001
,
001000
000000
000000
000000
,
000001
000000
000000
000000
,
100000
000000
000000
000000
,
000100
000000
000000
000000
,
001000
000000
000000
000000
,
000010
000000
000000
000000
,
010000
000000
000000
000000
,
000100
000000
000000
000000
,
001000
000010
001000
000001
,
010000
001000
100000
001000
,
000100
001000
000100
001000
,
000001
100000
000001
100000
,
000100
000000
001000
000000
,
000001
000000
100000
000000
,
001000
000000
000100
000000
,
010000
000000
000001
000000
,
100000
000000
000010
000000
,
001000
000000
000100
000000
,
100000
000000
000100
000000
,
001000
000000
000001
000000
,
001000
001000
000000
000000
,
000010
100000
000100
001000
,
000001
100000
000100
001000
,
000010
100000
000100
001000
,
000001
100000
000100
001000
,
000001
001000
010000
001000
,
000100
001000
010000
001000
,
000001
001000
010000
001000
,
000100
001000
010000
001000
,
000001
010000
000010
100000
,
001000
000010
001000
010000
,
001000
000010
001000
010000
,
000001
010000
000010
100000
,
000001
010000
000010
100000
,
000001
100000
000010
010000
,
001000
000000
000000
000000
,
000001
000000
000000
000000
,
000100
000000
000000
000000
,
100000
000000
000000
000000
,
000010
000000
000000
000000
,
010000
000000
000000
000000
,
000001
000000
000000
000000
,
001000
000000
000000
000000
,
000100
001000
000010
010000
,
001000
000100
010000
000010
,
100000
100000
000001
000001
,
001000
001000
000100
000100
,
000001
000000
001000
000000
,
100000
000000
000000
000000
;

//---------------dance-solo - ----------------
#NOTES:
     dance-solo:
     :
     Medium:
     6:
     0.435497,0.451404,0.000000,0.000000,0.000000,276.000000,276.000000,0.000000,0.000000,0.000000,0.000000,0.435497,0.451404,0.000000,0.000000,0.000000,276.000000,276.000000,0.000000,0.000000,0.000000,0.000000:
000000
000000
000000
000000
,
000000
000000
000000
000000
,
000000
000000
000000
000000
,
000000
000000
000000
000000
,
000000
000000
000000
000000
,
010000
100000
010000
000000
000010
000100
000010
000000
,
100000
000100
100000
000000
000001
000100
000001
000000
,
100000
001000
000001
000000
000001
001000
100000
000000
,
100000
000100
000001
000000
000001
000100
100000
000000
,
001000
000100
001000
000000
000100
001000
000100
000000
,
001000
000010
001000
000000
000100
010000
000100
000000
,
001000
000010
001000
000000
000001
000100
000001
000000
,
001000
000100
100000
000000
001000
000001
000010
000000
,
001000
000100
001000
000000
100000
000001
100000
000000
,
000010
001000
000100
000000
100000
000001
010000
000000
,
001000
000000
000000
001000
000000
000000
000000
000000
,
000001
000000
000000
000001
000000
000000
000000
000000
,
010000
000000
000000
010000
000000
000000
000000
000000
,
001000
000000
000000
001000
000000
000000
000000
000000
,
000010
000000
000000
000010
000000
000000
000000
000000
,
100000
000000
000000
100000
000000
000000
000000
000000
,
000001
000000
000000
000001
000000
000000
000000
000000
,
010000
000000
000000
010000
000000
000000
000000
000000
,
000001
001000
000001
000000
100000
001000
100000
000000
,
000001
000100
000001
000000
010000
000000
010000
000000
,
000100
001000
000100
000000
001000
010000
001000
000000
,
001000
000010
001000
000000
100000
000000
100000
000000
,
000001
100000
000100
001000
,
000001
010000
000010
100000
,
000100
001000
000010
100000
,
001000
000010
100000
000100
,
001000
000001
010000
000010
,
100000
000100
001000
000001
,
010000
000100
001000
000010
,
100000
001000
000100
000001
,
100000
000000
100000
100000
000000
000000
000000
000000
,
010000
100000
010000
000000
000010
000001
000010
000000
,
100000
000100
100000
000000
000001
000100
000001
000000
,
100000
001000
000001
000000
000001
001000
100000
000000
,
100000
000100
000001
000000
000001
000100
100000
000000
,
000010
000100
000010
000000
010000
000100
010000
000000
,
000001
000010
000001
000000
100000
010000
100000
000000
,
000100
100000
001000
000000
000100
000001
001000
000000
,
000100
001000
000001
000000
000100
001000
100000
000000
,
000001
010000
001000
000000
100000
000010
001000
000000
,
000001
100000
000100
000000
100000
000001
001000
000000
,
000001
001000
000010
000000
100000
001000
000000
000000
,
000001
000010
000001
000000
100000
010000
100000
000000
,
000001
000100
000010
000000
100000
000100
010000
000000
,
000010
000001
000001
000000
010000
100000
100000
000000
,
000100
000100
000100
000100
,
010000
010000
010000
010000
,
000001
000001
000001
000001
,
001000
001000
001000
001000
,
000010
000010
000010
000010
,
100000
100000
100000
100000
,
000100
000100
000100
000100
,
010000
010000
010000
010000
,
100000
010000
100000
000000
000001
000010
000001
000000
,
010000
001000
010000
000000
000010
001000
000010
000000
,
001000
000100
001000
000000
000100
001000
000100
000000
,
100000
001000
000001
000000
001000
000000
001000
000000
,
000100
000000
000100
000000
000100
000000
001000
000010
;

//---------------dance-solo - ----------------
#NOTES:
     dance-solo:
     :
     Hard:
     8:
     0.473366,0.555574,0.000000,0.000000,0.000000,300.000000,300.000000,0.000000,0.000000,0.000000,0.000000,0.473366,0.555574,0.000000,0.000000,0.000000,300.000000,300.000000,0.000000,0.000000,0.000000,0.000000:
000000
000000
000000
000000
,
000000
000000
000000
000000
,
000000
000000
000000
000000
,
000000
000000
000000
000000
,
000000
000000
000000
000000
,
010000
001000
010000
000010
001000
000100
001000
000000
,
000010
000001
000010
000001
001000
000100
001000
000010
,
100000
001000
010000
000100
001000
001000
000100
000000
,
100000
000010
100000
000001
001000
000010
000100
000000
,
000001
010000
000001
100000
001000
010000
000100
000000
,
000010
000001
000100
000001
100000
000001
001000
000000
,
000001
001000
000100
010000
000100
100000
000001
000000
,
001000
000100
001000
000010
001000
010000
001000
000000
,
000001
010000
000001
100000
000100
001000
000001
000000
,
100000
000100
001000
000001
100000
000001
001000
000000
,
000100
000000
000000
000100
000000
000000
000000
000000
,
000001
000000
000000
000001
000000
000000
100000
100000
,
100000
000000
000000
100000
000000
000000
000000
000000
,
000010
000000
000000
000010
000000
000000
000010
000010
,
000010
000000
000000
000010
000000
000000
000000
000000
,
001000
000000
000000
001000
000000
000000
000000
000000
,
000100
000000
000000
000100
000000
000000
000000
000000
,
100000
000000
000000
100000
000000
000000
000000
000000
,
000001
000000
000001
000000
000001
000000
000001
000100
,
000000
001000
100000
000000
000001
000001
000001
000000
,
001000
000000
001000
000000
000100
000000
000100
001000
,
000000
000100
000100
000100
,
100000
000000
000001
000000
001000
000100
001000
000000
,
000010
000000
001000
000000
000010
001000
000010
000000
,
010000
000000
001000
000000
010000
001000
010000
000000
,
000100
000000
001000
000000
000001
100000
001000
000000
,
100000
000000
000100
000000
001000
000001
100000
000000
,
000100
000000
100000
000000
000100
001000
000001
000000
,
100000
000000
000100
000000
001000
000001
100000
000000
,
001000
000000
100000
000000
000001
001000
000001
000000
,
010000
000000
010000
010000
000000
000000
000000
000000
,
000010
000001
000010
000001
001000
000100
001000
000000
,
100000
010000
100000
000100
001000
000010
001000
000000
,
000001
000100
000010
001000
000001
000100
000010
000000
,
100000
000100
100000
001000
010000
000001
001000
000000
,
000001
000100
000001
100000
000100
001000
000001
000000
,
001000
000010
100000
000001
001000
000100
001000
000000
,
000001
100000
000010
001000
000100
010000
000010
000000
,
100000
000001
001000
000010
100000
000001
001000
000000
,
000001
000100
100000
000100
000001
000100
000001
000000
,
000001
000100
001000
100000
000100
001000
000001
000000
,
100000
001000
100000
000100
001000
000100
100000
000000
,
000001
001000
000001
100000
000100
100000
001000
000000
,
010000
000001
001000
000010
100000
000010
001000
000001
,
000100
001000
100000
001000
000100
000001
100000
000000
,
001000
000000
001000
001000
000000
000000
000000
000000
,
000001
000000
000001
000001
000000
000000
000000
000000
,
010000
000000
010000
010000
000000
000000
000000
000000
,
000100
000000
000100
000100
000000
000000
000000
000000
,
100000
000000
100000
100000
000000
000000
000000
000000
,
000010
000000
000010
000010
000000
000000
000000
000000
,
001000
000000
001000
001000
000000
000000
000000
000000
,
000001
000000
000001
000001
000000
000000
000000
000000
,
000100
000000
001000
000000
000001
000000
100000
100000
,
000000
001000
000100
000000
000001
000001
000001
000000
,
100000
000000
000001
000000
001000
000000
000100
001000
,
000000
000001
100000
000000
000100
000100
000100
000000
,
001000
000000
001000
000000
001000
000000
000100
010000
;

//---------------dance-single - ----------------
#NOTES:
     dance-single:
     :
     Challenge:
     15:
     0.741607,1.145871,0.000000,0.000000,0.265085,470.000000,470.000000,0.000000,0.000000,0.000000,0.000000,0.741607,1.145871,0.000000,0.000000,0.265085,470.000000,470.000000,0.000000,0.000000,0.000000,0.000000:
// measure 0
0000
0000
0000
0000
,  // measure 1
0000
0000
0000
0000
,  // measure 2
0000
0000
0000
0000
,  // measure 3
0000
0000
0000
0000
,  // measure 4
0000
0000
0000
0000
,  // measure 5
1000
0100
0010
0001
1000
0100
0010
0001
,  // measure 6
0001
0010
0100
1000
0001
0010
0100
1000
,  // measure 7
1000
0010
0100
0001
1000
0010
0100
0001
,  // measure 8
0001
0100
0010
1000
0001
0100
0010
1000
,  // measure 9
1000
0100
0010
0001
1000
0100
0010
0001
,  // measure 10
0001
0010
1000
0100
0001
0010
1000
0100
,  // measure 11
0100
0010
0001
0100
1000
0010
0001
0100
,  // measure 12
0100
0010
1000
0100
0001
0010
1000
0100
,  // measure 13
0100
0001
1000
0100
0010
0001
0100
0010
,  // measure 14
0100
0010
0001
0010
0100
0010
0001
0010
,  // measure 15
0100
0000
0000
0100
0000
0100
0100
0100
,  // measure 16
0100
0000
0000
0100
0000
0100
0100
0100
,  // measure 17
0100
0000
0000
0100
0000
0100
0100
0100
,  // measure 18
0100
0000
0000
0100
0000
0100
0100
0100
,  // measure 19
1000
0000
0000
1000
0000
1000
1000
1000
,  // measure 20
1000
0000
0000
1000
0000
1000
1000
1000
,  // measure 21
1000
0000
0000
1000
0000
1000
1000
1000
,  // measure 22
1000
0000
0000
1000
0000
1000
1000
1000
,  // measure 23
0001
0000
0100
0000
0010
0000
1000
0100
,  // measure 24
0000
0100
0001
0000
0010
0010
0010
0000
,  // measure 25
0001
0010
0000
0000
0010
1000
0000
0000
1000
0100
0000
0000
0010
0000
0001
0000
,  // measure 26
0000
0100
0010
1000
,  // measure 27
1000
0000
0010
0100
0010
0000
0001
0000
0100
0000
0010
0100
0010
0000
1000
0000
,  // measure 28
0001
0000
0100
0010
0100
0000
1000
0000
0100
0000
0010
0100
0010
0000
0001
0000
,  // measure 29
1000
0000
0100
0001
0100
0000
0010
0000
1000
0000
0001
0100
0001
0000
0010
0000
,  // measure 30
1000
0000
0100
1000
0100
0000
0010
0000
0001
0000
0100
0001
0100
0000
0010
0000
,  // measure 31
1000
0000
0010
1000
0010
0000
0001
0000
0010
0000
0001
0100
0001
0000
0010
0000
,  // measure 32
1000
0000
0001
0100
0001
0000
0010
0000
1000
0000
0100
1000
0100
0000
0010
0000
,  // measure 33
0001
0000
1000
0001
1000
0000
0010
0000
0100
0000
0001
1000
0001
0000
0010
0000
,  // measure 34
0100
0000
0010
0100
0010
0000
1000
0000
0001
0000
0100
0010
0100
0000
0010
0000
,  // measure 35
0100
0000
0100
0010
0001
0010
0100
0010
,  // measure 36
1000
0010
0100
0010
0001
0010
0100
0010
,  // measure 37
1000
0100
0010
0100
0001
0100
0010
0100
,  // measure 38
0001
0100
0010
0100
1000
0100
0010
0100
,  // measure 39
0001
0100
0010
0100
1000
0100
0010
0100
,  // measure 40
0001
0010
1000
0010
0100
0010
0001
0010
,  // measure 41
0100
0010
1000
0010
0100
0010
0001
0010
,  // measure 42
0100
1000
0010
1000
0100
1000
0010
1000
,  // measure 43
0001
1000
0010
1000
0001
1000
0010
1000
,  // measure 44
0010
0001
0100
0001
0010
0001
0100
0001
,  // measure 45
1000
0001
0100
0001
0010
0001
0100
0001
,  // measure 46
1000
0100
0010
0001
0010
0100
1000
0010
,  // measure 47
0100
0001
0010
0100
1000
0010
0100
0001
,  // measure 48
0010
0001
0100
0010
1000
0100
0010
0001
,  // measure 49
0100
0010
1000
0001
0100
0010
1000
0100
,  // measure 50
0010
0001
0010
0010
0100
1000
1000
1000
,  // measure 51
0100
0001
0010
0010
1000
0001
0001
0001
,  // measure 52
0100
0010
1000
1000
0010
0100
0100
0100
,  // measure 53
0100
0010
0001
0001
0010
0010
0010
0100
,  // measure 54
1000
0100
1000
1000
0010
0100
0100
0100
,  // measure 55
0100
0010
0001
0001
0010
1000
1000
1000
,  // measure 56
1000
0010
0001
0001
0010
0100
0100
0100
,  // measure 57
0100
0000
0001
0000
0010
0000
0010
0000
0001
0000
0010
0001
0010
1000
0010
0000
,  // measure 58
0100
0010
0100
0000
0001
0100
0001
0000
0010
1000
0000
0000
1000
0010
1000
0000
,  // measure 59
0001
0010
0001
0000
0100
0010
0100
0000
0010
0100
0010
0100
0010
0100
0010
0000
,  // measure 60
1000
0100
1000
0100
0010
0001
0010
0001
1000
0100
1000
0100
0010
0001
0010
0001
,  // measure 61
1000
0010
1000
0010
0100
0001
0100
0001
1000
0010
1000
0010
0100
0001
0100
0001
,  // measure 62
0010
0000
0000
0010
0001
0000
0010
0000
0100
0000
0000
0100
0010
0000
1000
0000
;
