#VERSION:0.83;
#TITLE:TRUE♥LOVE (Clubstar's True Club Mix);
#SUBTITLE:;
#ARTIST:jun feat. Schanita;
#TITLETRANSLIT:;
#SUBTITLETRANSLIT:;
#ARTISTTRANSLIT:;
#GENRE:;
#ORIGIN:;
#CREDIT:;
#BANNER:TRUE LOVE (Clubstar_s True Club Mix).png;
#BACKGROUND:TRUE LOVE (Clubstar_s True Club Mix)-bg.png;
#PREVIEWVID:;
#JACKET:;
#CDIMAGE:;
#DISCIMAGE:;
#LYRICSPATH:;
#CDTITLE:;
#MUSIC:TRUE LOVE (Clubstar_s True Club Mix).mp3;
#OFFSET:0.000000;
#SAMPLESTART:48.086002;
#SAMPLELENGTH:15.000000;
#SELECTABLE:YES;
#BPMS:0.000=130.700,
4.000=135.000;
#STOPS:;
#DELAYS:;
#WARPS:;
#TIMESIGNATURES:0.000=4=4;
#TICKCOUNTS:0.000=4;
#COMBOS:0.000=1;
#SPEEDS:0.000=1.000=0.000=0;
#SCROLLS:0.000=1.000;
#FAKES:;
#LABELS:0.000=Song Start;
#BGCHANGES:;
#KEYSOUNDS:;
#ATTACKS:
;

//---------------dance-single - ----------------
#NOTEDATA:;
#CHARTNAME:;
#STEPSTYPE:dance-single;
#DESCRIPTION:;
#CHARTSTYLE:;
#DIFFICULTY:Beginner;
#METER:3;
#RADARVALUES:0.137263,0.215678,0.122661,0.061330,0.000000,94.000000,82.000000,12.000000,6.000000,0.000000,0.000000,0.000000,0.000000,0.000000,0.137263,0.215678,0.122661,0.061330,0.000000,94.000000,82.000000,12.000000,6.000000,0.000000,0.000000,0.000000,0.000000,0.000000;
#CREDIT:;
#NOTES:
0000
0000
0000
0000
,
0000
0000
0000
0000
,
0000
0000
0000
0000
,
0000
0000
0000
0000
,
0000
0000
0000
0000
,
0000
0001
0000
0000
,
0000
1000
0000
0000
,
0000
0010
0000
0000
,
0001
0000
1000
0000
,
0002
0000
0000
0003
,
2000
0000
0000
3000
,
0001
0000
0000
0010
,
0100
0000
0010
0000
,
0002
0000
0000
0003
,
0200
0000
0000
0300
,
1000
0000
0000
0100
,
1000
0000
0000
0000
,
0000
1001
0000
1001
,
0000
0000
1000
0001
,
0000
0110
0000
0110
,
0000
1000
0001
0000
,
0000
1001
0000
1001
,
0000
0000
0100
0100
,
2002
0000
0000
0000
,
3003
0000
0000
0000
,
0000
0000
1000
0001
,
0000
0000
0010
0100
,
0000
0001
0000
1001
,
0000
0000
0000
0000
,
0000
0000
0001
1000
,
0000
0000
1000
1000
,
0000
0001
0001
0000
,
0010
0000
0000
1001
,
0000
0000
0001
0010
,
0000
0001
0000
0010
,
0000
0001
0000
1000
,
0000
0001
0100
0000
,
0000
0000
1000
0010
,
0000
0010
0000
0100
,
0001
0100
0000
0100
,
0100
0000
0000
1001
,
0000
0001
0100
0000
,
0000
1000
0010
0000
,
0000
1000
0001
0000
,
0000
0000
0000
0000
,
0000
1000
0010
0000
,
0000
0001
0100
0000
,
0000
0001
1000
0000
,
0100
0000
0000
1001
,
0000
0010
0000
0010
,
0000
0001
0000
0001
,
0000
1000
0000
1000
,
0010
0000
0000
1001
;

//---------------dance-single - ----------------
#NOTEDATA:;
#CHARTNAME:;
#STEPSTYPE:dance-single;
#DESCRIPTION:;
#CHARTSTYLE:;
#DIFFICULTY:Easy;
#METER:5;
#RADARVALUES:0.223417,0.323517,0.265764,0.061330,0.000000,153.000000,127.000000,26.000000,6.000000,0.000000,0.000000,0.000000,0.000000,0.000000,0.223417,0.323517,0.265764,0.061330,0.000000,153.000000,127.000000,26.000000,6.000000,0.000000,0.000000,0.000000,0.000000,0.000000;
#CREDIT:;
#NOTES:
0000
0000
0000
0000
,
0000
0000
0000
0000
,
0000
0000
0000
0000
,
0000
0000
0000
0000
,
0000
0000
0000
0000
,
0000
1000
0000
1000
,
0000
0001
0000
0001
,
0000
0010
0000
0010
,
1000
0100
0010
0001
,
2000
0000
0000
3001
,
0002
0000
0000
1003
,
1000
0000
0010
0010
,
0100
0000
0010
0000
,
2000
0000
0000
3001
,
0200
0000
0000
1300
,
0001
0000
0100
0100
,
0001
0000
0000
0000
,
0110
1001
0110
1001
,
0000
0000
0001
1000
,
0110
1001
0110
1001
,
0000
0001
1000
0000
,
0110
1001
0110
1001
,
0000
0000
0100
0100
,
2002
0000
0000
0000
,
3003
0000
0000
0000
,
0110
0110
0001
1000
,
1000
0010
0010
0100
,
1000
1000
0000
1001
,
0010
0010
0000
0000
,
0110
0110
1000
0001
,
1000
0100
0001
0001
,
0010
1000
1000
0000
,
0010
0000
0010
1001
,
0110
0110
1000
0010
,
0000
1000
0000
0010
,
0000
1000
0000
0001
,
1000
1000
0100
0000
,
0110
0110
0001
0010
,
0000
0010
0000
0100
,
1000
0100
0000
0100
,
0100
0000
0100
1001
,
0100
1000
0100
0000
,
0010
0001
0010
0000
,
1000
0001
1000
0000
,
0000
0000
0000
0000
,
0010
0001
0010
0000
,
0100
1000
0100
0000
,
0001
1000
0001
0000
,
0100
0000
0100
1001
,
0000
0010
0000
0010
,
0000
1000
0000
1000
,
0000
0001
0000
0001
,
0010
0010
0010
1001
;

//---------------dance-single - ----------------
#NOTEDATA:;
#CHARTNAME:;
#STEPSTYPE:dance-single;
#DESCRIPTION:;
#CHARTSTYLE:;
#DIFFICULTY:Medium;
#METER:6;
#RADARVALUES:0.325634,0.404396,0.378203,0.081774,0.000000,223.000000,186.000000,37.000000,8.000000,0.000000,0.000000,0.000000,0.000000,0.000000,0.325634,0.404396,0.378203,0.081774,0.000000,223.000000,186.000000,37.000000,8.000000,0.000000,0.000000,0.000000,0.000000,0.000000;
#CREDIT:;
#NOTES:
0000
0000
0000
0000
,
0000
0000
0000
0000
,
0000
0000
0000
0000
,
0000
0000
0000
0000
,
0000
0000
0000
0000
,
1000
1000
0001
1000
,
0001
0001
0110
1001
,
1000
1000
0001
0010
,
1000
0100
0010
0001
,
1000
0000
0001
2000
0000
0001
0000
3000
,
0010
0000
0100
0002
0000
1000
0000
0003
,
0100
0000
0010
2000
3000
0010
0000
1000
,
0100
0010
0001
1000
0000
0000
0000
0000
,
0001
0000
0010
2000
0000
0001
0000
3000
,
0100
0000
1000
0200
0000
0001
0000
0300
,
1000
0000
0100
0002
0003
0010
0000
0100
,
0001
0001
0000
0100
0000
1001
0000
0000
,
0100
0011
0100
1100
,
0000
0000
0000
0010
0010
0001
1000
0000
,
0010
1010
0100
0101
,
0000
0000
1000
1000
0010
0001
0000
0000
,
0110
1001
0110
1001
,
0000
0100
1000
1000
0010
0001
1000
0000
,
2000
0000
0000
0002
0000
0000
3000
0000
,
0003
0000
0000
0000
,
0011
1010
0001
1000
,
1000
0100
0010
0000
0010
0001
0100
0000
,
0100
1000
0000
1001
,
0001
1000
0000
0000
,
1010
0011
0100
1000
,
1000
0001
0010
0000
0010
0001
0001
1000
,
0000
0000
1000
0001
0000
0000
0000
0000
,
0010
0100
0010
1001
,
1001
0000
0011
0000
1000
0000
0010
0001
,
0000
0100
1000
0000
0000
0100
0010
0000
,
0001
0000
1000
0001
0000
0000
0001
0000
,
1000
0010
0000
0001
0100
0000
0000
0000
,
1001
0000
1100
0000
0001
0000
0010
1000
,
0000
0001
0010
0000
0000
0000
0100
0000
,
1000
0000
0100
0010
0000
1000
0100
0000
,
0100
0010
0100
1001
,
0100
1100
0001
0110
,
0010
0101
1000
1100
,
0010
0011
0100
0110
,
0000
0000
0000
0000
,
0010
1010
0001
0110
,
0100
0011
1000
1010
,
0100
0101
0010
0110
,
0000
0000
0000
0110
0000
1001
0000
0000
,
0010
0001
0010
0001
,
1000
0001
1000
0001
,
0100
1000
0100
1000
,
0100
0010
0100
1001
;

//---------------dance-single - ----------------
#NOTEDATA:;
#CHARTNAME:;
#STEPSTYPE:dance-single;
#DESCRIPTION:;
#CHARTSTYLE:;
#DIFFICULTY:Hard;
#METER:10;
#RADARVALUES:0.424931,0.485276,0.429312,0.163547,0.035776,291.000000,249.000000,42.000000,16.000000,0.000000,0.000000,0.000000,0.000000,0.000000,0.424931,0.485276,0.429312,0.163547,0.035776,291.000000,249.000000,42.000000,16.000000,0.000000,0.000000,0.000000,0.000000,0.000000;
#CREDIT:;
#NOTES:
0000
0000
0000
0000
,
0000
0000
0000
0000
,
0000
0000
0000
0000
,
0000
0000
0000
0000
,
0000
0000
0000
0000
,
0100
0000
0000
0100
0000
0000
0100
0000
0000
0000
0001
0000
1000
0000
0000
0000
,
0001
0000
0000
0001
0000
0000
0001
0000
0110
0000
0000
0000
1001
0000
0000
0000
,
1000
0000
0000
1000
0000
0000
1000
0000
0100
0000
0010
0000
0001
0000
0100
0000
,
1000
0000
0000
0100
0000
0000
0001
0000
0001
0000
0000
0100
0000
0000
1000
0000
,
0001
1000
0001
2000
3000
0200
0000
0300
,
1000
0100
1000
2000
3000
0002
0000
0003
,
0010
0001
0010
2000
3000
0220
0330
1000
,
0100
0010
0100
1000
0000
0000
0000
0000
,
1000
0100
0010
0002
0003
0200
0000
0300
,
1000
0100
0001
0020
0030
0200
0000
0300
,
0001
1000
0100
2000
3000
0022
0033
0100
,
1000
1000
0000
0110
0000
1001
0000
0000
,
0110
0000
1010
0000
0110
0000
0101
0100
,
0100
1000
0001
0010
0010
1000
0001
0000
,
0110
0000
0011
0000
0110
0000
1100
1000
,
1000
0100
0001
0001
0010
1000
0000
0000
,
0110
0000
1100
0000
0110
0000
0011
1000
,
1000
0100
0001
0001
0010
1000
0001
1000
,
2000
0000
3000
0100
0020
0000
0000
0000
,
0030
0000
0000
0000
,
1100
0000
0101
0000
1000
0100
0001
0000
,
0001
0010
0100
0000
0100
1000
0010
0000
,
0010
1000
0001
1000
0000
0000
1001
0000
,
1000
0010
0010
0100
1000
1000
0001
0000
,
0101
0000
1100
0000
0010
0100
0001
0000
,
0001
1000
0100
0000
0100
1000
1000
0001
,
0000
1000
0001
1000
0000
0000
0000
0000
,
0010
0000
0000
0100
0000
0000
0001
0000
1000
0000
0000
0000
1001
0000
0000
0000
,
1001
0000
1100
0000
0001
0000
0100
1000
,
0000
0010
0001
1000
0000
0010
0100
0000
,
1000
0000
0001
1000
0000
0000
1000
0000
,
0001
0100
0010
1000
0000
0000
0000
0000
,
1001
0000
0011
0000
1000
0000
0100
0001
,
0000
1000
0100
0010
0000
0000
0010
0000
,
0001
0000
0010
0100
0000
0001
0010
0100
,
1000
0000
0000
0001
0000
0000
0100
0000
0010
0000
0000
0000
1001
0000
0000
0000
,
1000
0100
1000
1000
0000
0100
0010
0011
,
0000
0001
1000
0110
0000
0100
0001
1010
,
0000
0100
0001
1000
0000
0100
1000
1001
,
0010
0000
0100
0001
0000
0001
1000
0000
,
0001
0010
0001
0001
0000
0010
0100
1100
,
0000
1000
0001
0110
0000
0010
1000
0101
,
0000
0010
1000
0001
0000
0010
0001
1001
,
0100
0100
0000
0110
0000
1001
0000
0000
,
0001
0000
1000
0000
1000
0100
0010
0000
,
0100
0000
1000
0000
1000
0100
0010
0001
,
1000
0001
0110
1001
,
1000
0100
0010
1001
;

//---------------dance-single - ----------------
#NOTEDATA:;
#CHARTNAME:;
#STEPSTYPE:dance-single;
#DESCRIPTION:;
#CHARTSTYLE:;
#DIFFICULTY:Challenge;
#METER:6;
#RADARVALUES:0.286208,0.404396,0.357760,0.081774,0.000000,196.000000,161.000000,35.000000,8.000000,124.000000,0.000000,0.000000,0.000000,0.000000,0.286208,0.404396,0.357760,0.081774,0.000000,196.000000,161.000000,35.000000,8.000000,124.000000,0.000000,0.000000,0.000000,0.000000;
#CREDIT:;
#NOTES:
0000
0000
0000
0000
,
0000
0000
0000
0000
,
0000
0000
0000
0000
,
0000
0000
0000
0000
,
0000
0000
0000
0000
,
1000
1000
0001
MMMM
,
0001
0001
MMMM
1001
,
1000
1000
0001
MMMM
,
1000
0100
0010
0001
,
1000
0000
0001
2000
0000
0001
0000
3000
,
0010
0000
0100
0002
0000
1000
0000
0003
,
0100
0000
0010
2000
3000
0010
0000
1000
,
0100
0010
0001
1000
0000
0000
MMMM
0000
,
0001
0000
0010
2000
0000
0001
0000
3000
,
0100
0000
1000
0200
0000
0001
0000
0300
,
1000
0000
0100
0002
0003
0010
0000
0100
,
0001
0001
0000
0100
0000
1001
0000
0000
,
MMMM
0011
MMMM
1100
,
0000
0000
0000
0010
0010
0001
1000
0000
,
MMMM
1010
MMMM
0101
,
0000
0000
1000
1000
0010
0001
0000
0000
,
0110
1001
0110
1001
,
0000
0100
1000
1000
0010
0001
1000
0000
,
2000
0000
0000
0002
0000
0000
3000
0000
,
0003
0000
0000
MMMM
,
0011
1010
0001
1000
,
1000
0100
0010
0000
0010
0001
0100
0000
,
MMMM
1000
0000
1001
,
0001
1000
0000
MMMM
,
1010
0011
0100
1000
,
1000
0001
0010
0000
0010
0001
0001
1000
,
0000
0000
1000
0001
0000
0000
MMMM
0000
,
0010
0100
0010
MMMM
,
1001
0000
0011
0000
1000
0000
0010
0001
,
0000
0100
1000
0000
MMMM
0100
0010
0000
,
0001
0000
1000
0001
0000
0000
0001
0000
,
1000
0010
0000
0001
0100
0000
MMMM
0000
,
1001
0000
1100
0000
0001
0000
0010
1000
,
0000
0001
0010
0000
MMMM
0000
0100
0000
,
1000
0000
0100
0010
0000
1000
0100
0000
,
0010
0100
1001
0000
,
MMMM
1100
MMMM
0110
,
MMMM
0101
MMMM
1100
,
MMMM
0011
MMMM
0110
,
0000
0000
0000
0000
,
MMMM
1010
MMMM
0110
,
MMMM
0011
MMMM
1010
,
MMMM
0101
MMMM
0110
,
0000
0000
0000
0110
0000
1001
0000
0000
,
0010
0001
0010
MMMM
,
1000
0001
1000
MMMM
,
0100
1000
0100
MMMM
,
0100
0010
0100
1001
;

//---------------dance-double - ----------------
#NOTEDATA:;
#CHARTNAME:;
#STEPSTYPE:dance-double;
#DESCRIPTION:;
#CHARTSTYLE:;
#DIFFICULTY:Easy;
#METER:5;
#RADARVALUES:0.205894,0.269598,0.091995,0.020443,0.000000,141.000000,132.000000,9.000000,2.000000,0.000000,0.000000,0.000000,0.000000,0.000000,0.205894,0.269598,0.091995,0.020443,0.000000,141.000000,132.000000,9.000000,2.000000,0.000000,0.000000,0.000000,0.000000,0.000000;
#CREDIT:;
#NOTES:
00000000
00000000
00000000
00000000
,
00000000
00000000
00000000
00000000
,
00000000
00000000
00000000
00000000
,
00000000
00000000
00000000
00000000
,
00000000
00000000
00000000
00000000
,
10000000
01000000
00100000
00000000
,
00001000
00010000
00000010
00000000
,
00001000
00000001
00000010
00000000
,
00001000
00001000
00010000
00000000
,
00000010
00000000
00001000
00000001
,
00000100
00000000
00001000
00010000
,
01000000
00000000
01000000
00000000
,
00010000
00001000
00010000
00000000
,
00100000
00000000
00010000
10000000
,
01000000
00000000
00010000
00001000
,
00000100
00000000
00000100
00000000
,
00001000
00010000
00001000
00000000
,
00100000
00100000
00100000
00000000
,
00001000
00000000
00010000
00000000
,
00000010
00000010
00000010
00000000
,
00010000
00000000
00001000
00000000
,
01000000
00010000
01000000
00000000
,
00001000
00001000
00010000
00010000
,
00000200
00000000
00000020
00000000
,
00000330
00000000
00000000
00000000
,
00000001
00001000
00000001
00001000
,
00000100
00010000
00001000
00000000
,
00100000
00001000
01000000
00010000
,
10000000
00000000
00000000
00000000
,
10000000
00010000
10000000
00010000
,
01000000
00001000
00010000
00000000
,
00000100
00000000
00000010
00000000
,
00000100
00000000
00001001
00000000
,
00000100
00010000
00010000
00000000
,
00001000
00100000
00001000
00000000
,
00010000
00001000
01000000
00010000
,
01000000
00000000
00000000
00000000
,
01000000
00001000
00001000
00000000
,
00010000
00000010
00010000
00000000
,
00000100
00000000
00000100
00000100
,
00000010
00000000
00001001
00000000
,
00000100
00010000
00010100
00000000
,
00100000
00001000
00101000
00000000
,
00000100
00010000
00010100
00000000
,
00000000
00000000
00000000
00000000
,
00100000
00001000
00101000
00000000
,
00000010
00010000
00010010
00000000
,
00100000
00001000
00101000
00000000
,
00000000
00000000
00000000
00000000
,
00000010
00000001
00000010
00000001
,
00001000
00000100
00001000
00000100
,
00010000
00001000
00010000
00001000
,
01000000
00100000
01000000
01100000
;

//---------------dance-double - ----------------
#NOTEDATA:;
#CHARTNAME:;
#STEPSTYPE:dance-double;
#DESCRIPTION:;
#CHARTSTYLE:;
#DIFFICULTY:Medium;
#METER:7;
#RADARVALUES:0.334396,0.377437,0.194212,0.020443,0.045998,229.000000,210.000000,19.000000,2.000000,0.000000,0.000000,0.000000,0.000000,0.000000,0.334396,0.377437,0.194212,0.020443,0.045998,229.000000,210.000000,19.000000,2.000000,0.000000,0.000000,0.000000,0.000000,0.000000;
#CREDIT:;
#NOTES:
00000000
00000000
00000000
00000000
,
00000000
00000000
00000000
00000000
,
00000000
00000000
00000000
00000000
,
00000000
00000000
00000000
00000000
,
00000000
00000000
00000000
00000000
,
00010000
00000000
00000000
00010000
00000000
00000000
00010000
00000000
00000000
00000000
10000000
00000000
00000000
00000000
01000000
00000000
,
00010000
00000000
00000000
00010000
00000000
00000000
00010000
00000000
00000000
00000000
00001000
00000000
00000000
00000000
00001000
00000000
,
00010000
00000000
00000000
00010000
00000000
00000000
00010000
00000000
00000000
00000000
00000010
00000000
00000000
00000000
00000100
00000000
,
00000001
00000000
00000000
00000001
00000000
00000000
00001000
00000000
00000100
00000000
00000000
00000100
00000000
00000000
00000100
00000000
,
00001000
00000010
00010000
00001000
,
01000000
00100000
01000000
10010000
,
00100000
00100000
00001000
01000000
,
00010000
00100000
00000000
01000000
10000000
00000000
00000000
00000000
,
00010000
00100000
00001000
00010000
,
00000100
00000010
00000100
00001001
,
00000010
00000010
00010000
00000100
,
00001000
00000010
00000000
00000100
00000001
00000000
00000001
00000000
,
00001100
00010000
00001100
00010000
,
00000010
00001000
00010000
00100000
,
00110000
00001000
01010000
00001000
,
00000010
00001000
00010000
00000000
00001000
00010000
00001000
00000000
,
00100000
00011000
00000010
00011000
,
01000000
00010000
00001000
00010000
,
00000020
00000000
00000200
00000000
,
00000330
00000000
00000000
00000000
,
00001001
00001001
00000010
00010000
,
00000100
00000000
00000001
00000000
00000100
00001000
00000100
00000000
,
00010000
00010000
00001000
01000000
,
00010000
00000000
00100000
01000000
10000000
00000000
00000000
00000000
,
10010000
10010000
00100000
00001000
,
01000000
00000000
10000000
00000000
01000000
00010000
00100000
00000000
,
00010000
10000000
01000000
00000000
,
00010000
00000000
00000000
00001000
00000000
00000000
00000010
00000000
00000100
00000000
00000000
00000000
00000110
00000000
00000000
00000000
,
00001001
00000100
00000010
00010000
,
00000100
00000000
00001000
00000000
00000100
00010000
00000100
00000000
,
00010000
00001000
01000000
01000000
,
00100000
00000000
00010000
00001000
01000000
00000000
00000000
00000000
,
10010000
01000000
00100000
00001000
,
01000000
00000000
00010000
00000000
01000000
00001000
01000000
00000000
,
00001000
00001000
00010000
00010000
,
00000010
00000000
00000000
00010000
00000000
00000000
00001000
00000000
00010000
00000000
00000000
00000000
00011000
00000000
00000000
00000000
,
00000000
01000000
00100000
01000000
00000000
00001000
00000000
00010000
,
00000000
00000100
00000010
00000100
00000000
00010000
00000000
00001000
,
00000000
01000000
00100000
01000000
00000000
00011000
00000000
00010000
,
00001000
00000100
00000010
00000000
,
00000000
00000001
00001000
00000100
00000000
00010000
00001000
01000000
,
00000000
10000000
00010000
01000000
00000000
00001000
00010000
00000100
,
00000000
00000001
00001000
00000100
00000000
00010000
00001000
01000000
,
00100000
00000000
01000000
10010000
,
00100000
00000000
00000000
00100000
00000000
00000000
00100000
00000000
00001000
00000000
00010000
00000000
00001000
00000000
00000000
00000000
,
00000010
00000000
00000000
00000010
00000000
00000000
00000010
00000000
00000001
00000000
00000100
00000000
00000010
00000000
00000000
00000000
,
00000100
00001000
00010000
01000000
,
10000000
00100000
00010000
00011000
;

//---------------dance-double - ----------------
#NOTEDATA:;
#CHARTNAME:;
#STEPSTYPE:dance-double;
#DESCRIPTION:;
#CHARTSTYLE:;
#DIFFICULTY:Hard;
#METER:11;
#RADARVALUES:0.452676,0.512235,0.286208,0.132882,0.163547,310.000000,282.000000,28.000000,13.000000,0.000000,0.000000,0.000000,0.000000,0.000000,0.452676,0.512235,0.286208,0.132882,0.163547,310.000000,282.000000,28.000000,13.000000,0.000000,0.000000,0.000000,0.000000,0.000000;
#CREDIT:;
#NOTES:
00000000
00000000
00000000
00000000
,
00000000
00000000
00000000
00000000
,
00000000
00000000
00000000
00000000
,
00000000
00000000
00000000
00000000
,
00000000
00000000
00000000
00000000
,
10000000
00000000
00010000
10000000
00000000
00010000
10000000
00000000
00100000
00000000
01000000
00000000
00001000
00000000
00010000
00000000
,
00001000
00000000
00100000
00001000
00000000
00100000
00001000
00000000
00010000
00000000
00001000
00000000
00000100
00000000
00000001
00000000
,
00000010
00000000
00000100
00000010
00000000
00000100
00000010
00000000
00000100
00000000
00001000
00000000
00000100
00000000
00010000
00000000
,
00001000
00000000
00000000
00010000
00000000
00000000
00010000
00000000
00001000
00000000
00000000
00001000
00000000
00000000
00000010
00000000
,
00000100
00000000
00000001
00000000
00000100
00000000
00000010
00001000
,
00000100
00000000
00000010
00001000
00010000
00000000
01000000
00100000
,
01000000
00000000
00010000
00000000
00001000
00000000
00000100
00001000
,
00010000
00100000
00010000
00001000
00000000
01000000
00100000
00000000
,
01100000
00000000
10000000
00000000
01000000
00000000
00100000
00010000
,
01010000
00000000
00100000
00010000
00001000
00000000
00000100
00000010
,
00000110
00000000
00001000
00000000
00010000
00000000
01000000
00010000
,
00001000
00000010
00001000
00010000
00000000
00000100
00000000
00000000
,
00000110
00001100
00011000
00110000
,
10000000
00000000
01000000
00010000
00000000
00001000
00010000
00000000
,
01100000
01010000
00010100
00001010
,
00000001
00000000
00000100
00001000
00000000
00100000
00001000
00000000
,
00000100
00101000
01000000
00010010
,
00001000
00000000
00000001
00000010
00000000
00001000
00010000
00001000
,
02000000
03002000
00023000
00030020
,
00000230
00000000
00000000
00000300
,
00001010
00000000
00010100
00000000
00000010
00000000
00001000
00000100
,
00000000
00000010
00001000
00010000
00000000
00001000
00010000
01000000
,
00100000
00000000
00001000
00010000
00000000
00100000
01000000
00001000
,
00010000
00000000
00000000
00010000
00000000
00000000
00001000
00000000
00010000
00000000
00000000
00010000
00000000
00000000
00100000
00000000
,
00110000
00000000
01001000
00000000
00100000
00000000
00010000
10000000
,
00000000
00100000
00010000
00001000
00000000
00010000
00001000
00010000
,
00000200
00000320
00002030
00023000
,
01030000
00000000
00000000
00010000
00000000
00000000
00001000
00000000
00000100
00000000
00000000
00000000
00001001
00000000
00000000
00000000
,
00000100
00000000
00010010
00000000
00001000
00000000
00000100
00000001
,
00000000
00000010
00001000
00000010
00000000
00001000
00010000
00001000
,
01000000
00000000
00100000
00010000
00000000
00001000
00000100
00001000
,
00010000
00000000
00000000
00001000
00000000
00000000
00000010
00000000
00001000
00000000
00000000
00010000
00000000
00000000
01000000
00000000
,
01000000
00000000
00101000
00000000
00010000
00000000
01000000
00100000
,
00000000
00100000
00010000
00100000
00000000
00010000
00001000
00000100
,
00000002
00000023
00002030
00023000
,
01030000
00000000
00000000
10000000
00000000
00000000
00100000
00000000
00010000
00000000
00000000
00000000
00011000
00000000
00000000
00000000
,
00000010
00000000
00000000
00000001
00000000
00000000
00001100
00000000
00000100
00000000
00000000
00010000
00000000
00000000
00110000
00000000
,
00100000
00000000
00000000
10000000
00000000
00000000
01010000
00000000
01000000
00000000
00000000
00001000
00000000
00000000
00011000
00000000
,
00000010
00000000
00000000
00000001
00000000
00000000
00001100
00000000
00000100
00000000
00000000
00010000
00000000
00000000
00110000
00000000
,
00100000
00010000
00001000
00000010
00001000
00010000
01000000
00000000
,
01000000
00000000
00000000
10000000
00100000
00000000
01000000
00000000
00100000
00000000
00000000
00010000
00001000
00000000
00000100
00000000
,
00000100
00000000
00000000
00000001
00000010
00000000
00000100
00000000
00000010
00000000
00000000
00001000
00010000
00000000
01000000
00000000
,
01000000
00000000
00000000
10000000
00100000
00000000
01000000
00000000
00100000
00000000
00000000
00010000
00001000
00000000
00000100
00000000
,
00000001
00000010
00000100
00010000
00001000
01000000
00100000
00000000
,
00010000
00000000
00001000
00010000
00000000
00001000
00010000
00000000
00001000
00000000
01000000
00000000
00100000
00000000
01000000
00000000
,
00010000
00000000
10000000
01000000
00000000
10000000
01000000
00000000
00010000
00000000
00001000
00000000
00000100
00000000
00000010
00000000
,
00001000
00000000
00000100
00000010
00000000
00000100
00000010
00000000
00001000
00000000
00010000
00000000
00001000
00000000
01000000
00000000
,
00100000
00010000
00001000
00011000
;

//---------------dance-double - ----------------
#NOTEDATA:;
#CHARTNAME:;
#STEPSTYPE:dance-double;
#DESCRIPTION:;
#CHARTSTYLE:;
#DIFFICULTY:Challenge;
#METER:7;
#RADARVALUES:0.303731,0.377437,0.122661,0.020443,0.045998,208.000000,196.000000,12.000000,2.000000,192.000000,0.000000,0.000000,0.000000,0.000000,0.303731,0.377437,0.122661,0.020443,0.045998,208.000000,196.000000,12.000000,2.000000,192.000000,0.000000,0.000000,0.000000,0.000000;
#CREDIT:;
#NOTES:
00000000
00000000
00000000
00000000
,
00000000
00000000
00000000
00000000
,
00000000
00000000
00000000
00000000
,
00000000
00000000
00000000
00000000
,
00000000
00000000
00000000
00000000
,
00010000
00000000
00000000
00010000
00000000
00000000
00010000
00000000
00000000
00000000
10000000
00000000
00000000
00000000
01000000
00000000
,
00010000
00000000
00000000
00010000
00000000
00000000
00010000
00000000
00000000
00000000
00001000
00000000
00000000
00000000
00001000
00000000
,
00010000
00000000
00000000
00010000
00000000
00000000
00010000
00000000
00000000
00000000
00000010
00000000
00000000
00000000
00000100
00000000
,
00000001
00000000
00000000
00000001
00000000
00000000
00001000
00000000
00000100
00000000
00000000
00000100
00000000
00000000
00000100
00000000
,
00001000
00000010
00010000
MMMMMMMM
,
01000000
00100000
01000000
MMMMMMMM
,
00100000
00100000
00001000
01000000
,
00010000
00100000
00000000
01000000
10000000
00000000
MMMMMMMM
00000000
,
00010000
00100000
00001000
MMMMMMMM
,
00000100
00000010
00000100
MMMMMMMM
,
00000010
00000010
00010000
00000100
,
00001000
00000010
00000000
00000100
00000001
00000000
00000001
00000000
,
MMMMMMMM
00010000
MMMMMMMM
00010000
,
00000010
00001000
00010000
00100000
,
MMMMMMMM
00001000
MMMMMMMM
00001000
,
00000010
00001000
00010000
00000000
00001000
00010000
00001000
00000000
,
MMMMMMMM
00011000
MMMMMMMM
00011000
,
01000000
00010000
00001000
00010000
,
00000020
00000000
00000200
00000000
,
00000330
00000000
00000000
MMMMMMMM
,
00001001
00001001
00000010
00010000
,
00000100
00000000
00000001
00000000
00000100
00001000
00000100
00000000
,
00010000
00010000
00001000
01000000
,
00010000
00000000
00100000
01000000
10000000
00000000
MMMMMMMM
00000000
,
10010000
10010000
00100000
00001000
,
01000000
00000000
10000000
00000000
01000000
00010000
00100000
00000000
,
00010000
10000000
01000000
00000000
,
00010000
00000000
00000000
00001000
00000000
00000000
00000010
00000000
00000100
00000000
00000000
00000000
MMMMMMMM
00000000
00000000
00000000
,
00001001
00000100
00000010
00010000
,
00000100
00000000
00001000
00000000
00000100
00010000
MMMMMMMM
00000000
,
00010000
00001000
01000000
01000000
,
00100000
00000000
00010000
00001000
01000000
00000000
MMMMMMMM
00000000
,
10010000
01000000
00100000
00001000
,
01000000
00000000
00010000
00000000
01000000
00001000
MMMMMMMM
00000000
,
00001000
00001000
00010000
00010000
,
00000010
00000000
00000000
00010000
00000000
00000000
00001000
00000000
00010000
00000000
00000000
00000000
00011000
00000000
00000000
00000000
,
MMMMMMMM
01000000
00100000
01000000
00000000
00001000
00000000
00010000
,
MMMMMMMM
00000100
00000010
00000100
00000000
00010000
00000000
00001000
,
MMMMMMMM
01000000
00100000
01000000
00000000
00011000
00000000
00010000
,
00001000
00000100
00000010
00000000
,
MMMMMMMM
00000001
00001000
00000100
00000000
00010000
00001000
01000000
,
MMMMMMMM
10000000
00010000
01000000
00000000
00001000
00010000
00000100
,
MMMMMMMM
00000001
00001000
00000100
00000000
00010000
00001000
01000000
,
00100000
00000000
01000000
10010000
,
00100000
00000000
00000000
00100000
00000000
00000000
00100000
00000000
00001000
00000000
00010000
00000000
00001000
00000000
00000000
00000000
,
00000010
00000000
00000000
00000010
00000000
00000000
00000010
00000000
00000001
00000000
00000100
00000000
00000010
00000000
00000000
00000000
,
00000100
00001000
00010000
01000000
,
10000000
00100000
MMMMMMMM
00011000
;

//---------------dance-single - Edit----------------
#NOTEDATA:;
#CHARTNAME:;
#STEPSTYPE:dance-single;
#DESCRIPTION:Edit;
#CHARTSTYLE:;
#DIFFICULTY:Edit;
#METER:16;
#RADARVALUES:0.864464,0.893888,0.337316,0.500864,1.124388,592.000000,559.000000,33.000000,49.000000,0.000000,0.000000,0.000000,0.000000,0.000000,0.864464,0.893888,0.337316,0.500864,1.124388,592.000000,559.000000,33.000000,49.000000,0.000000,0.000000,0.000000,0.000000,0.000000;
#CREDIT:;
#NOTES:
// measure 0
0000
0000
0000
0000
,  // measure 1
0000
0000
0000
0000
,  // measure 2
0000
0000
0000
0000
,  // measure 3
0000
0000
0000
0000
,  // measure 4
0000
0000
0000
0000
,  // measure 5
1001
0000
0001
0100
0000
1000
0100
0000
2000
0000
3002
0000
2003
0000
3002
0000
,  // measure 6
1003
0000
0001
0100
0000
1000
0100
0000
0020
0000
0032
0000
0023
0000
0032
0000
,  // measure 7
0103
0000
0010
0100
0000
1000
0100
0000
2000
0000
3200
0000
2300
0000
3200
0000
,  // measure 8
0320
0000
0230
0000
1300
0001
1001
0000
,  // measure 9
0001
0010
0100
1000
0001
0010
0200
0000
0000
0000
1300
0000
1100
0000
0100
0010
,  // measure 10
1000
0100
0010
0001
1000
0100
0020
0000
0000
0000
0031
0000
0011
0000
0010
0100
,  // measure 11
0001
0100
0010
1000
0001
0010
0200
0000
0000
0000
1300
0000
1100
0000
1000
0010
,  // measure 12
0200
0000
0302
0000
2003
0000
3200
0000
0310
0000
0001
0010
0100
0000
0000
0000
,  // measure 13
1000
0010
0100
0001
0010
0100
2000
0000
0000
0000
3001
0000
1001
0000
1000
0100
,  // measure 14
0001
0010
0100
1000
0010
0100
0002
0000
0000
0000
1003
0000
1001
0000
0001
0010
,  // measure 15
1000
0010
0001
0010
1000
0100
0020
0000
0000
0000
0031
0000
0011
0000
0001
0010
,  // measure 16
0200
0000
0001
0000
0000
0000
1300
0000
0000
0000
1001
0000
1001
0000
0001
0010
,  // measure 17
0100
1000
0000
0000
0000
0000
0000
0000
0000
0000
0000
0000
1000
0100
0000
0000
0000
0000
0000
0000
0000
0000
0000
0000
0100
1000
0000
0000
0000
0000
0000
0000
0000
0000
0000
0000
0001
0100
0000
0000
0000
0000
0010
0000
0000
0000
0000
0000
,  // measure 18
0010
0001
0100
0010
1000
0100
0010
0001
0100
0010
1000
0100
0010
0001
0100
0010
,  // measure 19
1000
0100
0000
0000
0000
0000
0000
0000
0000
0000
0000
0000
0100
1000
0000
0000
0000
0000
0000
0000
0000
0000
0000
0000
0001
0100
0000
0000
0000
0000
0000
0000
0000
0000
0000
0000
0100
0001
0000
0000
0000
0000
0100
0000
0000
0000
0000
0000
,  // measure 20
1000
0100
0010
0001
0010
0100
1000
0001
0010
0100
1000
0100
0010
0001
0100
0010
,  // measure 21
1000
0100
0000
0000
0000
0000
0000
0000
0000
0000
0000
0000
0100
0010
0000
0000
0000
0000
0000
0000
0000
0000
0000
0000
0010
0001
0000
0000
0000
0000
0000
0000
0000
0000
0000
0000
0001
1000
0000
0000
0000
0000
0001
0000
0000
0000
0000
0000
,  // measure 22
1000
0010
0100
0001
1000
0010
0100
0001
1000
0100
0010
0001
0010
0100
1000
0001
,  // measure 23
0200
0000
0000
1000
2000
0000
3300
0000
,  // measure 24
1000
0010
0100
0001
1000
0010
0100
0001
1000
0100
0010
0001
0010
0100
1000
0001
,  // measure 25
0010
0001
0000
0000
0000
0000
0000
0000
0000
0000
0000
0010
0001
0000
0000
0000
0000
0000
0010
0000
0000
0001
0000
0000
1000
0000
0000
0000
0000
0000
1100
0000
0000
0000
0000
0000
1010
0000
0000
0000
0000
0000
1001
0000
0000
0000
0000
0000
,  // measure 26
1001
0000
0000
0000
0000
0000
0001
0000
0000
0100
0000
0000
1000
0000
0000
0000
0000
0000
1000
0000
0100
0000
0010
0000
0001
0000
0000
0000
0000
0000
0001
0000
0010
0000
0100
0000
1000
0000
0000
0100
0000
0000
0010
0000
0000
0100
0000
0000
,  // measure 27
0001
0010
0000
0000
0000
0000
0010
0001
0000
0000
0000
0000
0010
0000
0000
0001
0000
0000
0100
0000
0000
0010
0000
0000
1000
0000
0000
0100
0000
0000
0010
0000
0000
0001
0000
0000
0100
0000
0000
0010
0000
0000
1000
0000
0000
0001
0000
0000
,  // measure 28
0020
0000
0230
0000
0302
0000
2003
0000
0000
0000
3001
0000
1001
0000
0001
0100
,  // measure 29
1000
0100
0010
0100
1000
0100
0010
0100
1000
0100
0010
0100
1000
0100
0010
0100
,  // measure 30
1000
0000
0000
0100
0000
0000
0010
0000
0000
0001
0000
0000
1000
0000
0000
0010
0000
0000
0100
0000
0000
0001
0000
0000
0010
0001
0000
0000
0000
0000
0010
0001
0000
0000
0000
0000
0100
0000
0000
0010
0000
0000
2000
0000
0000
0001
0000
0000
,  // measure 31
3100
0000
0010
0100
0002
1000
0013
0100
0001
0000
0000
0000
1001
0000
1000
0100
,  // measure 32
0001
0010
0000
0000
0000
0000
0010
0100
0000
0000
0000
0000
0100
0000
0000
1000
0000
0000
0010
0000
0000
0100
0000
0000
0001
0010
0000
0000
0000
0000
0000
0000
0000
0000
0000
0000
0001
0100
0000
0000
0000
0000
0000
0000
0000
0000
0000
0000
,  // measure 33
1000
0100
0000
0000
0000
0000
0000
0000
0000
0000
0000
0100
0010
0000
0000
0000
0000
0000
0010
0000
0000
0001
0000
0000
1000
0000
0000
0001
0000
0000
0100
0000
0000
0010
0000
0000
1000
0000
0000
0001
0000
0000
0010
0000
0000
0100
0000
0000
,  // measure 34
1000
0000
0000
0010
0000
0000
0100
0000
0000
0001
0000
0000
1000
0000
0000
0100
0000
0000
0010
0001
0000
0000
0000
0000
0100
0000
0000
0010
0000
0000
1000
0100
0000
0000
0000
0000
1000
0000
0000
0010
0000
0000
0100
0000
0000
0001
0000
0000
,  // measure 35
1000
0000
0000
0100
0000
0000
0010
0000
0000
0001
0000
0000
0010
0000
0000
1000
0000
0000
0001
0010
0000
0000
0000
0000
0100
0000
0000
1000
0000
0000
0100
0010
0000
0000
0000
0000
0001
0000
0000
0100
0000
0000
0010
0000
0000
1000
0000
0000
,  // measure 36
0200
0000
0010
0000
0010
0000
1000
0000
0300
0000
0100
0000
0101
0000
0001
0010
,  // measure 37
1000
0010
0000
0000
0000
0000
0000
0000
0000
0000
0000
0010
0001
0000
0000
0000
0000
0000
0100
0000
0000
0001
0000
0000
0100
0000
0000
1000
0000
0000
0100
0000
0000
0001
0000
0000
0100
0000
0000
1000
0000
0000
0001
0000
0000
0100
0000
0000
,  // measure 38
0010
0000
0000
1000
0000
0000
0010
0000
0000
0001
0000
0000
0010
0000
0000
1000
0000
0000
0010
0100
0000
0000
0000
0000
0010
0000
0000
0001
0000
0000
0100
0010
0000
0000
0000
0000
1000
0000
0000
0100
0000
0000
0010
0000
0000
0001
0000
0000
,  // measure 39
1000
0001
0000
0000
0000
0000
0010
0000
0000
0000
0000
0001
0100
0000
0000
0000
0000
0000
0001
0000
0000
0010
0000
0000
0100
0000
0000
1000
0000
0000
0100
0000
0000
0010
0000
0000
0001
0000
0000
1000
0000
0000
0010
0000
0000
0100
0000
0000
,  // measure 40
0002
0000
0000
0023
0000
0000
2030
0000
3200
0000
0000
0000
0002
0000
0303
0000
,  // measure 41
0101
0000
0001
0100
1000
0100
0001
0000
1001
0000
1000
0100
0001
0100
1000
0000
,  // measure 42
1001
0000
0001
0010
1000
0010
0001
0000
0011
0000
0010
1000
0001
0010
1000
0000
,  // measure 43
1010
0000
1000
0010
0001
1000
0010
0000
0110
0000
0100
0001
1000
0100
0010
0000
,  // measure 44
0210
0000
0302
0000
2003
0000
3020
0000
0000
0000
0130
0000
0101
0000
0001
0010
,  // measure 45
1010
0000
1000
0100
0001
0010
1000
0000
1010
0000
1000
0010
0001
0100
1000
0000
,  // measure 46
1100
0000
1000
0100
0001
0010
1000
0000
1001
0000
0001
0010
1000
0100
0001
0000
,  // measure 47
0011
0000
0001
0100
1000
0010
0001
0000
0101
0000
0100
1000
0010
0001
0100
0000
,  // measure 48
0120
2030
3002
0203
0000
0310
0110
0000
,  // measure 49
1000
0100
0000
0000
0000
0000
0100
1000
0000
0000
0000
0000
1000
0100
0000
0000
0000
0000
0100
1000
0000
0000
0000
0000
1000
0000
0000
0100
0000
0000
0010
0000
0000
0001
0000
0000
0010
0000
0000
0100
0000
0000
1000
0000
0000
0000
0000
0000
,  // measure 50
0001
0100
0000
0000
0000
0000
0100
0001
0000
0000
0000
0000
0001
0100
0000
0000
0000
0000
0100
0001
0000
0000
0000
0000
0001
0000
0000
0010
0000
0000
0100
0000
0000
1000
0000
0000
0100
0000
0000
0010
0000
0000
0001
0000
0000
0000
0000
0000
,  // measure 51
1000
0001
0000
0000
0000
0000
0001
1000
0000
0000
0000
0000
1000
0001
0000
0000
0000
0000
0001
1000
0000
0000
0000
0000
1000
0000
0000
0001
0000
0000
0010
0000
0000
0100
0000
0000
1000
0000
0000
0100
0000
0000
0010
0000
0000
0000
0000
0000
,  // measure 52
0100
0010
0000
0000
0000
0000
0010
0100
0000
0000
0000
0000
0100
0010
0000
0000
0000
0000
0010
0100
0000
0000
0000
0000
1000
0000
0000
0100
0000
0000
0001
0000
0000
0020
0000
0000
0200
0000
0000
0000
0000
0000
0000
0000
0000
0000
0000
0000
,  // measure 53
0330
0000
0000
0000
;
