#VERSION:0.83;
#TITLE:TOXIC (FT company Edit);
#SUBTITLE:;
#ARTIST:HELEN;
#TITLETRANSLIT:;
#SUBTITLETRANSLIT:;
#ARTISTTRANSLIT:;
#GENRE:;
#ORIGIN:;
#CREDIT:;
#BANNER:TOXIC (FT company Edit).png;
#BACKGROUND:TOXIC (FT company Edit)-bg.png;
#PREVIEWVID:;
#JACKET:TOXIC (FT company Edit)-jacket.png;
#CDIMAGE:;
#DISCIMAGE:;
#LYRICSPATH:;
#CDTITLE:;
#MUSIC:TOXIC (FT company Edit).ogg;
#OFFSET:0.000000;
#SAMPLESTART:49.939999;
#SAMPLELENGTH:15.000000;
#SELECTABLE:YES;
#DISPLAYBPM:143.000000;
#BPMS:0.000=143.500,
4.000=143.000;
#STOPS:;
#DELAYS:;
#WARPS:;
#TIMESIGNATURES:0.000=4=4;
#TICKCOUNTS:0.000=4;
#COMBOS:0.000=1;
#SPEEDS:0.000=1.000=0.000=0;
#SCROLLS:0.000=1.000;
#FAKES:;
#LABELS:0.000=Song Start;
#BGCHANGES:;
#KEYSOUNDS:;
#ATTACKS:
;

//---------------dance-single - ----------------
#NOTEDATA:;
#CHARTNAME:;
#STEPSTYPE:dance-single;
#DESCRIPTION:;
#CHARTSTYLE:;
#DIFFICULTY:Beginner;
#METER:4;
#RADARVALUES:0.171644,0.199837,0.000000,0.000000,0.000000,121.000000,121.000000,0.000000,0.000000,0.000000,0.000000,0.000000,0.000000,0.000000,0.171644,0.199837,0.000000,0.000000,0.000000,121.000000,121.000000,0.000000,0.000000,0.000000,0.000000,0.000000,0.000000,0.000000;
#CREDIT:;
#DISPLAYBPM:143.000000;
#NOTES:
0000
0000
0000
0000
,
0000
0000
0000
0000
,
0000
0000
0000
0000
,
0000
0000
0000
0000
,
0000
0000
0000
0000
,
0000
0000
0000
0000
,
0010
0000
0010
0000
,
1000
0000
1000
0000
,
0100
0000
0100
0000
,
0001
0000
0001
0000
,
1000
0000
1000
0000
,
0001
0000
0001
0000
,
0100
0000
0100
0000
,
0010
0010
0010
0010
,
0000
0000
0100
0000
,
0001
0000
0100
0000
,
0010
0000
1000
0000
,
0010
0000
0001
0000
,
1000
0000
0001
0000
,
1000
0000
0001
0000
,
0010
0000
1000
0000
,
0001
0000
0100
0000
,
0010
0010
0010
0000
,
0100
0100
0100
0000
,
0001
0000
1000
0000
,
0001
0001
0001
0000
,
0100
0100
0100
0000
,
0010
0010
0010
0000
,
1000
0000
0001
0000
,
1000
1000
1000
0000
,
0001
0001
0001
0000
,
1000
1000
1000
0000
,
0010
0010
0000
0100
,
0000
0100
0000
0000
,
1000
1000
1000
0000
,
0001
0001
0001
0000
,
0100
0100
0000
0010
,
0000
0010
0000
0000
,
1000
0000
0010
0000
,
0001
0000
0100
0000
,
1000
0000
0001
0000
,
0100
0000
0010
0000
,
0001
0000
0010
0000
,
1000
0000
0100
0000
,
0010
0000
0100
0000
,
1000
0000
0000
0000
,
0001
0001
0000
1000
,
0000
1000
0000
1000
,
0000
0010
0010
0010
,
0000
0100
0100
0000
,
1000
1000
0000
0001
,
0000
0001
0000
0001
,
0000
0100
0100
0100
,
0000
0010
0010
0000
,
0001
0001
0001
0000
,
0010
0010
0010
0000
,
1000
1000
1000
0000
,
0001
0000
0001
0000
;

//---------------dance-single - ----------------
#NOTEDATA:;
#CHARTNAME:;
#STEPSTYPE:dance-single;
#DESCRIPTION:;
#CHARTSTYLE:;
#DIFFICULTY:Easy;
#METER:4;
#RADARVALUES:0.198596,0.258051,0.000000,0.009930,0.000000,140.000000,140.000000,0.000000,1.000000,0.000000,0.000000,0.000000,0.000000,0.000000,0.198596,0.258051,0.000000,0.009930,0.000000,140.000000,140.000000,0.000000,1.000000,0.000000,0.000000,0.000000,0.000000,0.000000;
#CREDIT:;
#DISPLAYBPM:143.000000;
#NOTES:
0000
0000
0000
0000
,
0000
0000
0000
0000
,
0000
0000
0000
0000
,
0000
0000
0000
0000
,
0000
0000
0000
0000
,
0000
0000
0000
0000
,
0010
0000
0010
0000
,
1000
0000
1000
0000
,
0100
0000
0100
0000
,
0001
0000
0001
0000
,
1000
0000
1000
0000
,
0001
0000
0001
0000
,
0100
0000
0100
0000
,
0010
0010
0010
0010
,
1000
0000
0100
0000
,
0001
0000
0100
0000
,
0010
0000
1000
0000
,
0010
0000
0001
0000
,
1000
0000
0001
0000
,
1000
0000
0001
0000
,
0010
0000
1000
0000
,
0001
0000
0100
0000
,
0010
0010
0010
0000
,
0100
0100
0100
0000
,
0001
0000
1000
0000
,
0001
0001
0001
0000
,
0100
0100
0100
0000
,
0010
0010
0010
0000
,
1000
0000
0001
0000
,
1000
1000
1000
0000
,
0001
0001
0001
0000
,
1000
1000
1000
0000
,
0010
0010
0100
0100
,
0010
0100
0010
0000
,
1000
1000
1000
0000
,
0001
0001
0001
0000
,
0100
0100
0010
0010
,
0100
0010
0100
0000
,
1000
0000
0010
0000
,
0001
0000
0100
0000
,
1000
0000
0001
0000
,
0100
0000
0010
0000
,
0001
0000
0010
0000
,
1000
0000
0100
0000
,
0010
0000
0100
0000
,
2000
0000
0000
3000
,
0001
0001
1000
1000
,
0001
1000
0001
1000
,
0010
0010
0010
0010
,
0100
0100
0100
0000
,
1000
1000
0001
0001
,
1000
0001
1000
0001
,
0100
0100
0100
0100
,
0010
0010
0010
0000
,
0001
0001
0001
0000
,
0010
0010
0010
0000
,
1000
1000
1000
0000
,
0001
1000
0001
1000
;

//---------------dance-single - ----------------
#NOTEDATA:;
#CHARTNAME:;
#STEPSTYPE:dance-single;
#DESCRIPTION:;
#CHARTSTYLE:;
#DIFFICULTY:Medium;
#METER:7;
#RADARVALUES:0.354636,0.430084,0.268104,0.009930,0.000000,250.000000,223.000000,27.000000,1.000000,0.000000,0.000000,0.000000,0.000000,0.000000,0.354636,0.430084,0.268104,0.009930,0.000000,250.000000,223.000000,27.000000,1.000000,0.000000,0.000000,0.000000,0.000000,0.000000;
#CREDIT:;
#DISPLAYBPM:143.000000;
#NOTES:
0000
0000
0000
0000
,
0000
0000
0000
0000
,
0000
0000
0000
0000
,
0000
0000
0000
0000
,
0000
0000
0000
0000
,
0010
1000
0100
1001
,
0100
0000
0000
0010
0010
0000
0100
0000
,
1000
0000
0000
0001
0001
0000
0010
0000
,
0100
0000
0000
0010
0010
0000
0001
0000
,
1000
0000
0000
0100
0100
0000
0010
0000
,
1000
0000
0000
0010
0010
0000
0001
0000
,
0100
0000
0000
1000
1000
0000
0001
0000
,
0010
0000
0000
0100
0100
0000
0001
0000
,
1000
1000
0001
0001
,
1000
0000
0000
0010
0010
0000
0100
0000
,
0001
0000
0000
0100
0100
0000
1000
0000
,
0010
0000
0000
0001
0001
0000
1000
0000
,
0100
0000
0000
0010
0010
0000
0100
0000
,
0001
0000
0000
0100
0100
0000
1000
0000
,
0010
0000
0000
0001
0001
0000
0100
0000
,
1000
0000
0000
0100
0100
0000
0010
0000
,
1000
0000
0001
1000
0001
0000
0110
0000
,
0001
0100
1000
0100
,
0001
0100
0010
1000
,
0001
0010
0100
0010
,
1000
0010
0001
0100
,
1000
0100
0010
1000
,
0010
0001
0100
0010
,
0001
0000
1000
0001
1000
0000
0010
0000
,
1001
0110
1001
0110
,
0001
1010
0100
0011
,
1000
0110
0100
1001
,
1000
1000
0001
0001
,
0010
1000
0100
1001
,
0100
0011
0001
1100
,
0100
1001
0010
0101
,
0010
0010
0100
0100
,
0001
1000
0001
1001
,
0010
0000
1000
0000
0001
0001
0001
0000
,
1000
0000
0100
0000
0010
0010
0010
0000
,
0001
0000
1000
0000
0100
0100
0100
0000
,
0010
0000
0001
0000
0010
0010
0010
0000
,
0100
0000
1000
0000
0001
0001
0001
0000
,
0100
0000
0010
0000
1000
1000
1000
0000
,
0001
0000
1000
0000
0100
0100
0100
0000
,
0020
0000
0000
0000
0000
0100
0130
0000
,
0001
1010
0100
0011
,
1000
0110
0100
1001
,
1000
1000
0001
0001
,
0010
1000
0100
1001
,
0100
0011
0001
1100
,
0100
1001
0010
0101
,
0010
0010
0100
0100
,
1000
0001
1000
1001
,
0010
0000
0100
0000
1000
0000
0100
1000
,
0100
0000
0010
0000
0100
0000
0001
0010
,
0001
0000
0010
0000
0100
0000
1000
0001
,
1000
0010
0100
1001
;

//---------------dance-single - ----------------
#NOTEDATA:;
#CHARTNAME:;
#STEPSTYPE:dance-single;
#DESCRIPTION:;
#CHARTSTYLE:;
#DIFFICULTY:Hard;
#METER:11;
#RADARVALUES:0.461026,0.430084,0.079438,0.009930,0.139017,325.000000,317.000000,8.000000,1.000000,0.000000,0.000000,0.000000,0.000000,0.000000,0.461026,0.430084,0.079438,0.009930,0.139017,325.000000,317.000000,8.000000,1.000000,0.000000,0.000000,0.000000,0.000000,0.000000;
#CREDIT:;
#DISPLAYBPM:143.000000;
#NOTES:
0000
0000
0000
0000
,
0000
0000
0000
0000
,
0000
0000
0000
0000
,
0000
0000
0000
0000
,
0000
0000
0000
0000
,
0010
0000
1000
0100
0010
0000
1001
0000
,
0100
0000
0000
0000
0000
0000
0010
0000
0010
0000
0000
1000
0000
0000
0100
0000
,
1000
0000
0000
0000
0000
0000
0001
0000
0001
0000
0000
0010
0000
0000
0100
0000
,
1000
0000
0000
0000
0000
0000
0010
0000
0010
0000
0000
0100
0000
0000
0001
0000
,
1000
0000
0000
0000
0000
0000
0100
0000
0100
0000
0000
0010
0000
0000
0100
0000
,
1000
0000
0000
0000
0000
0000
0010
0000
0010
0000
0000
1000
0000
0000
0001
0000
,
0100
0000
0010
1000
0100
0000
1000
0000
,
0010
0000
1000
0001
0100
0000
0001
0000
,
1000
0100
1000
0100
0001
0100
0001
0100
,
1000
0000
0000
0000
0001
0000
0010
0000
0010
0000
0000
0100
0000
0000
1000
0000
,
0010
0000
0000
0000
1000
0000
0100
0000
0100
0000
0000
1000
0000
0000
0001
0000
,
0100
0000
0000
0000
0010
0000
0001
0000
0001
0000
0000
0010
0000
0000
1000
0000
,
0100
0000
0000
0000
1000
0000
0010
0000
0010
0000
0000
0100
0000
0000
1000
0000
,
0100
0000
0000
0000
0001
0000
0100
0000
0100
0000
0000
0001
0000
0000
0010
0000
,
0100
0000
0000
0000
0010
0000
0001
0000
0001
0000
0000
0100
0000
0000
1000
0000
,
0100
0000
0001
1000
0100
0000
0010
0001
,
1000
0010
0100
0001
1000
0000
0110
0000
,
0001
0000
0100
0000
1000
0010
0100
0000
,
0001
1000
0100
0000
0010
0100
1000
0000
,
0010
0000
1000
0000
0100
1000
0010
0000
,
1000
0001
0010
0000
0001
0100
0010
0000
,
1000
0000
0100
0000
0010
0100
1000
0000
,
0010
0100
0001
0000
1000
0100
0010
0000
,
0001
0000
1000
0001
0100
0000
0010
0100
,
0001
0010
0100
1000
0001
0000
0110
0000
,
0001
0100
1000
0000
1000
0100
0001
0000
,
1000
0001
0010
0000
0100
1000
0010
0000
,
1100
0000
0001
0100
0001
0000
1000
0100
,
1000
0000
0010
1000
0100
1000
0010
0000
,
0100
0001
0010
0000
0001
1000
0010
0000
,
0100
0001
1000
0000
0010
1000
0100
0000
,
0011
0000
0100
0010
0001
0000
1000
0010
,
0100
0000
0001
0010
0100
0010
0001
1000
,
0010
0000
0000
0000
1000
0000
0000
0000
0001
0010
0000
0010
0001
0000
0100
0000
,
1000
0000
0000
0000
0100
0000
0000
0000
0010
1000
0000
1000
0100
0000
0010
0000
,
0001
0000
0000
0000
1000
0000
0000
0000
0010
0100
0000
0100
0010
0000
1000
0000
,
0100
0000
0000
0000
0001
0000
0000
0000
0100
0010
0000
0010
0001
0000
0010
0000
,
0100
0000
0000
0000
1000
0000
0000
0000
0001
0100
0000
0100
0001
0000
1000
0000
,
0100
0000
0000
0000
0010
0000
0000
0000
0100
1000
0000
1000
0001
0000
0010
0000
,
0001
0000
0000
0000
1000
0000
0000
0000
0010
0100
0000
0100
0001
0000
0100
0000
,
0020
0000
0000
0000
0000
0100
0130
0000
,
0001
0100
1000
0000
1000
0100
0001
0000
,
1000
0001
0010
0000
0100
1000
0010
0000
,
1100
0000
0001
0100
0001
0000
1000
0100
,
1000
0000
0010
1000
0100
1000
0010
0000
,
0100
0001
0010
0000
0001
1000
0010
0000
,
0100
0001
1000
0000
0010
1000
0100
0000
,
0011
0000
0100
0010
0001
0000
1000
0010
,
0100
0000
0001
0010
0100
0010
0001
1000
,
0010
0000
0000
0000
0100
0000
0010
0000
1000
0000
0000
0001
0100
0000
1000
0000
,
0100
0000
0000
0000
0010
0000
1000
0000
0100
0000
0000
0010
0001
0000
1000
0000
,
0100
0000
0000
0000
0010
0000
0100
0000
1000
0000
0000
0001
1000
0000
0010
0000
,
0001
0000
1000
0100
0001
0000
1001
0000
;

//---------------dance-double - ----------------
#NOTEDATA:;
#CHARTNAME:;
#STEPSTYPE:dance-double;
#DESCRIPTION:;
#CHARTSTYLE:;
#DIFFICULTY:Easy;
#METER:4;
#RADARVALUES:0.184410,0.229378,0.000000,0.009930,0.000000,130.000000,130.000000,0.000000,1.000000,0.000000,0.000000,0.000000,0.000000,0.000000,0.184410,0.229378,0.000000,0.009930,0.000000,130.000000,130.000000,0.000000,1.000000,0.000000,0.000000,0.000000,0.000000,0.000000;
#CREDIT:;
#DISPLAYBPM:143.000000;
#NOTES:
00000000
00000000
00000000
00000000
,
00000000
00000000
00000000
00000000
,
00000000
00000000
00000000
00000000
,
00000000
00000000
00000000
00000000
,
00000000
00000000
00000000
00000000
,
00000000
00000000
00000000
00000000
,
00100000
00000000
00100000
00000000
,
10000000
00000000
10000000
00000000
,
01000000
00000000
01000000
00000000
,
00010000
00000000
00010000
00000000
,
10000000
00000000
10000000
00000000
,
00010000
00000000
00010000
00000000
,
01000000
00000000
01000000
00000000
,
00100000
00100000
00100000
00000000
,
00010000
00000000
00010000
00000000
,
00001000
00000000
00001000
00000000
,
00000010
00000000
00000010
00000000
,
00000001
00000000
00000001
00000000
,
00001000
00000000
00001000
00000000
,
00000100
00000000
00000100
00000000
,
00001000
00000000
00000001
00000000
,
00001000
00000000
00000001
00000000
,
00000010
00000010
00000010
00000000
,
00001000
00001000
00001000
00000000
,
00010000
00010000
00010000
00000000
,
01000000
01000000
01000000
00000000
,
10000000
10000000
10000000
00000000
,
00100000
00100000
00100000
00000000
,
10000000
00000000
00010000
00000000
,
10000000
10000000
00010000
00010000
,
10000000
00000000
01000000
00000000
,
00010000
00000000
00001000
00000000
,
00010000
00010000
00001000
00001000
,
00010000
00001000
00010000
00000000
,
00001000
00000000
00000010
00000000
,
00000001
00000000
00000100
00000000
,
00001000
00001000
00000001
00000001
,
00000010
00000100
00000010
00000000
,
00001000
00000000
00000001
00000000
,
00000100
00000000
00000010
00000000
,
00001000
00000000
00000100
00000000
,
00000001
00000000
00000010
00000000
,
00001000
00000000
00010000
00000000
,
00100000
00000000
10000000
00000000
,
00010000
00000000
01000000
00000000
,
20000000
00000000
00000000
30000000
,
00010000
00010000
00010000
00000000
,
10000000
10000000
10000000
00000000
,
00100000
00100000
01000000
01000000
,
00100000
01000000
00100000
00000000
,
00010000
00010000
00010000
00000000
,
00001000
00001000
00001000
00000000
,
00010000
00010000
00001000
00001000
,
00010000
00001000
00010000
00000000
,
00001000
00000000
00000100
00000000
,
00000001
00000000
00000010
00000000
,
00001000
00000000
00000010
00000000
,
00000001
00001000
00000001
00001000
;

//---------------dance-double - ----------------
#NOTEDATA:;
#CHARTNAME:;
#STEPSTYPE:dance-double;
#DESCRIPTION:;
#CHARTSTYLE:;
#DIFFICULTY:Medium;
#METER:6;
#RADARVALUES:0.323428,0.372740,0.178736,0.029789,0.000000,228.000000,210.000000,18.000000,3.000000,0.000000,0.000000,0.000000,0.000000,0.000000,0.323428,0.372740,0.178736,0.029789,0.000000,228.000000,210.000000,18.000000,3.000000,0.000000,0.000000,0.000000,0.000000,0.000000;
#CREDIT:;
#DISPLAYBPM:143.000000;
#NOTES:
00000000
00000000
00000000
00000000
,
00000000
00000000
00000000
00000000
,
00000000
00000000
00000000
00000000
,
00000000
00000000
00000000
00000000
,
00000000
00000000
00000000
00000000
,
00000010
00001000
00000100
00001001
,
00000010
00000000
00000000
00000001
00000001
00000000
00000100
00000000
,
00001000
00000000
00000000
00010000
00010000
00000000
00100000
00000000
,
10000000
00000000
00000000
01000000
01000000
00000000
10000000
00000000
,
00010000
00000000
00000000
00100000
00100000
00000000
00010000
00000000
,
01000000
00000000
00000000
10000000
10000000
00000000
01000000
00000000
,
00010000
00000000
00000000
10000000
10000000
00000000
01000000
00000000
,
00100000
00000000
00000000
01000000
01000000
00000000
00010000
00000000
,
00001000
00010000
00001000
00010000
,
00001000
00000000
00000000
00000010
00000010
00000000
00000100
00000000
,
00001000
00000000
00000000
00000010
00000010
00000000
00000100
00000000
,
00000001
00000000
00000000
00001000
00001000
00000000
00000001
00000000
,
00000100
00000000
00000000
00000010
00000010
00000000
00001000
00000000
,
00000100
00000000
00000000
00000001
00000001
00000000
00000100
00000000
,
00001000
00000000
00000000
00010000
00010000
00000000
00001000
00000000
,
00010000
00000000
00000000
00100000
00100000
00000000
10000000
00000000
,
00010000
10000000
00010000
10010000
,
00100000
01000000
00010000
10000000
,
01000000
00100000
00010000
01000000
,
00010000
00100000
01000000
10000000
,
01000000
00010000
00001000
00000010
,
00000001
00000100
00000010
00001000
,
00000010
00000001
00000100
00000010
,
00000001
00001000
00000001
00001000
,
00002002
00000000
00000000
00003003
,
00000001
00000010
00001000
00010000
,
00100000
10000000
00010000
01100000
,
10000000
10000000
00010000
00010000
,
00100000
01000000
00100000
10010000
,
00100000
10000000
01000000
00010000
,
00001000
00000010
00000001
00001001
,
00000010
00000010
00000100
00000100
,
00000001
00001000
00000001
00001001
,
00000100
00001000
00010000
00011000
,
00010000
00100000
10000000
01100000
,
00010000
10000000
01000000
10010000
,
00100000
00100000
00100000
00000000
01000000
01000000
01000000
00000000
,
10000000
01000000
00010000
00011000
,
00001000
00000100
00000001
00000110
,
00000001
00001000
00000100
00001001
,
00000020
00000000
00000000
00000000
00000000
00000100
00000130
00000000
,
00000001
00000010
00001000
00010000
,
00100000
10000000
00010000
01100000
,
10000000
10000000
00010000
00010000
,
00100000
01000000
00100000
10010000
,
00100000
10000000
01000000
00010000
,
00001000
00000010
00000001
00001001
,
00000010
00000010
00000100
00000100
,
00000001
00001000
00000001
00001001
,
00000010
00000000
00000000
00000000
00001000
00001000
00001000
00000000
,
00010000
00000000
00000000
00000000
01000000
01000000
01000000
00000000
,
10000000
00000000
00000000
00000000
00100000
00100000
00100000
00000000
,
00010000
00001000
00010000
00011000
;

//---------------dance-double - ----------------
#NOTEDATA:;
#CHARTNAME:;
#STEPSTYPE:dance-double;
#DESCRIPTION:;
#CHARTSTYLE:;
#DIFFICULTY:Hard;
#METER:11;
#RADARVALUES:0.505001,0.487429,0.109228,0.009930,0.208526,356.000000,345.000000,11.000000,1.000000,0.000000,0.000000,0.000000,0.000000,0.000000,0.505001,0.487429,0.109228,0.009930,0.208526,356.000000,345.000000,11.000000,1.000000,0.000000,0.000000,0.000000,0.000000,0.000000;
#CREDIT:;
#DISPLAYBPM:143.000000;
#NOTES:
00000000
00000000
00000000
00000000
,
00000000
00000000
00000000
00000000
,
00000000
00000000
00000000
00000000
,
00000000
00000000
00000000
00000000
,
00000000
00000000
00000000
00000000
,
00000010
00000000
00001000
00000001
00000100
00000000
00001010
00000000
,
00010000
00000000
00000000
00000000
00000000
00000000
00100000
00000000
00100000
00000000
00000000
10000000
00000000
00000000
01000000
00000000
,
00100000
00000000
00000000
00000000
00000000
00000000
00010000
00000000
00010000
00000000
00000000
01000000
00000000
00000000
00001000
00000000
,
00010000
00000000
00000000
00000000
00000000
00000000
00000010
00000000
00000010
00000000
00000000
00001000
00000000
00000000
00000100
00000000
,
00010000
00000000
00000000
00000000
00000000
00000000
00100000
00000000
00100000
00000000
00000000
10000000
00000000
00000000
01000000
00000000
,
00010000
00000000
00000000
00000000
00000000
00000000
00001000
00000000
00001000
00000000
00000000
00000010
00000000
00000000
00000001
00000000
,
00000100
00000000
00000000
00000010
00000100
00000000
00001001
00000000
,
00000010
00000000
00010000
00001000
00100000
00000000
01100000
00000000
,
10000000
01000000
00010000
00001000
00000100
00001000
00010000
01000000
,
10000000
00000000
00000000
00000000
00010000
00000000
00100000
00000000
00100000
00000000
00000000
00001000
00010000
00000000
00000010
00000000
,
00000100
00000000
00000000
00000000
00000001
00000000
00000010
00000000
00000010
00000000
00000000
00001000
00010000
00000000
00100000
00000000
,
10000000
00000000
00000000
00000000
00010000
00000000
01000000
00000000
01000000
00000000
00000000
00100000
10000000
00000000
00000000
00000000
,
01000000
00000000
00000000
00000000
00010000
00000000
00001000
00000000
00001000
00000000
00000000
00000100
00000010
00000000
00001000
00000000
,
00000001
00000000
00000000
00000000
00000010
00000000
00000100
00000000
00000100
00000000
00000000
00001000
00000001
00000000
00000100
00000000
,
00001000
00000000
00000000
00000000
00010000
00000000
00000010
00000000
00000010
00000000
00000000
00000100
00001000
00000000
00010000
00000000
,
01000000
00000000
10000000
00010000
01000000
00000000
01100000
00000000
,
10000000
00010000
10000000
01000000
00010000
00001000
00000100
00000000
,
00000001
00000010
00000001
00000010
00000001
00000100
00000001
00000100
,
00001000
00000100
00001000
00000100
00001000
00010000
00001000
00010000
,
00100000
00010000
00100000
00010000
00100000
10000000
00100000
10000000
,
00010000
10000000
00010000
10000000
01000000
00010000
01000000
00010000
,
00001000
00010000
00001000
00010000
00000010
00001000
00000010
00001000
,
00000001
00000100
00000001
00000100
00001000
00000100
00001000
00000000
,
00000101
00000010
00001100
00000001
,
00001000
00000010
00010000
00000100
00001000
00000010
00010000
00000100
,
00001000
00000000
00000010
00000100
00001000
00000000
00010000
01000000
,
10000000
00100000
01000000
00000000
00010000
10000000
00100000
01000000
,
00010000
00000000
10000000
01000000
00010000
00001000
00000100
00000000
,
00000001
00000100
00001000
00010000
01000000
00000000
10010000
00000000
,
00100000
00000000
01000000
00010000
00001000
00000000
00000010
00000001
,
00000100
00000001
00001000
00000000
00000010
00000100
00001000
00010000
,
00000010
00000000
00001000
00000100
00000010
00000001
00000100
00000000
,
00001000
00010000
01000000
10000000
00010000
00000000
01100000
00000000
,
00001000
00000000
00000000
00001000
00010000
00000000
00000000
00010000
00100000
00000000
00000000
00100000
10000000
00000000
00000000
10000000
,
01000000
00000000
00000000
01000000
00010000
00000000
00000000
00010000
00001000
00000000
00000000
00001000
00000010
00000000
00000000
00000010
,
00000001
00000000
00000000
00000001
00000100
00000000
00000000
00000100
00001000
00000000
00000000
00001000
00000100
00000000
00000000
00000100
,
00000001
00000000
00000000
00000001
00001000
00000000
00000000
00001000
00000100
00000000
00000000
00000100
00000010
00000000
00000000
00000010
,
00001000
00000000
00000000
00001000
00010000
00000000
00000000
00010000
00100000
00000000
00000000
00100000
10000000
00000000
00000000
10000000
,
00010000
00000000
00000000
00010000
01000000
00000000
00000000
01000000
00001000
00000000
00000000
00001000
00100000
00000000
00000000
00100000
,
00010000
00000000
00000000
00010000
10000000
00000000
00000000
10000000
00100000
00000000
00000000
00100000
01000000
00000000
00000000
01000000
,
00002000
00000000
00000000
00000000
00000000
00010000
00013000
00010000
,
00000100
00000000
00000010
00000100
00001000
00000000
00000001
00000100
,
00001000
00000100
00000010
00000000
00010000
00001000
00100000
01000000
,
10000000
00000000
00010000
01000000
00001000
01000000
00010000
00000000
,
00100000
01000000
00010000
00001000
00000100
00000000
00001001
00000000
,
00000100
00000000
00000010
00001000
00010000
00000000
00100000
10000000
,
01000000
10000000
00010000
00000000
01000000
00001000
00010000
01000000
,
00100000
00000000
00001000
00010000
00000010
00001000
00000001
00000000
,
00000010
00000100
00010000
00001000
01000000
00000000
00011000
00000000
,
00000010
00000000
00000000
00000000
00001000
00000000
00000100
00000000
00000010
00000000
00000000
00000001
00000100
00000000
00001000
00000000
,
00010000
00000000
00000000
00000000
00001000
00000000
00100000
00000000
01000000
00000000
00000000
10000000
00100000
00000000
01000000
00000000
,
00010000
00000000
00000000
00000000
00100000
00000000
00001000
00000000
00010000
00000000
00000000
00000010
00001000
00000000
00000100
00000000
,
00000010
00000000
00001000
00010000
00100000
00000000
10010000
00000000
;

//---------------dance-single - ----------------
#NOTEDATA:;
#CHARTNAME:;
#STEPSTYPE:dance-single;
#DESCRIPTION:;
#CHARTSTYLE:;
#DIFFICULTY:Challenge;
#METER:15;
#RADARVALUES:0.685156,0.950282,0.188666,0.238315,0.630542,483.000000,464.000000,19.000000,24.000000,0.000000,0.000000,0.000000,0.000000,0.000000,0.685156,0.950282,0.188666,0.238315,0.630542,483.000000,464.000000,19.000000,24.000000,0.000000,0.000000,0.000000,0.000000,0.000000;
#CREDIT:;
#DISPLAYBPM:143.000000;
#NOTES:
// measure 0
0000
0000
0000
0000
,  // measure 1
0000
0000
0000
0000
,  // measure 2
0000
0000
0000
0000
,  // measure 3
1000
0000
0000
1000
0100
0000
0000
0100
0001
0000
0000
0001
0010
0000
0000
0010
,  // measure 4
0200
0000
0001
0000
1000
0000
0301
0010
,  // measure 5
1000
0010
1000
0010
0100
0001
0100
0001
0010
0100
0010
0100
0001
1000
0001
1000
,  // measure 6
0200
0000
0000
0000
0000
0000
0010
0000
0310
0000
0000
0010
0001
0000
0100
0000
,  // measure 7
0020
0000
0000
0000
0000
0000
0100
0000
0130
0000
0000
0100
0001
0000
1000
0000
,  // measure 8
0002
0000
0000
0000
0000
0000
1000
0000
1003
0000
0000
1000
0001
0000
0100
0000
,  // measure 9
2000
0000
0000
0000
0000
0000
0001
0000
3001
0000
0000
0001
0010
0000
1000
0000
,  // measure 10
0200
0000
0000
0000
0000
0000
0010
0000
0310
0000
0001
0100
0001
0000
0010
0000
,  // measure 11
1000
0000
0010
1000
0010
0000
0001
0000
0100
0000
0010
0100
0010
0000
0001
0000
,  // measure 12
0100
0010
0100
0000
0001
1000
0001
0000
1000
0100
0010
0001
1000
0100
0010
0001
,  // measure 13
0100
0010
0001
0010
0100
0010
0001
0010
,  // measure 14
1000
0000
0000
1000
0001
0000
0100
0000
0010
0000
1000
0010
1000
0000
0100
0000
,  // measure 15
0010
0000
0000
0010
0001
0000
0100
0000
0010
0000
1000
0001
1000
0000
0100
0000
,  // measure 16
0001
0000
0000
0001
0100
0000
1000
0000
0100
0000
0010
0001
0010
0000
1000
0000
,  // measure 17
0100
0000
0000
0100
0010
0000
1000
0000
0001
0000
0100
0010
0100
0000
1000
0000
,  // measure 18
0010
0000
0000
0010
1000
0000
0010
0000
0001
0000
0100
0010
0100
0000
0010
0000
,  // measure 19
1000
0000
0000
1000
0001
0000
0100
0000
0010
0000
1000
0010
1000
0000
0100
0000
,  // measure 20
0010
0000
0001
0010
0001
0000
0010
0000
1000
0000
0100
1000
0100
0000
0010
0000
,  // measure 21
1000
0001
1000
0000
0001
1000
0001
0000
0010
0001
0100
0010
1000
0100
0010
0001
,  // measure 22
0101
0110
2020
3030
,  // measure 23
1100
0110
0022
0033
,  // measure 24
0101
0000
0001
0010
1000
0000
0100
1000
,  // measure 25
0020
0000
0032
0000
0203
0000
1300
0100
,  // measure 26
0010
0000
0001
0100
0001
0000
0010
0000
1000
0000
0100
1000
0100
0000
0010
0000
,  // measure 27
0011
0000
0000
0000
0001
0000
0100
0000
0010
0100
1000
0100
0010
0001
0100
0010
,  // measure 28
1000
0000
0100
0000
0001
0010
0100
1000
0100
0000
0010
0000
1000
0100
0010
0001
,  // measure 29
0100
0000
0010
0000
0100
0000
0000
0100
0010
0000
0010
0000
0010
0001
0100
0010
,  // measure 30
1000
0000
0100
0010
0001
0000
0001
0010
,  // measure 31
1000
0000
0200
0000
0010
0000
0000
0000
0001
0000
0000
0000
1300
0010
0100
0001
,  // measure 32
0010
0000
0000
0010
0001
0000
0000
0001
0200
0000
0000
0000
1300
0000
0000
0000
,  // measure 33
1100
0000
0000
1000
0010
0000
0100
0000
0101
0000
0000
0000
1010
0000
0100
0001
,  // measure 34
0010
0000
0001
0000
0100
0010
0100
0000
0020
0000
0000
0000
1030
0000
0000
0000
,  // measure 35
1010
0010
0022
0000
0033
0000
0001
0100
,  // measure 36
1000
0000
0000
0000
1000
0000
0100
0000
0001
0000
0000
0000
0001
0100
0010
1000
,  // measure 37
0100
0000
0010
0000
1000
0100
0010
0001
0100
0000
0000
0000
0110
0000
0000
0000
,  // measure 38
0010
0000
0000
0010
0001
0000
0000
0001
0100
0000
0000
0100
0010
1000
0010
0100
,  // measure 39
0001
0000
0000
0001
0010
0000
0000
0010
1000
0000
0000
1000
0100
0010
0001
0100
,  // measure 40
0010
0000
0000
0010
0001
0000
0100
0000
0010
0000
0000
0000
1000
0000
0100
0000
,  // measure 41
0010
0000
0000
0010
0001
0000
0100
0000
0210
0000
0000
0000
0301
0000
0000
0000
,  // measure 42
0001
0000
0000
0001
0010
0000
0000
0010
1000
0000
0000
1000
0100
0010
0001
0100
,  // measure 43
0010
0000
0000
0010
0001
0000
0000
0001
0100
0000
0000
0100
0010
1000
0100
0010
,  // measure 44
0001
0000
0000
0001
0010
0000
0100
0000
1000
0000
0000
1000
0010
0000
0100
0000
,  // measure 45
0001
0000
1000
0000
0001
0000
1000
0000
0001
0000
0000
0001
1000
0000
1000
0000
,  // measure 46
1000
0000
0001
0010
0100
0000
0010
0100
,  // measure 47
1000
0000
0200
0000
0010
0000
0000
0000
0001
0000
0000
0000
1300
0010
0001
0100
,  // measure 48
0010
0000
0001
0010
0100
0000
1010
0000
,  // measure 49
1100
0000
0000
0100
0001
0000
0010
0000
1000
0000
0100
0000
0010
0001
0100
0010
,  // measure 50
1000
0000
0010
0100
0001
0000
0101
0000
,  // measure 51
0010
0000
0002
0000
0100
0000
0000
0000
1000
0000
0000
0000
0013
0001
0100
0010
,  // measure 52
1000
0000
0010
0001
0100
0000
0010
1000
,  // measure 53
0100
0000
0000
0100
0010
0000
0010
0000
0010
0000
0000
0000
1001
0000
0000
0000
,  // measure 54
1000
0100
1000
0100
0010
0001
0010
0001
1000
0010
1000
0010
0001
0100
0001
0100
,  // measure 55
0010
0100
0010
0100
1000
0001
1000
0001
0100
0010
0100
0010
0001
0100
0001
0100
,  // measure 56
0010
1000
0010
1000
0100
0010
0100
0010
1000
0001
1000
0001
0100
0010
0100
0010
,  // measure 57
2000
0000
0000
0000
3020
0000
0000
0000
0031
0000
0000
0001
0200
0000
0010
0000
,  // measure 58
0310
0000
0000
0000
;
