#VERSION:0.83;
#TITLE:TOMORROW;
#SUBTITLE:;
#ARTIST:nc ft. Dreamscanner;
#TITLETRANSLIT:;
#SUBTITLETRANSLIT:;
#ARTISTTRANSLIT:;
#GENRE:;
#ORIGIN:;
#CREDIT:;
#BANNER:TOMORROW.png;
#BACKGROUND:TOMORROW-bg.png;
#PREVIEWVID:;
#JACKET:TOMORROW-jacket.png;
#CDIMAGE:;
#DISCIMAGE:;
#LYRICSPATH:;
#CDTITLE:;
#MUSIC:TOMORROW.ogg;
#OFFSET:0.000000;
#SAMPLESTART:64.500000;
#SAMPLELENGTH:15.000000;
#SELECTABLE:YES;
#DISPLAYBPM:140.000000;
#BPMS:0.000=140.200,
4.000=140.000;
#STOPS:;
#DELAYS:;
#WARPS:;
#TIMESIGNATURES:0.000=4=4;
#TICKCOUNTS:0.000=4;
#COMBOS:0.000=1;
#SPEEDS:0.000=1.000=0.000=0;
#SCROLLS:0.000=1.000;
#FAKES:;
#LABELS:0.000=Song Start;
#BGCHANGES:0.000=TOMORROW.avi=1.000=0=0=0=StretchNoLoop====,
99999=-nosongbg-=1.000=0=0=0 // don't automatically add -songbackground-
;
#KEYSOUNDS:;
#ATTACKS:
;

//---------------dance-single - ----------------
#NOTEDATA:;
#CHARTNAME:;
#STEPSTYPE:dance-single;
#DESCRIPTION:;
#CHARTSTYLE:;
#DIFFICULTY:Beginner;
#METER:3;
#RADARVALUES:0.149114,0.193410,0.112567,0.020467,0.000000,102.000000,91.000000,11.000000,2.000000,0.000000,0.000000,0.000000,0.000000,0.000000,0.149114,0.193410,0.112567,0.020467,0.000000,102.000000,91.000000,11.000000,2.000000,0.000000,0.000000,0.000000,0.000000,0.000000;
#CREDIT:;
#DISPLAYBPM:140.000000;
#NOTES:
0000
0000
0000
0000
,
0000
0000
0000
0000
,
0000
0000
0000
0000
,
0000
0000
0000
0000
,
0000
0000
0000
0000
,
1000
0000
1000
0000
,
0001
0000
0001
0000
,
0100
0000
0000
0010
,
0010
0000
0000
0100
,
0100
0000
0001
0000
,
1000
0000
0001
0000
,
1001
0000
0000
0000
,
0110
0000
0000
0000
,
1001
0000
0000
0000
,
1001
0000
0000
0000
,
0110
0000
0000
0000
,
1001
0000
0000
0000
,
1001
0000
0000
0000
,
0110
0000
0000
0000
,
1001
0000
0000
0001
,
0001
0000
0000
0010
,
0010
0000
0000
0100
,
0100
0000
0000
1000
,
1000
0000
0000
0001
,
0001
0000
0000
1000
,
1000
0000
0000
0100
,
0100
0000
0000
0010
,
0010
0000
0000
0000
,
0100
0000
0100
0000
,
1000
0000
1000
0000
,
0001
0000
0001
0000
,
0100
0000
0100
0000
,
0010
0000
0010
0000
,
1000
0000
1000
0000
,
0001
0000
0001
0000
,
1000
0000
1000
0000
,
2002
0000
0000
3003
,
0000
0000
0000
0001
,
0001
0000
0000
1000
,
1000
0000
0000
0100
,
0100
0000
0000
0010
,
0010
0000
0000
0001
,
0001
0000
0000
0100
,
0100
0000
0000
1000
,
1000
0000
0000
0100
,
0100
0000
0000
0000
,
0001
0001
0001
0000
,
1000
1000
1000
0000
,
1000
0000
0001
0000
,
0010
0000
0100
0000
,
0010
0010
0010
0000
,
0100
0100
0100
0000
,
0100
0000
0010
0000
,
0001
0000
1000
0000
,
1001
0000
0000
0000
;

//---------------dance-single - ----------------
#NOTEDATA:;
#CHARTNAME:;
#STEPSTYPE:dance-single;
#DESCRIPTION:;
#CHARTSTYLE:;
#DIFFICULTY:Easy;
#METER:4;
#RADARVALUES:0.185662,0.276300,0.030700,0.173966,0.000000,127.000000,124.000000,3.000000,17.000000,0.000000,0.000000,0.000000,0.000000,0.000000,0.185662,0.276300,0.030700,0.173966,0.000000,127.000000,124.000000,3.000000,17.000000,0.000000,0.000000,0.000000,0.000000,0.000000;
#CREDIT:;
#DISPLAYBPM:140.000000;
#NOTES:
0000
0000
0000
0000
,
0000
0000
0000
0000
,
0000
0000
0000
0000
,
0000
0000
0000
0000
,
0000
0000
0000
0000
,
0010
0000
0100
0000
,
0010
0000
0001
0000
,
1000
0100
0001
0000
,
0001
0100
1000
0000
,
0010
1000
0010
1000
,
0001
0100
0001
0100
,
1001
0000
0000
0000
,
0020
0000
0000
0030
,
0002
0000
0000
0003
,
2000
0000
0000
3000
,
0002
0000
0000
0003
,
0020
0000
0000
0030
,
0200
0000
0000
0300
,
2000
0000
0000
3000
,
0020
0000
0000
0030
,
0100
0001
0100
0000
,
1000
0010
1000
0000
,
0001
1000
0001
0000
,
0100
0010
0100
0000
,
0010
0001
0010
0000
,
0100
1000
0100
0000
,
0001
0100
0001
0000
,
1000
0100
1000
0000
,
0001
0010
0100
0010
,
0001
0000
1000
0000
,
1000
0010
0100
0010
,
1000
0000
0001
0000
,
0010
0001
0100
0001
,
0010
0000
0001
0000
,
0010
1000
0100
1000
,
0010
0000
1000
0000
,
2000
0000
0000
0000
,
0001
0000
0000
3000
,
0010
0001
0100
0000
,
0010
1000
0100
0000
,
1000
0001
0100
0000
,
0001
1000
0100
0000
,
0010
0100
1000
0000
,
0010
0100
0001
0000
,
1000
0001
0010
0000
,
0220
0000
0000
0330
,
0100
1000
0100
0001
,
0100
1000
0010
0000
,
0002
0003
2000
3000
,
0020
0030
0200
0300
,
0001
0010
0100
1000
,
0001
1000
0100
0000
,
0002
0003
0200
0300
,
0010
1000
0001
1000
,
0110
0000
0000
0000
;

//---------------dance-single - ----------------
#NOTEDATA:;
#CHARTNAME:;
#STEPSTYPE:dance-single;
#DESCRIPTION:;
#CHARTSTYLE:;
#DIFFICULTY:Medium;
#METER:8;
#RADARVALUES:0.314309,0.359190,0.030700,0.040933,0.000000,215.000000,212.000000,3.000000,4.000000,0.000000,0.000000,0.000000,0.000000,0.000000,0.314309,0.359190,0.030700,0.040933,0.000000,215.000000,212.000000,3.000000,4.000000,0.000000,0.000000,0.000000,0.000000,0.000000;
#CREDIT:;
#DISPLAYBPM:140.000000;
#NOTES:
0000
0000
0000
0000
,
0000
0000
0000
0000
,
0000
0000
0000
0000
,
0000
0000
0000
0000
,
0000
0000
0000
0000
,
1000
0001
1000
0001
,
0010
0100
0010
0100
,
1000
0000
0100
0000
0010
0001
0010
0000
,
0001
0000
0010
0000
0100
1000
0100
0000
,
1000
0001
1000
0001
,
1000
0001
1000
0000
0100
0000
0010
0000
,
1001
0000
0000
0000
,
0001
0000
0001
0100
0000
0000
0000
0000
,
0100
0000
0100
0010
0000
0000
0000
0000
,
1000
0000
1000
0100
0000
0000
0000
0000
,
0001
0000
0001
1000
0000
0000
0000
0000
,
0010
0000
0010
0100
0000
0000
0000
0000
,
0100
0000
0100
1000
0000
0000
0000
0000
,
0010
0000
0010
0001
0000
0000
0000
0000
,
1000
0000
1000
0001
0000
0000
0000
0000
,
0100
0000
0010
0001
0000
0001
0010
0000
,
0100
0000
1000
0100
0000
0100
1000
0000
,
0001
0000
0100
0010
0000
0010
0100
0000
,
0001
0000
1000
0001
0000
0001
1000
0000
,
0100
0000
0010
0001
0000
0001
0010
0000
,
0100
0000
1000
0100
0000
0100
1000
0000
,
0001
0000
0100
0010
0000
0010
0100
0000
,
0001
0000
1000
0001
0000
0001
1000
0000
,
1000
0000
0100
0000
0010
0000
0001
0100
,
1000
0000
0100
0000
0001
0000
1000
0100
,
0001
0000
0100
0000
1000
0000
0100
0010
,
0001
0000
0010
0000
0100
0000
1000
0100
,
0001
0000
0100
0000
1000
0000
0001
0100
,
1000
0000
0100
0000
0001
0000
0010
0100
,
1000
0000
0100
0000
0010
0000
0001
0100
,
1000
0000
0100
0000
0001
0010
0100
1000
,
0002
0000
0000
0000
,
0200
0000
0000
0303
,
1000
0001
1000
0001
,
0010
0000
0100
0000
0010
0000
0001
0100
,
1000
0100
1000
0100
,
0001
0000
0010
0000
0001
0000
0010
0100
,
1000
0010
1000
0010
,
0100
0000
0001
0000
0100
0000
0001
0010
,
0100
1000
0100
1000
,
0220
0000
0000
0330
,
1000
0000
0001
0100
0000
1000
0100
0000
,
0010
0000
0100
0000
0010
0001
0100
0001
,
0010
0000
0100
1000
0000
0100
0001
0000
,
0100
0000
0010
0000
1000
0100
1000
0010
,
1000
0000
0010
0001
0000
0010
1000
0000
,
0100
0000
0010
0000
0001
0100
1000
0100
,
0001
0000
1000
0010
0000
0001
0010
0000
,
0001
1000
0001
0000
0010
0100
0010
0000
,
1001
0000
0000
0000
;

//---------------dance-single - ----------------
#NOTEDATA:;
#CHARTNAME:;
#STEPSTYPE:dance-single;
#DESCRIPTION:;
#CHARTSTYLE:;
#DIFFICULTY:Hard;
#METER:10;
#RADARVALUES:0.482428,0.607859,0.409333,0.112567,0.179083,330.000000,290.000000,40.000000,11.000000,0.000000,0.000000,0.000000,0.000000,0.000000,0.482428,0.607859,0.409333,0.112567,0.179083,330.000000,290.000000,40.000000,11.000000,0.000000,0.000000,0.000000,0.000000,0.000000;
#CREDIT:;
#DISPLAYBPM:140.000000;
#NOTES:
0000
0000
0000
0000
,
0000
0000
0000
0000
,
0000
0000
0000
0000
,
0000
0000
0000
0000
,
0000
0000
0000
0000
,
0100
1001
0010
1100
,
0001
1001
0100
0011
,
0010
0001
1000
0001
0010
0100
1000
0000
,
1000
0100
0010
0001
0010
0001
0100
0000
,
0001
0010
1000
0000
1000
0010
0001
0000
,
0001
0100
0010
1000
0001
1000
0010
0100
,
2002
0000
0000
3003
,
0010
0000
0000
0100
0000
0000
2000
0000
0000
0000
0000
0000
3100
0000
0000
0000
,
1000
0000
0000
0100
0000
0000
0020
0000
0000
0000
0000
0000
0130
0000
0000
0000
,
1000
0000
0000
0001
0000
0000
0200
0000
0000
0000
0000
0000
0310
0000
0000
0000
,
0100
0000
0000
0010
0000
0000
0002
0000
0000
0000
0000
0000
0013
0000
0000
0000
,
0010
0000
0000
0100
0000
0000
2000
0000
0000
0000
0000
0000
3100
0000
0000
0000
,
0001
0000
0000
0010
0000
0000
0200
0000
0000
0000
0000
0000
0301
0000
0000
0000
,
0001
0000
0000
0100
0000
0000
2000
0000
0000
0000
0000
0000
3100
0000
0000
0000
,
0010
0000
0000
0100
0000
0000
1000
0000
0000
0000
0100
0000
1000
0000
0100
0000
,
0010
0000
0000
0100
0000
0000
1000
0000
0000
0000
0001
0000
0100
0000
0010
0000
,
0100
0000
0000
0010
0000
0000
0001
0000
0000
0000
0010
0000
0010
0000
0100
0000
,
0001
0000
0000
0001
0000
0000
0100
0000
0000
0000
1000
0000
0100
0000
0001
0000
,
0010
0000
0000
0100
0000
0000
1000
0000
0000
0000
0100
0000
1000
0000
0001
0000
,
0010
0000
0000
0001
0000
0000
0011
0000
0000
0000
0100
0000
1000
0000
0010
0000
,
0100
0000
0000
0010
0000
0000
0110
0000
0000
0000
1000
0000
0001
0000
1000
0000
,
0100
0000
0000
1000
0000
0000
1100
0000
0000
0000
0100
0000
1000
0000
0001
0000
,
1000
0000
0000
0001
0000
0000
1001
0000
0000
0000
0010
0000
1000
0000
0100
0000
,
1000
0000
0000
0000
0101
0000
0000
0000
0001
0000
1000
0000
0010
0000
0100
0010
,
0100
0000
0000
0000
1001
0000
0000
0000
0010
0000
1000
0000
0001
0000
0100
0001
,
0100
0000
0000
0000
1100
0000
0000
0000
0100
0000
0001
0000
0010
0000
0001
0010
,
0001
0000
0000
0000
1010
0000
0000
0000
1000
0000
0100
0000
1000
0000
0001
1000
,
0001
0000
0000
0000
0110
0000
0000
0000
0001
0000
0100
0000
0001
0000
1000
0001
,
1000
0000
0000
0000
0110
0000
0000
0000
0100
0000
1000
0000
0010
0000
1000
0010
,
1000
0010
1000
0100
0010
0001
0100
0010
,
1000
0000
0001
0000
0100
0000
0001
0000
1000
0100
1000
0000
0001
0100
0001
0000
,
0200
0000
0000
0000
,
0020
0000
0000
0330
,
1000
0000
0000
1100
0000
0000
1001
0000
0000
0000
0100
0000
0010
0000
0001
0000
,
1000
0000
0000
1001
0000
0000
0101
0000
0000
0000
0001
0000
0010
0000
0100
0000
,
1000
0000
0000
1010
0000
0000
0110
0000
0000
0000
0100
0000
0001
0000
1000
0000
,
0100
0000
0000
0110
0000
0000
0101
0000
0000
0000
1000
0000
0001
0000
1000
0000
,
0001
0000
0000
0101
0000
0000
1100
0000
0000
0000
0010
0000
0100
0000
0010
0000
,
0100
0000
0000
1100
0000
0000
1001
0000
0000
0000
0001
0000
0100
0000
0001
0000
,
0100
0000
0000
0110
0000
0000
1010
0000
0000
0000
1000
0000
0100
0000
1000
0000
,
0100
0000
0000
0110
0000
0000
0011
0000
0000
0000
0001
0000
1000
0000
0001
0000
,
1000
0100
0010
0001
1000
0100
0010
0001
,
1000
0001
0100
0001
1000
0100
1000
0001
,
0010
0100
1000
0001
1000
0100
0001
0100
,
1000
0000
0000
1100
0000
0000
1001
0000
0000
0000
0001
0000
0100
0000
0010
0000
,
1000
0001
1000
0100
0010
0001
0100
0010
,
1000
0100
0010
0001
1000
0100
0001
0100
,
0010
0001
0010
0001
0100
0001
1000
0010
,
0110
0000
0000
1001
0000
0000
0101
0000
1100
0000
0000
0110
0000
0000
0011
0000
,
1001
0000
0000
0000
;

//---------------dance-double - ----------------
#NOTEDATA:;
#CHARTNAME:;
#STEPSTYPE:dance-double;
#DESCRIPTION:;
#CHARTSTYLE:;
#DIFFICULTY:Easy;
#METER:5;
#RADARVALUES:0.209052,0.276300,0.030700,0.163733,0.000000,143.000000,140.000000,3.000000,16.000000,0.000000,0.000000,0.000000,0.000000,0.000000,0.209052,0.276300,0.030700,0.163733,0.000000,143.000000,140.000000,3.000000,16.000000,0.000000,0.000000,0.000000,0.000000,0.000000;
#CREDIT:;
#DISPLAYBPM:140.000000;
#NOTES:
00000000
00000000
00000000
00000000
,
00000000
00000000
00000000
00000000
,
00000000
00000000
00000000
00000000
,
00000000
00000000
00000000
00000000
,
00000000
00000000
00000000
00000000
,
00000001
00000000
00001000
00000000
,
00000100
00000000
00010000
00000000
,
00001000
00010000
01000000
00000000
,
10000000
01000000
00010000
00000000
,
00001000
00010000
00001000
00000100
,
00000001
00000010
00000001
00000010
,
00001001
00000000
00000000
00000000
,
20000000
00000000
00000000
30010000
,
00020000
00000000
00000000
01030000
,
02000000
00000000
00000000
03001000
,
00002000
00000000
00000000
00013000
,
00020000
00000000
00000000
00030100
,
00000200
00000000
00000000
00001300
,
00002000
00000000
00000000
00003010
,
00000020
00000000
00000000
00000130
,
00000100
00000001
00000010
00000000
,
00000001
00000100
00001000
00000000
,
00001000
00010000
01000000
00000000
,
10000000
00100000
10000000
00000000
,
01000000
00010000
00001000
00000000
,
00001000
00010000
00001000
00000000
,
00000100
00000001
00000010
00000000
,
00001000
00010000
00100000
00000000
,
10000000
01000000
00010000
00001000
,
00000200
00000000
00000001
00000300
,
00000001
00000100
00001000
00010000
,
02000000
00000000
10000000
03000000
,
10000000
01000000
00010000
00001000
,
00000200
00000000
00000001
00000300
,
00000001
00000100
00001000
00010000
,
02000000
03000000
00020000
00030000
,
00002000
00000000
00000000
00000000
,
00010000
00000000
00000000
00003000
,
00000100
00000001
00000010
00000000
,
00000001
00000100
00001000
00000000
,
00010000
01000000
10000000
00000000
,
00100000
10000000
01000000
00000000
,
00010000
00001000
00000100
00000000
,
00000001
00000010
00001000
00000000
,
00000010
00000001
00000100
00000000
,
00022000
00000000
00000000
00033000
,
00010000
01000000
10000000
01000000
,
00010000
00001000
00000100
00000001
,
00000100
00000100
00001000
00001000
,
00010000
00010000
01000000
01000000
,
10000000
01000000
00010000
00001000
,
00000100
00000001
00000100
00001000
,
00010000
00010000
01000000
01000000
,
00010000
00010000
00001000
00001000
,
00011000
00000000
00000000
00000000
;

//---------------dance-double - ----------------
#NOTEDATA:;
#CHARTNAME:;
#STEPSTYPE:dance-double;
#DESCRIPTION:;
#CHARTSTYLE:;
#DIFFICULTY:Medium;
#METER:7;
#RADARVALUES:0.317233,0.331560,0.030700,0.122800,0.000000,217.000000,214.000000,3.000000,12.000000,0.000000,0.000000,0.000000,0.000000,0.000000,0.317233,0.331560,0.030700,0.122800,0.000000,217.000000,214.000000,3.000000,12.000000,0.000000,0.000000,0.000000,0.000000,0.000000;
#CREDIT:;
#DISPLAYBPM:140.000000;
#NOTES:
00000000
00000000
00000000
00000000
,
00000000
00000000
00000000
00000000
,
00000000
00000000
00000000
00000000
,
00000000
00000000
00000000
00000000
,
00000000
00000000
00000000
00000000
,
00000001
00000010
00000100
00001000
,
00000001
00000100
00001000
00010000
,
01000000
10000000
01000000
00000000
10000000
00000000
00100000
00000000
,
10000000
00010000
01000000
00000000
00001000
00000000
00010000
00000000
,
00001000
00000100
00000001
00000000
00000001
00000100
00001000
00000000
,
00000100
00000001
00000100
00001000
,
00011000
00000000
00000000
00000000
,
00000001
00000000
00000100
00002000
00000000
00000000
00013000
00000000
,
01000000
00000000
10000000
00200000
00000000
00000000
10300000
00000000
,
01000000
00000000
00010000
00002000
00000000
00000000
00003010
00000000
,
00000001
00000000
00000100
00000002
00000000
00000000
00000003
00000000
,
00000100
00000000
00001000
00020000
00000000
00000000
01030000
00000000
,
00010000
00000000
00001000
00000200
00000000
00000000
00001300
00000000
,
00010000
00000000
01000000
20000000
00000000
00000000
30100000
00000000
,
00010000
00000000
00001000
00000020
00000000
00000000
00000030
00000000
,
00000001
00000000
00000001
00000100
00000000
00000100
00001000
00000000
,
00010000
00000000
00010000
01000000
00000000
01000000
10000000
00000000
,
01000000
00000000
01000000
00010000
00000000
00010000
00001000
00000000
,
00000010
00000000
00000010
00001000
00000000
00001000
00010000
00000000
,
01000000
00000000
00010000
00001000
00000000
00001000
00000100
00000000
,
00000001
00000000
00000010
00000001
00000000
00000001
00000010
00000000
,
00000100
00000000
00010000
00001000
00000000
00001000
00010000
00000000
,
01000000
00000000
10000000
00100000
00000000
00100000
10000000
00000000
,
10000000
00000000
01000000
00000000
00010000
00000000
00001000
00000100
,
00000001
00000000
00000010
00000000
00001000
00000000
00000010
00000001
,
00000100
00000000
00001000
00000000
00010000
00000000
01000000
10000000
,
00100000
00000000
10000000
00000000
01000000
00000000
00010000
00001000
,
00010000
00000000
01000000
00000000
00010000
00000000
00001000
00010000
,
00001000
00000000
00000100
00000000
00000001
00000000
00000010
00001000
,
00010000
00000000
00100000
00000000
10000000
00000000
01000000
00010000
,
00001000
00000000
00010000
00000000
01000000
00010000
00001000
00000100
,
00000002
00000000
00000000
00000000
,
00002000
00000000
00000000
00003003
,
00001000
00000100
00010000
00001000
,
01000000
00000000
00010000
00000000
10000000
00000000
00010000
01000000
,
10000000
01000000
00100000
00010000
,
10000000
00000000
01000000
00000000
00010000
00000000
00001000
00000100
,
00000001
00000100
00001000
00010000
,
01000000
00000000
10000000
00000000
00100000
00000000
10000000
01000000
,
00010000
00001000
00000100
00001000
,
00022000
00000000
00000000
00033000
,
00010000
00000000
00010000
01000000
00000000
10000000
01000000
00000000
,
00010000
00000000
00001000
00000100
00000000
00000001
00000010
00000000
,
00000100
00000000
00001000
00000001
00000000
00000100
00001000
00000000
,
00010000
00000000
00001000
00010000
00000000
01000000
10000000
00000000
,
00100000
00000000
00010000
00001000
00000000
00010000
01000000
00000000
,
00010000
00000000
00001000
00000100
00000000
00000001
00000010
00000000
,
00000001
00000000
00001000
00000001
00000000
00000100
00001000
00000000
,
00010000
01000000
10000000
00100000
,
10010000
00000000
00000000
00000000
;

//---------------dance-double - ----------------
#NOTEDATA:;
#CHARTNAME:;
#STEPSTYPE:dance-double;
#DESCRIPTION:;
#CHARTSTYLE:;
#DIFFICULTY:Hard;
#METER:11;
#RADARVALUES:0.453190,0.635489,0.255833,0.112567,0.153500,310.000000,285.000000,25.000000,11.000000,0.000000,0.000000,0.000000,0.000000,0.000000,0.453190,0.635489,0.255833,0.112567,0.153500,310.000000,285.000000,25.000000,11.000000,0.000000,0.000000,0.000000,0.000000,0.000000;
#CREDIT:;
#DISPLAYBPM:140.000000;
#NOTES:
00000000
00000000
00000000
00000000
,
00000000
00000000
00000000
00000000
,
00000000
00000000
00000000
00000000
,
00000000
00000000
00000000
00000000
,
00000000
00000000
00000000
00000000
,
00100000
10000000
01000000
00010000
00001000
00010000
00001000
00000000
,
00000100
00000001
00000010
00000001
00000100
00000001
00000100
00000000
,
00001000
00010000
01000000
00000000
00010000
00000000
00001000
00000000
,
00010000
01000000
10000000
00000000
00100000
00000000
01000000
00000000
,
00100000
00010000
00001000
00000000
00010000
00001000
00000010
00000000
,
00000010
00000001
00000100
00001000
00010000
00001000
00010000
01000000
,
10000000
00000000
00000000
00000000
,
10000000
00000000
00000000
01000000
00000000
00000000
00020000
00000000
00000000
00000000
00000000
00000000
01030000
00000000
00000000
00000000
,
00010000
00000000
00000000
00001000
00000000
00000000
00000020
00000000
00000000
00000000
00000000
00000000
00001030
00000000
00000000
00000000
,
00000010
00000000
00000000
00000001
00000000
00000000
00000200
00000000
00000000
00000000
00000000
00000000
00000301
00000000
00000000
00000000
,
00000100
00000000
00000000
00001000
00000000
00000000
00020000
00000000
00000000
00000000
00000000
00000000
01030000
00000000
00000000
00000000
,
00010000
00000000
00000000
01000000
00000000
00000000
20000000
00000000
00000000
00000000
00000000
00000000
30010000
00000000
00000000
00000000
,
01000000
00000000
00000000
00001000
00000000
00000000
00020000
00000000
00000000
00000000
00000000
00000000
00031000
00000000
00000000
00000000
,
00010000
00000000
00000000
00001000
00000000
00000000
00000200
00000000
00000000
00000000
00000000
00000000
00001300
00000000
00000000
00000000
,
00000100
00000000
00000000
00000001
00000000
00000000
00000020
00000000
00000000
00000000
00000000
00000000
00000031
00000000
00000000
00000000
,
00000010
00000000
00000000
00001000
00000000
00000000
00010000
00000000
00000000
00000000
00100000
00000000
10000000
00000000
00010000
00000000
,
01000000
00000000
00000000
00001000
00000000
00000000
00010000
00000000
00000000
00000000
00001000
00000000
00000010
00000000
00000001
00000000
,
00000010
00000000
00000000
00001000
00000000
00000000
00010000
00000000
00000000
00000000
00001000
00000000
00000010
00000000
00000001
00000000
,
00000100
00000000
00000000
00000001
00000000
00000000
00001000
00000000
00000000
00000000
00000001
00000000
00000100
00000000
00001000
00000000
,
00010000
00000000
00000000
00100000
00000000
00000000
10000000
00000000
00000000
00000000
00100000
00000000
00010000
00000000
00001000
00000000
,
00000010
00000000
00000000
00000001
00000000
00000000
00000100
00000000
00000000
00000000
00001000
00000000
00010000
00000000
00001000
00000000
,
00010000
00000000
00000000
01000000
00000000
00000000
00100000
00000000
00000000
00000000
00010000
00000000
01000000
00000000
10000000
00000000
,
01000000
00000000
00000000
00100000
00000000
00000000
00010000
00000000
00000000
00000000
00100000
00000000
10000000
00000000
01000000
00000000
,
00010000
00000000
00000000
00000000
00001000
00000000
00000000
00000000
00010000
00000000
00001000
00000000
00000100
00000000
00000001
00000100
,
00000001
00000000
00000000
00000000
00000010
00000000
00000000
00000000
00000001
00000000
00000100
00000000
00001000
00000000
00010000
00001000
,
00010000
00000000
00000000
00000000
01000000
00000000
00000000
00000000
10000000
00000000
00100000
00000000
10000000
00000000
01000000
10000000
,
01000000
00000000
00000000
00000000
00010000
00000000
00000000
00000000
00001000
00000000
00000100
00000000
00000001
00000000
00000010
00000001
,
00000010
00000000
00000000
00000000
00000001
00000000
00000000
00000000
00000100
00000000
00001000
00000000
00010000
00000000
00001000
00010000
,
00001000
00000000
00000000
00000000
01000000
00000000
00000000
00000000
00100000
00000000
10000000
00000000
01000000
00000000
00010000
01000000
,
00010000
00000000
00001000
00000000
00010000
00001000
00010000
00001000
,
00000100
00000001
00000010
00001000
00010000
00001000
00010000
00100000
,
20000000
00000000
00000000
00000000
,
00020000
00000000
00000000
30030000
,
10000000
01000000
00010000
00001000
00010000
00001000
00000100
00000001
,
00000010
00001000
00000010
00000001
00000100
00001000
00010000
00001000
,
00011000
00000000
00000000
01001000
00000000
00000000
01010000
00000000
00000000
00000000
10000000
00000000
01000000
00000000
00010000
00000000
,
00011000
00000000
00000000
00010100
00000000
00000000
00001100
00000000
00000000
00000000
00000010
00000000
00000100
00000000
00000010
00000000
,
00000001
00000100
00001000
00010000
00001000
00010000
01000000
10000000
,
00100000
00010000
00100000
10000000
01000000
00010000
00001000
00010000
,
00011000
00000000
00000000
00010100
00000000
00000000
00001100
00000000
00000000
00000000
00000001
00000000
00000100
00000000
00001000
00000000
,
00020000
00000000
00000000
00030000
,
00001000
00010000
01000000
10000000
01000000
00010000
00001000
00010000
,
00001000
00000100
00000001
00000100
00001000
00010000
00001000
00100000
,
00101000
00000000
00000000
00011000
00000000
00000000
00001100
00000000
00000000
00000000
00000010
00000000
00000001
00000000
00000100
00000000
,
00001100
00000000
00000000
00011000
00000000
00000000
00101000
00000000
00000000
00000000
00010000
00000000
01000000
00000000
10000000
00000000
,
00100000
01000000
00010000
00100000
00001000
00010000
00000100
00001000
,
00000010
00000100
00000001
00000010
00000001
00000100
00000010
00000100
,
00000110
00000000
00000000
00001100
00000000
00000000
00011000
00000000
00000000
00000000
00000100
00000000
00001000
00000000
00010000
00000000
,
00011000
00000000
00000000
01001000
00000000
00000000
01010000
00000000
01010000
00000000
00000000
01100000
00000000
00000000
10100000
00000000
,
11000000
00000000
00000000
00000000
;

//---------------dance-single - ----------------
#NOTEDATA:;
#CHARTNAME:;
#STEPSTYPE:dance-single;
#DESCRIPTION:;
#CHARTSTYLE:;
#DIFFICULTY:Challenge;
#METER:15;
#RADARVALUES:0.700251,0.911789,0.184200,0.133033,0.757266,479.000000,461.000000,18.000000,13.000000,0.000000,0.000000,0.000000,0.000000,0.000000,0.700251,0.911789,0.184200,0.133033,0.757266,479.000000,461.000000,18.000000,13.000000,0.000000,0.000000,0.000000,0.000000,0.000000;
#CREDIT:;
#DISPLAYBPM:140.000000;
#NOTES:
// measure 0
0000
0000
0000
0000
,  // measure 1
0000
0000
0000
0000
,  // measure 2
0000
0000
0000
0000
,  // measure 3
0000
0000
0000
0000
,  // measure 4
0000
0000
0000
0000
,  // measure 5
0010
0001
0100
0000
0010
1000
0100
0000
,  // measure 6
0100
1000
0010
1000
0100
0001
0010
1000
,  // measure 7
0001
0010
0100
0000
0010
1000
0100
0000
0010
0001
1000
0100
0010
0000
0001
0000
,  // measure 8
1000
0010
0100
0000
0001
0100
0010
0000
1000
0001
0100
0010
0100
0000
0001
0000
,  // measure 9
1000
0100
1000
0100
0010
0000
0001
0000
0010
0001
0010
0001
1000
0000
0001
0000
,  // measure 10
1000
0010
0001
0010
1000
0100
0001
0100
1000
0010
0100
0001
1000
0100
0010
0001
,  // measure 11
0200
0000
0300
0000
,  // measure 12
0100
0000
0000
0100
0000
0000
0100
0000
0000
0100
1000
0000
0100
0000
0001
0000
,  // measure 13
1000
0000
0000
1000
0000
0000
1000
0000
0000
1000
0001
0000
0010
0000
1000
0000
,  // measure 14
0010
0000
0000
0010
0000
0000
0010
0000
0000
0010
1000
0000
0010
0000
0100
0000
,  // measure 15
0001
0000
0000
0001
0000
0000
0001
0000
0000
0001
0100
0000
0010
0000
1000
0000
,  // measure 16
0001
0000
0000
0001
0000
0000
0001
0000
0000
0001
1000
0000
0100
0000
0001
0000
,  // measure 17
0010
0000
0000
0010
0000
0000
0010
0000
0000
0010
0001
0000
0010
0000
0100
0000
,  // measure 18
1000
0000
0000
1000
0000
0000
1000
0000
0000
1000
0100
0000
0001
0000
1000
0000
,  // measure 19
0100
0000
0000
0100
0000
0000
0100
0000
0000
0100
1000
0000
0100
0000
0010
0000
,  // measure 20
0011
0000
0000
1010
0000
0000
1100
0000
0000
1000
0100
0000
0010
0000
0001
0000
,  // measure 21
0200
0000
0000
2300
0000
0000
3020
0000
0000
0031
0010
0000
0100
0000
1000
0000
,  // measure 22
1001
0000
0000
0110
0000
0000
1001
0000
0000
0001
0010
0000
1000
0000
0010
0000
,  // measure 23
0200
0000
0000
0302
0000
0000
0023
0000
0000
0031
0010
0000
0100
0000
1000
0000
,  // measure 24
1001
0000
0000
1100
0000
0000
1010
0000
0000
0010
0100
0000
0001
0000
1000
0000
,  // measure 25
1100
0000
0000
0011
0000
0000
1100
0000
0000
1000
0001
0000
0010
0000
1000
0000
,  // measure 26
1010
0000
0000
0101
0000
0000
1100
0000
0000
1000
0001
0000
0010
0000
1000
0000
,  // measure 27
0011
0000
0000
1100
0000
0000
0011
0000
0000
1000
0010
0000
0100
0000
0001
0000
,  // measure 28
2000
0000
0000
0000
0010
0000
0000
0000
3010
0000
0100
0010
0100
0000
0010
0100
,  // measure 29
0020
0000
0000
0000
0001
0000
0000
0000
0031
0000
0010
0001
0010
0000
0001
0010
,  // measure 30
0002
0000
0000
0000
0100
0000
0000
0000
0103
0000
0001
0100
0001
0000
0100
0001
,  // measure 31
0200
0000
0000
0000
1000
0000
0000
0000
1300
0000
0100
1000
0010
0000
0100
0001
,  // measure 32
0010
0000
1000
0010
0000
0100
0001
0000
1000
0000
0001
0010
0100
1000
0010
0000
,  // measure 33
1000
0000
0001
0010
0000
0100
1000
0000
0010
0000
1000
0100
0010
0001
0100
0000
,  // measure 34
0010
0000
0001
0010
0000
1000
0010
0000
0100
0000
0001
0100
0000
1000
0100
0000
,  // measure 35
0010
0001
1000
0010
0001
0100
1000
0001
1000
0100
0010
1000
0001
0100
0010
1000
,  // measure 36
0001
0010
0100
1000
0010
0100
0001
1000
0100
0010
0001
0100
0010
1000
0100
0002
,  // measure 37
2000
0000
0000
0000
3003
1000
0100
0010
,  // measure 38
0001
0000
0100
0001
0100
0000
0001
0100
0001
0000
0010
0001
0010
0000
0001
0000
,  // measure 39
1000
0000
0010
1000
0010
0000
1000
0010
1000
0000
0100
1000
0100
0000
0010
0000
,  // measure 40
0001
0000
0100
0001
0100
0000
0001
0100
0001
0000
0010
0001
0010
0000
0001
0000
,  // measure 41
1000
0000
0001
1000
0001
0000
1000
0001
1000
0000
0010
0100
0010
0000
1000
0000
,  // measure 42
0100
0000
0010
0100
0001
0000
0010
1000
0100
0000
0001
1000
0010
0000
0100
0000
,  // measure 43
0010
0000
0001
0100
0010
0000
1000
0010
0100
0000
0010
0001
1000
0000
0010
0000
,  // measure 44
0001
0000
1000
0100
0010
0000
0100
0010
0001
0000
0001
0010
1000
0000
0100
0000
,  // measure 45
0001
0000
0001
0010
1000
0000
1000
0010
0001
0000
1000
0100
0001
0000
0100
0000
,  // measure 46
1000
0000
0000
0000
0000
0000
0010
1000
0010
0000
0000
0000
0001
0000
0100
0000
0001
0000
0000
0000
1000
0000
0100
0000
1000
0000
0000
0000
0010
0000
0000
0000
,  // measure 47
0100
0000
0000
0000
0000
0000
0010
0001
0010
0000
0000
0000
0001
0000
0100
0000
0001
0000
0000
0000
1000
0000
0100
0000
1000
0000
0000
0000
0001
0000
0000
0000
,  // measure 48
1000
0000
0000
0000
0000
0000
0100
1000
0100
0000
0000
0000
1000
0000
0010
0000
1000
0000
0000
0000
0001
0000
0100
0000
0001
0000
0000
0000
1000
0000
0000
0000
,  // measure 49
0010
0000
0000
0000
0000
0000
0010
0100
0010
0000
0000
0000
1000
0000
0001
0000
1000
0000
0000
0000
0010
0000
0100
0000
0010
0000
0000
0000
0001
0000
0000
0000
,  // measure 50
1000
0000
0000
0000
0000
0000
0001
0010
0100
0000
0000
0000
0010
0000
0100
0000
1000
0000
0000
0000
0001
0000
1000
0000
0100
0000
0000
0000
0010
0000
0000
0000
,  // measure 51
0001
0000
0000
0000
0000
0000
1000
0100
0010
0000
0000
0000
0001
0000
0010
0000
0100
0000
0000
0000
1000
0000
0010
0000
0100
0000
0000
0000
0001
0000
0000
0000
,  // measure 52
0010
0000
0000
0000
0000
0000
0001
0010
1000
0000
0000
0000
1000
0000
0010
0000
0001
0000
0000
0000
1000
0000
0100
0000
0010
0000
0000
0000
0001
0000
0000
0000
,  // measure 53
1000
0100
1000
0001
0100
0001
1000
0100
1000
0100
0001
0100
1000
0100
0001
0010
,  // measure 54
0010
0000
0000
0000
;
