#VERSION:0.83;
#TITLE:TIERRA BUENA;
#SUBTITLE:;
#ARTIST:WILMA DE OLIVEIRA;
#TITLETRANSLIT:;
#SUBTITLETRANSLIT:;
#ARTISTTRANSLIT:;
#GENRE:;
#ORIGIN:;
#CREDIT:;
#BANNER:TIERRA BUENA.png;
#BACKGROUND:TIERRA BUENA-bg.png;
#PREVIEWVID:;
#JACKET:TIERRA BUENA-jacket.png;
#CDIMAGE:;
#DISCIMAGE:;
#LYRICSPATH:;
#CDTITLE:;
#MUSIC:TIERRA BUENA.ogg;
#OFFSET:0.000000;
#SAMPLESTART:35.500000;
#SAMPLELENGTH:15.000000;
#SELECTABLE:YES;
#BPMS:0.000=115.000;
#STOPS:;
#DELAYS:;
#WARPS:;
#TIMESIGNATURES:0.000=4=4;
#TICKCOUNTS:0.000=4;
#COMBOS:0.000=1;
#SPEEDS:0.000=1.000=0.000=0;
#SCROLLS:0.000=1.000;
#FAKES:;
#LABELS:0.000=Song Start;
#BGCHANGES:;
#KEYSOUNDS:;
#ATTACKS:
;

//---------------dance-single - ----------------
#NOTEDATA:;
#CHARTNAME:;
#STEPSTYPE:dance-single;
#DESCRIPTION:;
#CHARTSTYLE:;
#DIFFICULTY:Beginner;
#METER:3;
#RADARVALUES:0.118969,0.161708,0.091264,0.000000,0.000000,73.000000,65.000000,8.000000,0.000000,0.000000,0.000000,0.000000,0.000000,0.000000,0.118969,0.161708,0.091264,0.000000,0.000000,73.000000,65.000000,8.000000,0.000000,0.000000,0.000000,0.000000,0.000000,0.000000;
#CREDIT:;
#NOTES:
0000
0000
0000
0000
,
0000
0000
0000
0000
,
0000
0000
0000
0000
,
0000
0000
0000
0000
,
0000
0000
0000
0000
,
1000
0000
0000
0000
,
0001
0000
0000
0000
,
0010
0000
0010
0000
,
0010
0000
0100
0000
,
0100
0000
0000
0000
,
0010
0000
0000
0000
,
1000
0000
0000
0001
,
0000
0001
0000
0000
,
0001
0000
0100
0000
,
0100
0000
1000
0000
,
0010
0000
1000
0000
,
0100
0000
1000
0000
,
0000
0010
0000
0000
,
0100
0100
0000
1001
,
0000
0100
0000
0000
,
0010
0010
0000
1001
,
0000
0000
1000
0000
,
0010
0000
0010
0000
,
1000
0000
1000
0000
,
0001
0000
0001
0000
,
0010
0000
0100
0000
,
0001
0000
1001
0000
,
0001
0000
0100
0000
,
0010
0000
1000
0000
,
1000
0000
0100
0000
,
0001
0000
0100
0000
,
0000
0010
0000
0000
,
0100
0100
0000
1001
,
0000
0100
0000
0000
,
0010
0010
0000
1001
,
0000
0010
0000
0000
,
0100
0100
0000
1001
,
0000
0100
0000
0000
,
0010
0010
0000
1001
,
0000
0000
0010
0000
,
1000
0000
1001
0000
,
0000
0000
0000
0000
;

//---------------dance-single - ----------------
#NOTEDATA:;
#CHARTNAME:;
#STEPSTYPE:dance-single;
#DESCRIPTION:;
#CHARTSTYLE:;
#DIFFICULTY:Easy;
#METER:4;
#RADARVALUES:0.216751,0.254113,0.091264,0.057040,0.000000,133.000000,125.000000,8.000000,5.000000,0.000000,0.000000,0.000000,0.000000,0.000000,0.216751,0.254113,0.091264,0.057040,0.000000,133.000000,125.000000,8.000000,5.000000,0.000000,0.000000,0.000000,0.000000,0.000000;
#CREDIT:;
#NOTES:
0000
0000
0000
0000
,
0000
0000
0000
0000
,
0000
0000
0000
0000
,
0000
0000
0000
0000
,
0000
0000
0000
0000
,
1000
1000
0100
0000
,
0001
0001
0100
0000
,
0010
1000
0010
0001
,
0010
1000
0100
0000
,
0100
0100
0010
0000
,
0010
0010
0100
0000
,
1000
1000
0001
0001
,
0010
0001
0100
0000
,
0001
1000
0100
0010
,
0100
0001
1000
0000
,
0010
0001
1000
0010
,
0100
0001
1000
0000
,
0010
0010
0100
0100
,
0010
0100
0010
1001
,
0100
0100
0010
0010
,
0100
0010
0100
1001
,
0002
0003
2000
3000
,
0010
0100
0020
0030
,
1000
0100
1000
0100
,
0001
0100
0001
0100
,
0010
0000
0100
0000
,
0001
1000
1001
0000
,
0001
0001
0100
0100
,
1000
0010
0001
0000
,
1000
1000
0100
0100
,
0001
0010
1000
0000
,
0010
0010
0100
0100
,
0010
0100
0010
1001
,
0100
0100
0010
0010
,
0100
0010
0100
1001
,
1000
1000
0001
0001
,
0010
0100
0010
1001
,
0001
0001
1000
1000
,
0100
0010
0100
1001
,
0200
0300
0020
0030
,
1000
0001
1001
0000
,
0000
0000
0000
0000
;

//---------------dance-single - ----------------
#NOTEDATA:;
#CHARTNAME:;
#STEPSTYPE:dance-single;
#DESCRIPTION:;
#CHARTSTYLE:;
#DIFFICULTY:Medium;
#METER:8;
#RADARVALUES:0.329201,0.323416,0.136896,0.091264,0.068448,202.000000,190.000000,12.000000,8.000000,0.000000,0.000000,0.000000,0.000000,0.000000,0.329201,0.323416,0.136896,0.091264,0.068448,202.000000,190.000000,12.000000,8.000000,0.000000,0.000000,0.000000,0.000000,0.000000;
#CREDIT:;
#NOTES:
0000
0000
0000
0000
,
0000
0000
0000
0000
,
0000
0000
0000
0000
,
0000
0000
0000
0000
,
0000
0000
0000
0000
,
1000
0000
0100
0010
0001
0000
0100
0000
,
0001
0000
0010
0100
1000
0000
0001
0000
,
1000
0010
1000
0000
0100
1000
0001
0000
,
0010
0000
0100
0010
0001
0000
1001
0000
,
0010
0000
0100
0001
0010
0000
0100
0000
,
1000
0000
0001
0100
0010
0000
0100
0000
,
0010
1000
0001
0000
0100
0001
0010
0000
,
0100
0000
0010
0001
1000
0000
0110
0000
,
1000
0000
0000
0001
0100
0000
0000
0000
0010
0000
0000
0100
0001
0000
0000
0000
,
0010
0000
0000
0001
0100
0000
0000
0000
0010
0000
1000
0000
0001
0000
0000
0000
,
0100
0000
0000
0010
1000
0000
0000
0000
0001
0000
0000
0010
0100
0000
0000
0000
,
1000
0000
0000
0001
0100
0000
0000
0000
0010
0000
1000
0000
0100
0000
0000
0000
,
0010
0000
1000
0001
1000
0000
0001
0100
,
0001
0000
0010
0100
0010
0000
1001
0000
,
0100
0000
1000
0100
1000
0000
0001
0010
,
0001
0000
1000
0001
1000
0000
0110
0000
,
2002
0000
3003
0100
0020
0000
0030
0000
,
0001
1000
0100
0000
0022
0000
0033
0000
,
1000
0000
0100
0000
0010
0001
0100
0000
,
0001
0000
0010
0000
0100
0001
1000
0000
,
0010
1000
0010
0000
0100
0001
0100
0000
,
0010
0000
1000
0000
0001
1000
0000
0000
,
0010
0000
0000
1000
0100
0000
0000
0000
1000
0000
0000
0100
0010
0000
0000
0000
,
0001
0000
0000
1000
0010
0000
0000
0000
1000
0000
0100
0000
0001
0000
0000
0000
,
0100
0000
0000
1000
0001
0000
0000
0000
0010
0000
0000
0001
0100
0000
0000
0000
,
0010
0000
0000
1000
0001
0000
0000
0000
0100
0000
0010
0000
1000
0000
0000
0000
,
0001
0000
0010
0001
1000
0000
0100
1000
,
0010
0000
0100
0001
1000
0000
0110
0000
,
0001
0000
1000
0100
0010
0000
0001
1000
,
0001
0000
0010
0100
1000
0000
1001
0000
,
0010
0000
1000
0001
0100
0000
1000
0100
,
0001
0000
0100
0001
0010
0000
1001
0000
,
0100
0000
1000
0100
0010
0000
0001
0010
,
1000
0000
0010
0001
0100
0000
0110
0000
,
2002
0000
3003
0100
0020
0000
0030
0000
,
0001
1000
0100
0000
1001
0000
0000
0000
,
0000
0000
0000
0000
;

//---------------dance-single - ----------------
#NOTEDATA:;
#CHARTNAME:;
#STEPSTYPE:dance-single;
#DESCRIPTION:;
#CHARTSTYLE:;
#DIFFICULTY:Hard;
#METER:10;
#RADARVALUES:0.426984,0.438922,0.182528,0.091264,0.136896,262.000000,246.000000,16.000000,8.000000,0.000000,0.000000,0.000000,0.000000,0.000000,0.426984,0.438922,0.182528,0.091264,0.136896,262.000000,246.000000,16.000000,8.000000,0.000000,0.000000,0.000000,0.000000,0.000000;
#CREDIT:;
#NOTES:
0000
0000
0000
0000
,
0000
0000
0000
0000
,
0000
0000
0000
0000
,
0000
0000
0000
0000
,
0000
0000
0000
0000
,
0010
0000
0000
1000
0100
0000
1000
0000
0010
0000
0000
0000
0100
0000
0001
0000
,
1000
0000
0000
0100
0010
0000
0100
0000
1000
0000
0000
0000
0001
0000
0010
0000
,
0100
0000
0000
1000
0100
0000
0001
0000
0100
0000
1000
0000
0001
0000
0000
0000
,
1000
0010
0100
0010
1000
0000
1001
0000
,
0010
0000
0000
0001
0100
0000
0001
0000
0010
0000
0000
0000
0100
0000
1000
0000
,
0010
0000
0000
1000
0001
0000
0100
0000
0010
0000
0000
0000
0100
0000
0001
0000
,
0010
0000
0000
0001
1000
0000
0010
0000
0100
0000
0001
0000
0010
0000
0000
0000
,
0001
1000
0100
1000
0001
0000
0110
0000
,
1000
0000
0000
0001
0010
0000
0001
0000
0010
0000
0000
0100
1000
0000
0100
0000
,
1000
0000
0000
0001
0100
0000
0001
0000
0010
0000
0001
0000
0100
0000
0000
0000
,
0001
0000
0000
1000
0010
0000
1000
0000
0100
0000
0000
0010
0001
0000
0010
0000
,
1000
0000
0000
0010
0100
0000
0010
0000
0001
0000
1000
0000
0100
0000
0000
0000
,
0010
0100
1000
0001
0100
0010
1000
0100
,
0001
0100
1000
0001
0100
0010
1001
0000
,
0100
0001
1000
0100
0010
0100
1000
0010
,
0001
1000
0100
0001
1100
0000
0101
0000
,
2002
0000
0000
0000
3003
0000
0010
0100
0020
0000
0000
0000
0030
0000
1000
0000
,
0010
1000
0100
0000
0022
0000
0033
0000
,
1000
0001
0100
0000
0010
0001
0100
0000
,
0001
1000
0010
0000
0100
0001
1000
0000
,
0010
0000
1000
0010
0100
0000
1000
0100
,
0001
0000
0010
0000
0001
0000
1000
0000
0010
0000
1000
0000
0001
0000
0000
1001
0000
0000
0000
0000
0000
0010
0000
0000
,
0001
0000
0000
1000
0100
0000
1000
0000
0001
0000
0000
0100
0010
0000
0100
0000
,
0001
0000
0000
0010
0001
0000
1000
0000
0010
0000
0100
0000
0001
0000
0000
0000
,
1000
0000
0000
0100
0010
0000
1000
0000
0010
0000
0000
0001
0100
0000
0010
0000
,
1000
0000
0000
0001
1000
0000
0100
0000
0010
0000
0001
0000
0100
0000
0000
0000
,
0001
1000
0100
0010
0001
0100
0001
0010
,
1000
0001
0100
1000
0010
1000
0101
0000
,
1000
0100
0001
0100
1000
0001
0100
1000
,
0100
0010
1000
0100
0110
0000
1001
0000
,
0010
0100
1000
0001
0100
0010
1000
0100
,
0001
0100
1000
0001
0100
0010
1001
0000
,
0100
0001
1000
0100
0010
0100
1000
0010
,
0001
1000
0100
0001
1100
0000
0101
0000
,
2002
0000
0000
0000
3003
0000
0010
0100
0020
0000
0000
0000
0030
0000
1000
0000
,
0010
1000
0100
0000
1001
0000
0000
0000
,
0000
0000
0000
0000
;

//---------------dance-double - ----------------
#NOTEDATA:;
#CHARTNAME:;
#STEPSTYPE:dance-double;
#DESCRIPTION:;
#CHARTSTYLE:;
#DIFFICULTY:Easy;
#METER:4;
#RADARVALUES:0.182528,0.207910,0.000000,0.182528,0.000000,112.000000,112.000000,0.000000,16.000000,0.000000,0.000000,0.000000,0.000000,0.000000,0.182528,0.207910,0.000000,0.182528,0.000000,112.000000,112.000000,0.000000,16.000000,0.000000,0.000000,0.000000,0.000000,0.000000;
#CREDIT:;
#NOTES:
00000000
00000000
00000000
00000000
,
00000000
00000000
00000000
00000000
,
00000000
00000000
00000000
00000000
,
00000000
00000000
00000000
00000000
,
00000000
00000000
00000000
00000000
,
00000010
00000010
00000001
00000000
,
00001000
00001000
00000100
00000000
,
00001000
00001000
00000001
00000001
,
00000010
00001000
00000100
00000000
,
00001000
00001000
00010000
00000000
,
00100000
00100000
01000000
00000000
,
10000000
10000000
00010000
00010000
,
00100000
10000000
01000000
00000000
,
20000000
30000000
02000000
03000000
,
00020000
00030000
00002000
00003000
,
00000020
00000030
00000002
00000003
,
00000200
00000300
00000020
00000030
,
00001000
00001000
00000100
00000100
,
00001000
00000100
00001000
00001000
,
00000001
00000001
00000100
00000100
,
00000001
00000100
00000001
00000001
,
00000010
00000000
00001000
00000000
,
00010000
00001000
00010000
00000000
,
00010000
00010000
01000000
01000000
,
10000000
10000000
00100000
00100000
,
10000000
00000000
00010000
00000000
,
10000000
00010000
10000000
00000000
,
20000000
30000000
02000000
03000000
,
00020000
00030000
00002000
00003000
,
00000020
00000030
00000002
00000003
,
00000200
00000300
00000020
00000030
,
00001000
00001000
00000100
00000100
,
00001000
00000100
00001000
00001000
,
00000001
00000001
00000100
00000100
,
00000001
00000100
00000001
00000001
,
00001000
00001000
00000010
00000010
,
00001000
00000010
00001000
00001000
,
00010000
00010000
00001000
00001000
,
00010000
00001000
00010000
00000000
,
00010000
00000000
01000000
00000000
,
00100000
01000000
00100000
00000000
,
00000000
00000000
00000000
00000000
;

//---------------dance-double - ----------------
#NOTEDATA:;
#CHARTNAME:;
#STEPSTYPE:dance-double;
#DESCRIPTION:;
#CHARTSTYLE:;
#DIFFICULTY:Medium;
#METER:7;
#RADARVALUES:0.308015,0.323416,0.148304,0.091264,0.000000,189.000000,176.000000,13.000000,8.000000,0.000000,0.000000,0.000000,0.000000,0.000000,0.308015,0.323416,0.148304,0.091264,0.000000,189.000000,176.000000,13.000000,8.000000,0.000000,0.000000,0.000000,0.000000,0.000000;
#CREDIT:;
#NOTES:
00000000
00000000
00000000
00000000
,
00000000
00000000
00000000
00000000
,
00000000
00000000
00000000
00000000
,
00000000
00000000
00000000
00000000
,
00000000
00000000
00000000
00000000
,
00000001
00000000
00000010
00000100
00001000
00000000
00000010
00000000
,
00001000
00000000
00000100
00000010
00000001
00000000
00000100
00000000
,
00001000
00000000
00010000
00000000
00100000
10000000
00010000
00000000
,
01100000
01010000
11000000
00100000
,
10000000
00000000
01000000
10000000
00010000
00000000
01000000
00000000
,
00100000
00000000
00010000
00001000
00000100
00000000
00000010
00000000
,
00001000
00000000
00000010
00000000
00000001
00001000
00000100
00000000
,
00001010
00000101
00001001
00000100
,
00000001
00000000
00000010
00001000
00000100
00000000
00001000
00000000
,
00000100
00000000
00000010
00000000
00000001
00000100
00001000
00000000
,
00010000
00000000
01000000
10000000
00100000
00000000
01000000
00000000
,
00010000
00000000
10000000
00000000
00100000
10000000
01000000
00000000
,
00100000
00000000
00010000
01000000
00010000
00000000
10000000
01000000
,
10000000
00000000
00100000
00000000
00010000
00001000
00010000
00000000
,
00001000
00000000
00000010
00000001
00000010
00000000
00000100
00001000
,
00000100
00000000
00001000
00000001
00001000
00000000
00000110
00000000
,
00002002
00000000
00003003
00000010
00000200
00000000
00000300
00000000
,
00000001
00000100
00001000
00000000
00022000
00000000
00033000
00000000
,
00000000
01000000
00000000
10000000
00000000
00010000
00000000
01000000
,
00000000
00100000
00000000
10000000
00000000
00100000
00000000
01000000
,
00010000
00000000
10000000
01000000
01000000
00000000
00100000
00010000
,
00010000
00000000
01000000
00000000
00001000
00010000
00000000
00000000
,
00001000
00000000
00000010
00000100
00000010
00000000
00000001
00000000
,
00001000
00000000
00000100
00000000
00000010
00000100
00001000
00000000
,
00000010
00000000
00001000
00000001
00000100
00000000
00001000
00000000
,
00010000
00000000
01000000
00000000
00100000
01000000
10000000
00000000
,
00100000
00000000
10000000
00010000
01000000
00000000
00100000
01000000
,
00010000
00000000
10000000
00000000
01000000
00100000
01000000
00000000
,
10000000
00000000
00100000
00010000
00100000
00000000
00010000
00001000
,
00010000
00000000
00001000
00000100
00000001
00000000
00000110
00000000
,
00001000
00000000
00000001
00000010
00001000
00000000
00000001
00000100
,
00001000
00000000
00000010
00000000
00000100
00000001
00000010
00000000
,
00001000
00000000
00010000
00001000
00010000
00000000
00100000
10000000
,
01000000
00000000
00100000
01000000
10000000
00000000
01100000
00000000
,
20020000
00000000
30030000
00100000
02000000
00000000
03000000
00000000
,
10000000
01000000
00010000
00000000
00011000
00000000
00000000
00000000
,
00000000
00000000
00000000
00000000
;

//---------------dance-double - ----------------
#NOTEDATA:;
#CHARTNAME:;
#STEPSTYPE:dance-double;
#DESCRIPTION:;
#CHARTSTYLE:;
#DIFFICULTY:Hard;
#METER:11;
#RADARVALUES:0.415576,0.415821,0.182528,0.022816,0.205343,255.000000,239.000000,16.000000,2.000000,0.000000,0.000000,0.000000,0.000000,0.000000,0.415576,0.415821,0.182528,0.022816,0.205343,255.000000,239.000000,16.000000,2.000000,0.000000,0.000000,0.000000,0.000000,0.000000;
#CREDIT:;
#NOTES:
00000000
00000000
00000000
00000000
,
00000000
00000000
00000000
00000000
,
00000000
00000000
00000000
00000000
,
00000000
00000000
00000000
00000000
,
00000000
00000000
00000000
00000000
,
00100000
10000000
00000000
00010000
00100000
01000000
00000000
00010000
,
01000000
10000000
00000000
00010000
01000000
00100000
00000000
10000000
,
01000000
00010000
00000000
00001000
00000100
00000001
00000000
00000010
,
00000100
00001000
00000010
00001000
00000100
00000000
00001001
00000000
,
00000010
00000001
00000000
00001000
00000100
00000010
00000000
00000100
,
00001000
00000001
00000000
00000100
00001000
00010000
00000000
00100000
,
10000000
01000000
00000000
10000000
00010000
00100000
00000000
00010000
,
10000000
00100000
01000000
00010000
00100000
00000000
10010000
00000000
,
01000000
00000000
00000000
10000000
00100000
00000000
10000000
00000000
00010000
00000000
00000000
00100000
01000000
00000000
00010000
00000000
,
00001000
00000000
00000000
00000010
00000001
00000000
00001000
00000000
00000010
00000000
00000100
00000000
00000001
00000000
00000000
00000000
,
00000010
00000000
00000000
00000100
00001000
00000000
00000001
00000000
00000100
00000000
00000000
00000001
00000010
00000000
00000001
00000000
,
00001000
00000000
00000000
00000100
00000010
00000000
00000100
00000000
00001000
00000000
00000001
00000000
00000100
00000000
00000000
00000000
,
00001000
00000000
00000000
00010000
01000000
00000000
00100000
00000000
00010000
00000000
00000000
10000000
00100000
00000000
01000000
00000000
,
00010000
00000000
00000000
01000000
10000000
00000000
01000000
00000000
00100000
00000000
10000000
00000000
01010000
00000000
00000000
00000000
,
00100000
00000000
00000000
00010000
00001000
00000000
00000010
00000000
00001000
00000000
00000000
00010000
00001000
00000000
00000100
00000000
,
00000001
00000000
00000000
00000010
00000001
00000000
00000100
00000000
00001100
00000000
00000000
00000000
00000101
00000000
00000000
00000000
,
00000110
00000000
00000000
00000000
00000000
00000000
00001000
00010000
00001000
00000000
00000000
00000000
00000000
00000000
01000000
00000000
,
00010000
00100000
00001000
00000000
00022000
00000000
00033000
00000000
,
00010000
00100000
00000000
10000000
00100000
01000000
00000000
00010000
,
10000000
01000000
00000000
00100000
00010000
01000000
00010000
00000000
,
10000000
00000000
01000000
00100000
00010000
00000000
01000000
00100000
,
00010000
00000000
00001000
00000000
00010000
00000000
00001000
00000000
00000010
00000000
00001000
00000000
00010000
00000000
00000000
00011000
00000000
00000000
00000000
00000000
00000000
00000000
00000000
00000000
,
00001000
00000000
00000000
00000010
00000100
00000000
00001000
00000000
00000001
00000000
00000000
00000100
00000010
00000000
00000100
00000000
,
00001000
00000000
00000000
00000100
00000001
00000000
00000010
00000000
00000001
00000000
00001000
00000000
00000100
00000000
00000000
00000000
,
00010000
00000000
00000000
00000010
00001000
00000000
00000100
00000000
00010000
00000000
00000000
00000100
00001000
00000000
00000010
00000000
,
00000100
00000000
00000000
00001000
00010000
00000000
00100000
00000000
01000000
00000000
00010000
00000000
10000000
00000000
00000000
00000000
,
00010000
00000000
00000000
10000000
01000000
00000000
00100000
00000000
00001000
00000000
00000000
00010000
00100000
00000000
10000000
00000000
,
01000000
00000000
00000000
00100000
00010000
00000000
10000000
00000000
00010000
00000000
00100000
00000000
11000000
00000000
00000000
00000000
,
00010000
00000000
00000000
00001000
00000100
00000000
00000010
00000000
00001000
00000000
00000000
00000001
00000010
00000000
00001000
00000000
,
00000010
00000000
00000000
00000100
00001000
00000000
00000010
00000000
00000011
00000000
00000000
00000000
00000101
00000000
00000000
00000000
,
00001000
00000000
00000000
00010000
01000000
00000000
00100000
00000000
00010000
00000000
00000000
10000000
00100000
00000000
01000000
00000000
,
00010000
00000000
00000000
01000000
10000000
00000000
01000000
00000000
00100000
00000000
10000000
00000000
01010000
00000000
00000000
00000000
,
00100000
00000000
00000000
00010000
00001000
00000000
00000010
00000000
00001000
00000000
00000000
00010000
00001000
00000000
00000100
00000000
,
00000001
00000000
00000000
00000010
00000001
00000000
00000100
00000000
00001100
00000000
00000000
00000000
00000101
00000000
00000000
00000000
,
00000110
00000000
00000000
00000000
00000000
00000000
00001000
00010000
00001000
00000000
00000000
00000000
00000000
00000000
01000000
00000000
,
00010000
00100000
00001000
00000000
00011000
00000000
00000000
00000000
,
00000000
00000000
00000000
00000000
;

//---------------dance-single - ----------------
#NOTEDATA:;
#CHARTNAME:;
#STEPSTYPE:dance-single;
#DESCRIPTION:;
#CHARTSTYLE:;
#DIFFICULTY:Challenge;
#METER:14;
#RADARVALUES:0.692627,0.808540,0.433503,0.205343,0.895526,425.000000,387.000000,38.000000,18.000000,0.000000,0.000000,0.000000,0.000000,0.000000,0.692627,0.808540,0.433503,0.205343,0.895526,425.000000,387.000000,38.000000,18.000000,0.000000,0.000000,0.000000,0.000000,0.000000;
#CREDIT:;
#NOTES:
// measure 0
0000
0000
0000
0000
,  // measure 1
0000
0000
0000
0000
,  // measure 2
0000
0000
0000
0000
,  // measure 3
0000
0000
0000
0000
,  // measure 4
0000
0000
0000
0000
,  // measure 5
0100
0000
0001
0010
0100
0000
1000
0000
1100
0000
0000
0000
1000
0010
0100
0000
,  // measure 6
0010
0000
0001
0100
0010
0000
1000
0000
1010
0000
0000
0000
1000
0001
0010
0000
,  // measure 7
0001
0000
0100
0010
1000
0000
0010
0100
0001
0000
1000
0100
0010
0000
0001
0010
,  // measure 8
0100
0000
0000
0000
1100
0000
0000
0000
0202
0000
0303
0000
0001
0100
0010
0000
,  // measure 9
0100
0000
1000
0010
0100
0000
0001
0000
0101
0000
0000
0000
0010
0001
0100
0000
,  // measure 10
0010
0000
1000
0100
0010
0000
0001
0000
0011
0000
0000
0000
0010
0001
1000
0000
,  // measure 11
0010
0000
1000
0100
0010
0000
0001
0010
0100
0000
1000
0010
0100
0000
0001
0100
,  // measure 12
0010
1010
0022
0033
,  // measure 13
1000
0000
0000
0000
0100
0000
0000
0000
0010
0000
0000
0000
0001
0000
0000
0000
0010
0000
0000
0000
0100
0000
0000
0000
1000
0000
0000
0000
0010
0000
0000
0000
0100
0000
0000
0000
0001
0000
0000
0000
1000
0000
0010
0000
0000
0100
0000
0000
,  // measure 14
0001
0100
0001
0000
0100
1000
0010
0000
1000
0100
1000
0200
2000
0000
3300
0000
,  // measure 15
2000
0000
0000
0000
0000
0000
0000
0000
0000
3100
0000
0000
0010
0000
0000
0000
0000
0000
0001
0000
0000
0000
0000
0000
0010
0000
0000
0000
0010
0000
0000
0000
0010
0000
0000
0000
0010
0000
0000
0001
0000
0000
0100
0000
0000
0010
0000
0000
,  // measure 16
1000
0000
0000
0000
1000
0000
0000
0000
1000
0000
0000
0000
1000
0000
0000
0100
0000
0000
0010
0000
0000
0001
0000
0000
0100
0000
0000
0000
0000
0000
0001
0000
0000
0000
0000
0000
0101
0000
0000
0000
0000
0000
0000
0000
0000
0000
0000
0000
,  // measure 17
1000
0100
0010
0001
0010
0100
1000
0000
0000
1001
0000
0000
0001
0010
0100
1000
0100
0010
0001
0000
0000
1001
0000
0000
,  // measure 18
1000
0000
0010
0000
0100
0000
0001
0000
0100
0000
0010
0000
1000
0000
0000
0000
0000
0000
1001
0000
0000
0000
0000
0000
1000
0000
0000
0010
0000
0000
0001
0000
0000
0000
0000
0000
0101
0000
0000
0000
0000
0000
0000
0000
0000
0000
0000
0000
,  // measure 19
0001
0010
0100
1000
0100
0010
0001
0000
0000
1001
0000
0000
1000
0100
0010
0001
0010
0100
1000
0000
0000
1001
0000
0000
,  // measure 20
1000
0000
0010
0000
0100
0000
0001
0000
0100
0000
0010
0000
1000
0000
0000
0000
0000
0000
1001
0000
0000
0000
0000
0000
0001
0000
0000
0010
0000
0000
1000
0000
0000
0000
0000
0000
1100
0000
0000
0000
0000
0000
0000
0000
0000
0000
0000
0000
,  // measure 21
0200
0000
0000
0000
0000
0000
0300
0000
0000
0100
1000
0000
0200
0000
0000
0000
0000
0000
0300
0000
0000
0100
0000
0000
,  // measure 22
0001
0100
0010
0000
0220
0000
0330
0000
,  // measure 23
1000
0010
0100
0001
0010
0100
2000
0000
0000
0000
0000
0000
3000
0000
1000
0010
,  // measure 24
1000
0100
0010
0001
0010
0100
1000
0010
0200
0000
0000
0000
0300
0000
0000
0000
,  // measure 25
0100
0010
0001
0010
0200
0000
0310
0000
0010
0100
1000
0100
0020
0000
0130
0000
,  // measure 26
1000
0000
0010
0000
0100
0000
0010
0000
0001
0000
0010
0000
0011
0000
0000
0011
0000
0000
0000
0000
0000
0000
0000
0000
,  // measure 27
0001
0010
0100
1000
0010
0100
0001
1000
0010
0100
0001
0010
0100
1000
0100
0010
,  // measure 28
0001
1000
0010
0100
0001
0010
0100
1000
0020
0000
0000
0000
0130
0000
0000
0000
,  // measure 29
1000
0000
0000
0000
0000
0000
0000
0000
0000
1000
0000
0000
0100
0000
0000
0000
0000
0000
0010
0000
0000
0000
0000
0000
0001
0000
0000
0000
0001
0000
0000
0000
0001
0000
0000
0000
0001
0000
0000
0010
0000
0000
0100
0000
0000
1000
0000
0000
,  // measure 30
0010
0000
0000
0000
0010
0000
0000
0000
0010
0000
0000
0000
0010
0000
0000
0001
0000
0000
0100
0000
0000
0010
0000
0000
1000
0000
0000
0000
0000
0000
0001
0000
0000
0000
0000
0000
1001
0000
0000
0000
0000
0000
0000
0000
0000
0000
0000
0000
,  // measure 31
1000
0100
0010
0001
1000
0100
0010
0000
0000
0011
0000
0000
0001
0010
0100
1000
0001
0010
0100
0000
0000
1100
0000
0000
,  // measure 32
1000
0000
0010
0000
0100
0000
0001
0000
1000
0000
0010
0000
0100
0000
0000
0000
0000
0000
0101
0000
0000
0000
0000
0000
0001
0000
0000
0010
0000
0000
1000
0000
0000
0000
0000
0000
1010
0000
0000
0000
0000
0000
0000
0000
0000
0000
0000
0000
,  // measure 33
0001
0100
0010
1000
0001
0100
0010
0000
0000
1010
0000
0000
1000
0010
0100
0001
1000
0010
0100
0000
0000
0101
0000
0000
,  // measure 34
0001
0000
0010
0000
0100
0000
1000
0000
0001
0000
0010
0000
0100
0000
0000
0000
0000
0000
1100
0000
0000
0000
0000
0000
1000
0000
0000
0010
0000
0000
0001
0000
0000
0000
0000
0000
0011
0000
0000
0000
0000
0000
0000
0000
0000
0000
0000
0000
,  // measure 35
0001
0010
1000
0100
0001
0010
1000
0000
0000
1001
0000
0000
1000
0010
0001
0100
1000
0010
0001
0000
0000
1001
0000
0000
,  // measure 36
0001
0000
0010
0000
1000
0000
0100
0000
0001
0000
0010
0000
1000
0000
0000
0000
0000
0000
1001
0000
0000
0000
0000
0000
1000
0000
0000
0010
0000
0000
0001
0000
0000
0100
0000
0000
1100
0000
0000
0000
0000
0000
0000
0000
0000
0000
0000
0000
,  // measure 37
1000
0100
0001
0010
1000
0100
0001
0000
0000
1001
0000
0000
0001
0010
1000
0100
0001
0010
1000
0000
0000
1001
0000
0000
,  // measure 38
1000
0000
0010
0000
0001
0000
0100
0000
1000
0000
0010
0000
0001
0000
0000
0000
0000
0000
1001
0000
0000
0000
0000
0000
0001
0000
0000
0010
0000
0000
1000
0000
0000
0100
0000
0000
0101
0000
0000
0000
0000
0000
0000
0000
0000
0000
0000
0000
,  // measure 39
0020
0000
0000
0000
0000
0000
0030
0000
0000
0010
0001
0000
0020
0000
0000
0000
0000
0000
0030
0000
0000
0010
0000
0000
,  // measure 40
1000
0100
0001
0000
1001
0000
0000
0000
;
