#VERSION:0.83;
#TITLE:THEME FROM ENTER THE DRAGON (notorious mix);
#SUBTITLE:;
#ARTIST:B3-PROJECT;
#TITLETRANSLIT:;
#SUBTITLETRANSLIT:;
#ARTISTTRANSLIT:;
#GENRE:;
#ORIGIN:;
#CREDIT:;
#BANNER:THEME FROM ENTER THE DRAGON (notorious mix).png;
#BACKGROUND:THEME FROM ENTER THE DRAGON (notorious mix)-bg.png;
#PREVIEWVID:;
#JACKET:THEME FROM ENTER THE DRAGON (notorious mix)-jacket.png;
#CDIMAGE:;
#DISCIMAGE:;
#LYRICSPATH:;
#CDTITLE:;
#MUSIC:THEME FROM ENTER THE DRAGON (notorious mix).ogg;
#OFFSET:0.000000;
#SAMPLESTART:57.047001;
#SAMPLELENGTH:15.000000;
#SELECTABLE:YES;
#DISPLAYBPM:142.000000;
#BPMS:0.000=141.989;
#STOPS:;
#DELAYS:;
#WARPS:;
#TIMESIGNATURES:0.000=4=4;
#TICKCOUNTS:0.000=4;
#COMBOS:0.000=1;
#SPEEDS:0.000=1.000=0.000=0;
#SCROLLS:0.000=1.000;
#FAKES:;
#LABELS:0.000=Song Start;
#BGCHANGES:;
#KEYSOUNDS:;
#ATTACKS:
;

//---------------dance-single - ----------------
#NOTEDATA:;
#CHARTNAME:;
#STEPSTYPE:dance-single;
#DESCRIPTION:;
#CHARTSTYLE:;
#DIFFICULTY:Beginner;
#METER:2;
#RADARVALUES:0.111207,0.141095,0.041517,0.010379,0.000000,75.000000,71.000000,4.000000,1.000000,0.000000,0.000000,0.000000,0.000000,0.000000,0.111207,0.141095,0.041517,0.010379,0.000000,75.000000,71.000000,4.000000,1.000000,0.000000,0.000000,0.000000,0.000000,0.000000;
#CREDIT:;
#DISPLAYBPM:142.000000;
#NOTES:
0000
0000
0000
0000
,
0000
0000
0000
0000
,
0000
0000
0000
0000
,
0000
0000
0000
0000
,
0000
0000
0000
0000
,
1000
0000
0001
0000
,
1000
0000
0001
0000
,
1000
0000
0001
0000
,
1000
0000
0001
0000
,
1000
0000
0001
0000
,
1000
0000
0001
0000
,
1000
0000
0001
0000
,
0000
0000
0000
0000
,
1000
0000
1000
0000
,
0001
0000
0001
0000
,
1000
0000
0001
0000
,
0100
0000
0001
0000
,
1000
0000
0000
0000
,
0000
0000
0000
0000
,
1001
0000
0000
0000
,
0000
0000
1000
0000
,
0001
0000
0000
0000
,
0000
0000
0000
0000
,
1001
0000
0000
0000
,
0000
0000
0000
0000
,
1000
1000
1000
0000
,
0000
1000
0000
0100
,
0000
0001
0001
0000
,
0000
0001
0000
0100
,
0000
1000
1000
0000
,
0000
1000
0000
0100
,
0000
0001
0001
0000
,
0000
0000
0000
0000
,
0000
0100
0000
0000
,
0001
0000
1000
0000
,
0001
0000
1000
0000
,
0001
0000
1000
0000
,
0001
0000
1000
0000
,
0001
0000
1000
0000
,
0001
0000
1000
0000
,
0001
0000
1000
0000
,
0000
0000
0000
0000
,
0001
0000
0001
0000
,
1000
0000
1000
0000
,
0001
0000
1000
0000
,
0100
0000
1000
0000
,
0001
0000
0000
0000
,
0000
0000
0000
0000
,
1001
0000
0000
0000
,
0000
0000
0001
0000
,
1000
0000
0000
0000
,
0000
0000
0000
0000
,
1001
0000
0000
2000
,
0000
0000
0000
0000
,
0000
0000
0000
3000
0000
0000
0000
0000
;

//---------------dance-single - ----------------
#NOTEDATA:;
#CHARTNAME:;
#STEPSTYPE:dance-single;
#DESCRIPTION:;
#CHARTSTYLE:;
#DIFFICULTY:Easy;
#METER:6;
#RADARVALUES:0.189794,0.338627,0.062276,0.020759,0.036328,128.000000,122.000000,6.000000,2.000000,0.000000,0.000000,0.000000,0.000000,0.000000,0.189794,0.338627,0.062276,0.020759,0.036328,128.000000,122.000000,6.000000,2.000000,0.000000,0.000000,0.000000,0.000000,0.000000;
#CREDIT:;
#DISPLAYBPM:142.000000;
#NOTES:
0000
0000
0000
0000
,
0000
0000
0000
0000
,
0000
0000
0000
0000
,
0000
0000
0000
0000
,
0000
0000
0000
0000
,
1000
0100
0001
0100
,
1000
0100
0001
0100
,
1000
0100
0001
0100
,
1000
0100
0001
0100
,
1000
0100
0001
0100
,
1000
0100
0001
0100
,
1000
0100
0001
0100
,
0000
0000
0000
0000
,
1000
0000
1000
0000
,
0001
0000
0001
0000
,
1000
0100
0001
0010
,
0100
0000
0001
0000
,
1000
0000
0000
0000
,
0000
0000
0000
0000
0000
0000
0000
0000
0000
0000
0001
0000
0000
1000
0000
0000
,
1001
0000
0000
0000
,
0000
0000
1000
0100
,
0001
0000
0000
0000
,
0000
0000
0000
0000
0000
0000
0000
0000
0000
0000
1000
0000
0000
0001
0000
0000
,
1001
0000
0000
0000
,
0000
0000
0000
0000
,
1000
1000
1000
0000
,
0000
1000
0000
0100
,
0001
0001
0001
0000
,
0000
0001
0000
0100
,
1000
1000
1000
0000
,
0000
1000
0000
0100
,
0001
0001
0001
0000
,
0000
0000
0000
0000
,
0000
0100
0010
0000
,
0001
0100
1000
0100
,
0001
0100
1000
0100
,
0001
0100
1000
0100
,
0001
0100
1000
0100
,
0001
0100
1000
0100
,
0001
0100
1000
0100
,
0001
0100
1000
0100
,
0000
0000
0000
0000
,
0001
0000
0001
0000
,
1000
0000
1000
0000
,
0001
0100
1000
0010
,
0100
0000
1000
0000
,
0001
0000
0000
0000
,
0000
0000
0000
0000
0000
0000
0000
0000
0000
0000
0001
0000
0000
1000
0000
0000
,
1001
0000
0000
0000
,
0000
0000
0001
0100
,
1000
0000
0000
0000
,
0000
0000
0000
0000
0000
0000
0000
0000
0000
0000
1000
0000
0000
0001
0000
0000
,
1001
0000
0000
1000
0000
0000
0001
0000
0000
1001
0000
0000
1000
0000
0000
0001
,
0000
2002
0000
0000
0000
0000
0000
0000
,
0000
0000
0000
3003
0000
0000
0000
0000
;

//---------------dance-single - ----------------
#NOTEDATA:;
#CHARTNAME:;
#STEPSTYPE:dance-single;
#DESCRIPTION:;
#CHARTSTYLE:;
#DIFFICULTY:Medium;
#METER:9;
#RADARVALUES:0.381071,0.451502,0.083035,0.020759,0.046707,257.000000,249.000000,8.000000,2.000000,0.000000,0.000000,0.000000,0.000000,0.000000,0.381071,0.451502,0.083035,0.020759,0.046707,257.000000,249.000000,8.000000,2.000000,0.000000,0.000000,0.000000,0.000000,0.000000;
#CREDIT:;
#DISPLAYBPM:142.000000;
#NOTES:
0000
0000
0000
0000
,
0000
0000
0000
0000
,
0000
0000
0000
0000
,
0000
0000
0000
0000
,
0000
0000
0000
0000
,
1000
0100
1000
0000
0001
0010
0001
0000
,
1000
0010
1000
0000
0001
0100
0001
0000
,
1000
0100
0001
0000
0001
0100
1000
0000
,
1000
0100
0001
0000
0001
0100
1000
0000
,
0010
1000
0100
0000
0010
0001
0100
0000
,
0100
1000
0010
0000
0100
0001
0010
0000
,
0001
0100
1000
0100
0001
0100
1000
0000
,
0000
0000
0000
0000
,
1000
0100
0001
0000
1000
0100
0001
0000
,
0001
0100
1000
0000
0001
0100
1000
0000
,
1000
0100
0010
0001
1000
0100
0010
0001
,
1000
0100
0010
0001
0000
0000
0000
0000
,
1000
0000
1000
0100
0010
0000
0001
0010
,
0100
0000
0000
0000
1000
0000
0100
0000
0010
0000
0001
0000
0000
1000
0000
0000
,
1001
0000
1000
0000
,
0001
0000
0000
0000
1000
0000
1000
0100
,
0010
0000
0001
0010
0100
0000
1000
0100
,
0010
0000
0001
0000
0001
0000
0010
0000
0100
0000
1000
0000
0000
0001
0000
0000
,
1001
0000
0000
0000
0001
0100
0001
0000
,
1000
0100
1000
0000
0001
0100
0001
0000
,
1000
0000
0000
1000
0000
0000
1000
0000
0000
0000
0000
0000
0000
0000
0000
0000
,
0000
0000
1000
0100
0000
0001
0100
0000
,
0001
0000
0000
0001
0000
0000
0001
0000
0000
0000
0000
0000
0000
0000
0000
0000
,
0000
0000
0001
0100
0000
1000
0100
0000
,
0000
1000
0000
0001
0000
1000
0000
0001
,
0000
1000
0000
0001
0000
1000
0100
0000
,
0000
0001
0000
1000
0100
1000
0000
0001
,
0100
0001
0000
1000
0000
0000
0000
0000
,
0000
0100
1001
0000
,
1000
0100
1000
0000
0001
0010
0001
0000
,
1000
0010
1000
0000
0001
0100
0001
0000
,
1000
0100
0001
0000
0001
0100
1000
0000
,
1000
0100
0001
0000
0001
0100
1000
0000
,
0010
0001
0100
0000
0010
1000
0100
0000
,
0010
0001
0100
1000
0100
0001
0010
0001
,
0100
1000
0100
0001
0100
1000
0100
0000
,
0000
0000
0000
0000
,
1001
0100
0001
0000
1000
0100
0001
0000
,
0001
0100
1000
0000
0001
0100
1000
0000
,
1000
0100
0010
0001
1000
0100
0010
0001
,
1000
0100
0010
0001
0000
0000
0001
0000
,
0000
0000
1000
0100
0010
0000
0001
0010
,
0100
0000
0000
0000
1000
0000
0100
0000
0010
0000
0001
0000
0000
1000
0000
0000
,
1001
0000
0000
0000
0000
0000
1000
0100
,
0001
0000
0001
1000
0100
0010
0001
0100
,
0010
0000
0100
0000
0001
1000
0100
0000
,
0010
0000
0100
0000
1000
0000
0100
0000
0000
0000
0001
0000
0000
1000
0000
0000
,
1001
0000
0000
0001
0000
0000
1000
0000
0000
1001
0000
0000
0001
0000
0000
1000
,
0000
2002
0000
0000
0000
0000
0000
0000
,
0000
0000
0000
3003
0000
0000
0000
0000
;

//---------------dance-single - ----------------
#NOTEDATA:;
#CHARTNAME:;
#STEPSTYPE:dance-single;
#DESCRIPTION:;
#CHARTSTYLE:;
#DIFFICULTY:Hard;
#METER:12;
#RADARVALUES:0.516003,0.536159,0.166070,0.020759,0.150501,348.000000,332.000000,16.000000,2.000000,0.000000,0.000000,0.000000,0.000000,0.000000,0.516003,0.536159,0.166070,0.020759,0.150501,348.000000,332.000000,16.000000,2.000000,0.000000,0.000000,0.000000,0.000000,0.000000;
#CREDIT:;
#DISPLAYBPM:142.000000;
#NOTES:
0000
0000
0000
0000
,
0000
0000
0000
0000
,
0000
0000
0000
0000
,
1000
0100
0001
0100
1000
0010
1000
0100
,
0001
0000
0100
0000
1000
0000
0010
0000
1000
0000
0100
1000
0000
0000
0000
0000
,
0000
1000
0100
0000
1000
0000
0000
0000
1000
0000
0100
0000
0001
0000
0000
0000
,
1000
0100
0001
0100
1000
0100
0001
0000
,
0000
1000
0100
0000
1000
0000
0000
0000
1000
0000
0100
0000
0001
0000
0100
0000
,
1000
0010
1000
0100
0001
0100
1000
0010
,
0000
1000
0100
0000
1000
0000
0000
0000
1000
0000
0100
0000
0001
0000
0100
0000
,
1000
0010
0001
0010
1000
0100
1000
0100
,
0001
0100
1000
0010
0001
0010
1000
0100
,
1000
0100
0001
0100
1000
0000
0000
0000
,
1000
0100
0001
0000
1000
0100
0001
0000
,
0001
0100
1000
0000
0001
0100
1000
0000
,
1000
0100
0010
0001
1000
0100
0010
0001
,
1000
0100
0010
0001
1000
0100
1000
0000
,
0000
0100
1000
0000
1000
0000
0100
0000
0010
0000
0001
0000
0001
0000
0010
0000
,
0100
0000
1000
0000
1000
0000
0100
0000
0010
0000
0001
0000
0000
1000
0000
0000
,
1001
0000
0000
0000
1000
0100
1000
0000
,
0001
0000
0100
0000
0001
0000
0000
0000
0000
0100
1000
0000
1000
0000
0100
0000
,
0010
0001
0001
0010
0100
1000
1000
0100
,
0010
0000
0001
0000
0001
0000
0010
0000
0100
0000
1000
0000
0000
0001
0000
0000
,
1001
0000
0000
0000
0010
1000
0100
0000
,
0001
0010
1000
0100
0010
0001
0100
0000
,
1000
0000
0000
1000
0000
0000
1000
0000
0100
0000
0001
0000
0100
0000
1000
0000
,
0100
0001
1000
0100
0000
0001
0100
0000
,
0001
0000
0000
0001
0000
0000
0001
0000
0100
0000
1000
0000
0100
0000
0001
0000
,
0100
1000
0001
0100
0000
1000
0100
0000
,
0000
0000
0100
1000
0000
0000
0010
0000
0000
0000
0100
1000
0000
0000
0010
0000
,
0000
0000
0100
1000
0000
0000
0010
0000
0000
0000
0100
1000
0010
0000
0000
0000
,
0000
0000
0100
1000
0000
0000
0010
0000
0000
0000
0100
1000
0000
0000
0010
0000
,
1000
0000
0010
0000
0000
0000
0000
0000
1000
0001
0000
0000
1001
0000
0000
0000
,
0000
0100
1001
0000
,
0000
0001
0100
0000
0001
0000
0000
0000
0001
0000
0100
0000
1000
0000
0100
0000
,
0001
0010
1000
0010
0001
0100
1000
0100
,
0000
0001
0010
0000
0100
0000
0000
0000
0010
0000
0001
0000
0100
0000
0010
0000
,
1000
0100
0010
0001
0100
0010
1000
0100
,
0000
0001
0010
0000
1000
0000
0000
0000
1000
0000
0100
0000
0001
0000
0100
0000
,
0000
0001
0100
0000
1000
0000
0100
0000
0010
0000
1000
0000
0100
0000
0001
0000
,
0000
0100
1000
0000
0010
0000
0001
0000
0010
0000
1000
0000
0100
0000
0001
0000
,
0100
0000
1000
0000
0001
0000
0100
0000
1000
0000
0000
0000
0000
0010
0100
0000
,
1001
0100
1000
0010
0001
0100
1000
0000
,
1000
0100
0001
0100
1000
0010
1000
0110
,
0110
0000
0010
1000
0001
0100
0010
1000
,
0001
0100
0010
1000
0000
0000
0001
0000
,
0001
0100
0001
0100
1000
1000
0010
0001
,
0001
0000
0100
0000
1000
0000
1000
0000
0010
0000
0001
0000
0000
1000
0000
0000
,
1001
0000
0000
0000
1000
0100
1000
0000
,
0001
0100
0001
0100
1000
0100
0001
0010
,
0100
0000
0101
1100
0000
1010
0000
0000
,
0011
0000
0001
0100
0000
0000
0101
0000
0000
0000
0001
0000
0000
1000
0000
0000
,
1001
0000
0000
1000
0000
0000
0001
0000
0000
1001
0000
0000
0001
0000
0000
1000
,
0000
2002
0000
0000
0000
0000
0000
0000
,
0000
0000
0000
3003
0000
0000
0000
0000
;

//---------------dance-double - ----------------
#NOTEDATA:;
#CHARTNAME:;
#STEPSTYPE:dance-double;
#DESCRIPTION:;
#CHARTSTYLE:;
#DIFFICULTY:Easy;
#METER:3;
#RADARVALUES:0.217967,0.248132,0.072656,0.000000,0.005190,147.000000,140.000000,7.000000,0.000000,0.000000,0.000000,0.000000,0.000000,0.000000,0.217967,0.248132,0.072656,0.000000,0.005190,147.000000,140.000000,7.000000,0.000000,0.000000,0.000000,0.000000,0.000000,0.000000;
#CREDIT:;
#DISPLAYBPM:142.000000;
#NOTES:
00000000
00000000
00000000
00000000
,
00000000
00000000
00000000
00000000
,
00000000
00000000
00000000
00000000
,
00000000
00000000
00000000
00000000
,
00000000
00000000
00000000
00000000
,
10000000
01000000
00010000
00001000
,
00000100
00000001
00000001
00000001
,
00000001
00000100
00001000
00010000
,
01000000
10000000
10000000
10000000
,
10000000
01000000
00010000
00001000
,
00000100
00000001
00000100
00001000
,
00010000
00100000
10000000
01000000
,
00000000
00000000
00000000
00000000
,
10000000
00000000
00010000
00000000
,
00001000
00000000
00000001
00000000
,
00001000
00010000
00100000
10000000
,
01000000
00010000
00001000
00000100
,
00000000
00000001
00000000
00000100
,
00000000
00001000
00000000
00000000
,
00011000
00000000
00100000
00000000
,
10000000
00000000
01000000
00010000
,
00001000
00000010
00000001
00000001
,
00000100
00001000
00010000
00000000
,
00011000
00000000
01000000
10000000
,
00000000
00100000
00010000
00000000
,
01000000
01000000
01000000
00000000
,
00000000
00010000
00000000
00001000
,
00000100
00000100
00000100
00000000
,
00000000
00001000
00000000
00010000
,
01000000
01000000
01000000
00000000
,
00000000
00010000
00000000
00001000
,
00000100
00000100
00000100
00000000
,
00000000
00000000
00001000
00011000
,
00000000
00000100
00000010
00000000
,
00000001
00000100
00001000
00010000
,
01000000
10000000
10000000
10000000
,
10000000
01000000
00010000
00001000
,
00000100
00000001
00000001
00000001
,
00000001
00000100
00001000
00010000
,
01000000
10000000
01000000
00010000
,
00001000
00000010
00000001
00000100
,
00000000
00000000
00000000
00000000
,
00000001
00000000
00001000
00000000
,
00010000
00000000
10000000
00000000
,
00010000
00001000
00000010
00000001
,
00000100
00001000
00010000
01000000
,
00000000
10000000
00000000
01000000
,
00000000
00010000
00000000
00000000
,
00011000
00000000
00000000
00000000
,
10000000
01000000
00010000
00001000
,
00000100
00000001
00000001
00000001
,
00000001
00000100
00001000
00000000
,
00011000
00000000
00000000
00000000
00000000
00000000
00000000
00000000
00000000
10010000
00000000
00000000
00000000
00000000
00000000
00000000
,
00000000
00011000
00000000
00000000
00000000
00000000
00000000
00000000
;

//---------------dance-double - ----------------
#NOTEDATA:;
#CHARTNAME:;
#STEPSTYPE:dance-double;
#DESCRIPTION:;
#CHARTSTYLE:;
#DIFFICULTY:Medium;
#METER:6;
#RADARVALUES:0.361795,0.413553,0.072656,0.000000,0.046707,244.000000,237.000000,7.000000,0.000000,0.000000,0.000000,0.000000,0.000000,0.000000,0.361795,0.413553,0.072656,0.000000,0.046707,244.000000,237.000000,7.000000,0.000000,0.000000,0.000000,0.000000,0.000000,0.000000;
#CREDIT:;
#DISPLAYBPM:142.000000;
#NOTES:
00000000
00000000
00000000
00000000
,
00000000
00000000
00000000
00000000
,
00000000
00000000
00000000
00000000
,
00000000
00000000
00000000
00000000
,
00000000
00000000
00000000
00000000
,
10000000
01000000
10000000
00000000
00010000
01000000
00010000
00000000
,
00010000
00001000
00000100
00000000
00000001
00000100
00000001
00000000
,
00001000
00000100
00001000
00000000
00001000
00010000
01000000
00000000
,
10000000
01000000
10000000
00000000
00100000
10000000
01000000
00000000
,
00100000
00010000
01000000
00000000
10000000
01000000
00010000
00000000
,
00010000
01000000
10000000
00000000
10000000
01000000
00010000
00000000
,
00010000
00001000
00000100
00000000
00010000
00001000
00000100
00000000
,
00000000
00000000
00000000
00000000
,
00000001
00000100
00001000
00000000
00000001
00000100
00001000
00000000
,
00010000
01000000
10000000
00000000
00010000
01000000
10000000
00000000
,
00010000
00100000
01000000
10000000
00010000
00100000
01000000
10000000
,
00010000
00100000
01000000
00000000
00000000
00000000
00000000
00000000
,
10000000
00000000
10000000
00000000
10000000
01000000
00010000
00000000
,
00001000
00000000
00000100
00000000
00000001
00000000
00000000
00000000
00000000
00000000
00001000
00000000
00000000
00010000
00000000
00000000
,
00011000
00000000
00010000
00000000
,
10000000
00000000
10000000
00000000
10000000
01000000
00010000
00000000
,
00001000
00000100
00000001
00000000
00000001
00000100
00001000
00000000
,
00010000
00000000
01000000
00000000
10000000
00000000
00000000
00000000
00000000
00000000
00010000
00000000
00000000
00001000
00000000
00000000
,
00011000
00000000
00000000
00000000
00001000
00000100
00001000
00000000
,
00000010
00000001
00000010
00000000
00000001
00000100
00001000
00000000
,
00010000
00000000
00000000
00010000
00000000
00000000
00010000
00000000
00000000
00000000
00000000
00000000
00000000
00000000
00000000
00000000
,
00000000
00000000
00010000
01000000
00000000
10000000
01000000
00000000
,
10000000
00000000
00000000
10000000
00000000
00000000
10000000
00000000
00000000
00000000
00000000
00000000
00000000
00000000
00000000
00000000
,
00000000
00000000
10000000
01000000
00000000
00010000
01000000
00000000
,
00000000
10000000
00000000
00010000
00000000
00010000
00000000
00001000
,
00000000
00001000
00000000
00000001
00000000
00000001
00000100
00000000
,
00000000
00001000
00000000
00010000
01000000
00010000
00000000
10000000
,
01000000
10000000
00000000
00010000
00000000
00000000
00000000
00000000
,
00000000
00000100
00001001
00000000
,
00000001
00000100
00000001
00000000
00001000
00000100
00001000
00000000
,
00001000
00010000
01000000
00000000
10000000
01000000
10000000
00000000
,
00010000
01000000
00010000
00000000
00010000
00001000
00000100
00000000
,
00000001
00000100
00000001
00000000
00000010
00000001
00000100
00000000
,
00000010
00001000
00000100
00000000
00000001
00000100
00001000
00000000
,
00001000
00000100
00000001
00000000
00000001
00000100
00001000
00000000
,
00001000
00010000
01000000
00000000
00001000
00010000
01000000
00000000
,
00000000
00000000
00000000
00000000
,
10000000
01000000
00010000
00000000
10000000
01000000
00010000
00000000
,
00001000
00000100
00000001
00000000
00001000
00000100
00000001
00000000
,
00001000
00000010
00000100
00000001
00001000
00000010
00000100
00000001
,
00001000
00000001
00000100
00001000
00000000
00000000
00000000
00000000
,
00000001
00000000
00000001
00000000
00000001
00000100
00001000
00000000
,
00010000
00000000
01000000
00000000
10000000
00000000
00000000
00000000
00000000
00000000
00010000
00000000
00000000
00001000
00000000
00000000
,
00011000
00000000
00000000
10000000
,
10000000
01000000
00010000
00000000
00001000
00000100
00000001
00000000
,
00000001
00000100
00001000
00000000
00010000
01000000
10000000
00000000
,
10000000
00000000
01000000
00000000
00010000
00000000
00000000
00000000
00000000
00000000
10000000
00000000
00000000
00010000
00000000
00000000
,
10010000
00000000
00000000
00001000
00000000
00000000
00010000
00000000
00000000
00011000
00000000
00000000
00000001
00000000
00000000
00001000
,
00000000
00001001
00000000
00000000
00000000
00000000
00000000
00000000
;

//---------------dance-double - ----------------
#NOTEDATA:;
#CHARTNAME:;
#STEPSTYPE:dance-double;
#DESCRIPTION:;
#CHARTSTYLE:;
#DIFFICULTY:Hard;
#METER:8;
#RADARVALUES:0.505623,0.468693,0.176449,0.000000,0.129742,341.000000,324.000000,17.000000,0.000000,0.000000,0.000000,0.000000,0.000000,0.000000,0.505623,0.468693,0.176449,0.000000,0.129742,341.000000,324.000000,17.000000,0.000000,0.000000,0.000000,0.000000,0.000000,0.000000;
#CREDIT:;
#DISPLAYBPM:142.000000;
#NOTES:
00000000
00000000
00000000
00000000
,
00000000
00000000
00000000
00000000
,
00000000
00000000
00000000
00000000
,
00000001
00000010
00001000
00010000
00100000
10000000
01000000
00010000
,
01000000
00000000
10000000
00000000
00100000
00000000
10000000
00000000
01000000
00000000
10000000
01000000
00000000
00000000
00000000
00000000
,
00000000
10000000
01000000
00000000
10000000
00000000
00000000
00000000
10000000
00000000
01000000
00000000
00010000
00000000
00000000
00000000
,
10000000
01000000
00010000
00001000
00000100
00001000
00000100
00000000
,
00000000
00000001
00000100
00000000
00000001
00000000
00000100
00000000
00001000
00000000
00000100
00000000
00000001
00000000
00000010
00000000
,
00000001
00000100
00001000
00000100
00001000
00000100
00000001
00000000
,
00000000
00000001
00000100
00000000
00001000
00000000
00010000
00000000
01000000
00000000
00010000
00000000
01000000
00000000
10000000
00000000
,
00100000
00010000
00100000
10000000
00100000
00010000
00001000
00000010
,
00001000
00010000
01000000
00010000
01000000
00010000
00001000
00000010
,
00001000
00000010
00001000
00010000
00100000
00000000
00000000
00000000
,
10000000
01000000
00010000
00000000
00001000
00000100
00000001
00000000
,
00000001
00000100
00001000
00000000
00010000
01000000
00010000
00000000
,
00001000
00010000
01000000
00100000
00001000
00010000
01000000
00100000
,
00001000
00010000
01000000
00100000
00000000
00000000
00010000
00000000
,
10000000
01000000
10000000
01000000
00010000
00001000
00000100
00000001
,
00000100
00000000
00001000
00000000
00010000
00000000
01000000
00000000
10000000
00000000
00010000
00000000
00000000
00001000
00000000
00000000
,
00011000
00000000
00000000
00000000
00000010
00001000
00000100
00000000
,
00000010
00000001
00000100
00000000
00000001
00000010
00000001
00000100
,
00001000
00010000
01000000
00010000
00001000
00000100
00001000
00010000
,
01000000
00000000
00010000
00000000
00001000
00000000
00000100
00000000
00001000
00000000
00010000
00000000
00000000
00001000
00000000
00000000
,
00011000
00000000
00000000
00000000
00100000
00010000
01000000
00000000
,
00100000
10000000
01000000
00000000
00100000
00010000
01000000
00000000
,
10000000
00000000
00000000
10000000
00000000
00000000
10000000
00000000
01000000
00000000
00010000
00000000
01000000
00000000
10000000
00000000
,
01000000
00010000
00001000
00000100
00000000
00000001
00000100
00000000
,
00000001
00000000
00000000
00000001
00000000
00000000
00000001
00000000
00000100
00000000
00001000
00000000
00000100
00000000
00000001
00000000
,
00000100
00001000
00010000
01000000
00000000
10000000
01000000
00000000
,
00000000
00000000
00100000
10000000
00000000
00000000
01000000
00000000
00000000
00000000
00100000
10000000
00000000
00000000
01000000
00000000
,
00000000
00000000
00100000
10000000
00000000
00000000
01000000
00000000
00000000
00000000
00100000
10000000
01000000
00000000
00000000
00000000
,
00000000
00000000
00010000
00001000
00000000
00000000
00010000
00000000
00000000
00000000
00000010
00000001
00000000
00000000
00000100
00000000
,
00000001
00000000
00000100
00000000
00000000
00000000
00000000
00000000
00000001
00001000
00000000
00000000
00001001
00000000
00000000
00000000
,
00000000
00010000
00001001
00000000
,
00000000
00000001
00000100
00000000
00000001
00000000
00000000
00000000
00000001
00000000
00000100
00000000
00001000
00000000
00000100
00000000
,
00000001
00000010
00001000
00000010
00000001
00000100
00001000
00000100
,
00000000
00000010
00000001
00000000
00000100
00000000
00000000
00000000
00000001
00000000
00000010
00000000
00001000
00000000
00000010
00000000
,
00000001
00000100
00001000
00010000
01000000
00010000
01000000
10000000
,
00000000
01000000
10000000
00000000
00100000
00000000
00000000
00000000
00010000
00000000
00001000
00000000
00000010
00000000
00000000
00000000
,
00000000
00000001
00000100
00000000
00000001
00000000
00000010
00000000
00001000
00000000
00010000
00000000
01000000
00000000
00010000
00000000
,
00000000
00001000
00000010
00000000
00001000
00000000
00010000
00000000
00100000
00000000
00010000
00000000
00001000
00000000
00000010
00000000
,
00001000
00010000
01000000
00010000
00001000
00000000
00000000
00000010
,
00001001
00000100
00001000
00000000
00010000
01000000
10000000
00000000
,
10000000
01000000
00010000
00000000
00001000
00000100
00000001
00000101
,
00000101
00000000
00000010
00000100
00010000
00001000
00000010
00000100
,
00010000
00001000
00000010
00000100
00000000
00000000
00001000
00000000
,
00000001
00000100
00000001
00000100
00001000
00010000
01000000
10000000
,
01000000
00000000
00010000
00000000
00001000
00000000
00000100
00000000
00001000
00000000
00010000
00000000
00000000
00001000
00000000
00000000
,
00011000
00000000
00000000
00000000
00000010
00001000
00000100
00000000
,
00000010
00000001
00000100
00000000
00001000
00000100
00000010
00000001
,
00000100
00000000
00000101
00001100
00000000
00011000
00000000
00000000
,
00110000
00000000
11000000
00000000
00000000
00000000
01010000
00000000
00000000
00000000
00001000
00000000
00000000
00010000
00000000
00000000
,
00011000
00000000
00000000
00000001
00000000
00000000
00001000
00000000
00000000
00001001
00000000
00000000
00010000
00000000
00000000
00001000
,
00000000
10010000
00000000
00000000
00000000
00000000
00000000
00000000
;

//---------------dance-couple - ----------------
#NOTEDATA:;
#CHARTNAME:;
#STEPSTYPE:dance-couple;
#DESCRIPTION:;
#CHARTSTYLE:;
#DIFFICULTY:Challenge;
#METER:7;
#RADARVALUES:0.302484,0.468693,0.051897,0.000000,0.031138,204.000000,199.000000,5.000000,0.000000,0.000000,0.000000,0.000000,0.000000,0.000000,0.302484,0.468693,0.051897,0.000000,0.036328,204.000000,199.000000,5.000000,0.000000,0.000000,0.000000,0.000000,0.000000,0.000000;
#CREDIT:;
#DISPLAYBPM:142.000000;
#NOTES:
00000000
00000000
00000000
00000000
,
00000000
00000000
00000000
00000000
,
00000000
00000000
00000000
00000000
,
00000000
00000000
00000000
00000000
,
00000000
00000000
00000000
00000000
,
10001000
01000000
10000100
00000000
10000001
01000000
00010100
00000000
,
10001000
01000000
00010100
01000000
10000001
01000000
00010100
00000000
,
10001000
00000100
01001000
00000000
00011000
00000100
01000001
00000000
,
10001000
00000100
01000001
00000100
00011000
00000100
01000001
00000000
,
10001000
01000000
10000100
00000000
10000001
01000000
00010100
00000000
,
10001000
00000100
01001000
00000000
00011000
00000100
01000001
00000000
,
10001000
01000100
00010001
01000100
10001000
00100010
10001000
01000100
,
00000000
00000000
00000000
00000000
,
10000000
01000000
00010000
00000000
00001000
00000100
00000001
00000000
,
00010000
01000000
10000000
00000000
00000001
00000100
00001000
00000000
,
10000000
01000000
00100000
00010000
00001000
00000100
00000010
00000001
,
10001000
01000100
00100010
00010001
00000000
00000000
00010001
00000000
,
01000000
10000000
10000000
01000000
00100000
00010000
00010001
00000010
,
00000100
00000000
00001000
00000000
00001000
00000000
00000100
00000000
00000010
00000000
10001000
00000000
00000000
00010001
00000000
00000000
,
10011001
00000000
00000000
00000000
00100000
10000000
01000000
00000000
,
00000010
00000001
00000100
00000000
00100010
00000000
10001000
01000100
,
00100010
00010001
00010001
00100010
01000100
10001000
10001000
01000100
,
00100010
00000000
00010001
00000000
00010001
00000000
00100010
00000000
01000100
00000000
10001000
00000000
00000000
00010001
00000000
00000000
,
10011001
00000000
00000000
00000000
00100000
10000000
01000000
00000000
,
00000010
00000001
00000100
00000000
00011000
10000001
01000100
00000000
,
10000000
00000000
00000000
10000000
00000000
00000000
10000000
00000000
00000000
00000000
00000000
00000000
00000000
00000000
00000000
00000000
,
00000000
00000000
10000000
01000000
00000000
00010000
01000000
00000000
,
00001000
00000000
00000000
00001000
00000000
00000000
00001000
00000000
00000000
00000000
00000000
00000000
00000000
00000000
00000000
00000000
,
00000000
00000000
00001000
00000100
00000000
00000001
00000100
00000000
,
00000000
10000000
00000000
00010000
00000000
00001000
00000000
00000001
,
00000000
10001000
00000000
00010001
00000000
10001000
01000100
00000000
,
00000000
00010001
00000000
10000000
01000000
10000000
00000000
00000001
,
00000100
00000001
00000000
10001000
00000000
00000000
00000000
00000000
,
00000000
01000100
10000001
00000000
,
00010001
00000100
01000001
00000000
10000001
00000100
01001000
00000000
,
00010001
00000100
01001000
00000100
10000001
00000100
01001000
00000000
,
00010001
01000000
00010100
00000000
00011000
01000000
10000100
00000000
,
00010001
01000000
10000100
01000000
00011000
01000000
10000100
00000000
,
00010001
00000100
01000001
00000000
10000001
00000100
01001000
00000000
,
00010001
01000000
00010100
00000000
00011000
01000000
10000100
00000000
,
00010001
01000100
10001000
01000100
00010001
00100010
00010001
01000100
,
00000000
00000000
00000000
00000000
,
00000001
00000100
00001000
00000000
00010000
01000000
10000000
00000000
,
00001000
00000100
00000001
00000000
10000000
01000000
00010000
00000000
,
00000001
00000100
00000010
00001000
00010000
01000000
00100000
10000000
,
00010001
01000100
00100010
10001000
00000000
00000000
10001000
00000000
,
00000100
00000001
00000001
00000100
00000010
00000000
00000000
00000000
,
01000000
00000000
00010000
00000000
00010000
00000000
01000000
00000000
00100000
00000000
00010001
00000000
00000000
10001000
00000000
00000000
,
10011001
00000000
00000000
00000000
00000010
00000001
00000100
00000000
,
00100000
10000000
01000000
00000000
00100010
00000000
00010001
01000100
,
00100010
10001000
10001000
00100010
01000100
00010001
00010001
01000100
,
00100010
00000000
10001000
00000000
10001000
00000000
00100010
00000000
01000100
00000000
00010000
00000000
00000000
10000000
00000000
00000000
,
10010000
00000000
00000000
00001000
00000000
00000000
00000001
00000000
00000000
00001001
00000000
00000000
00011000
00000000
00000000
10000001
,
00000000
10011001
00000000
00000000
00000000
00000000
00000000
00000000
;

//---------------dance-solo - ----------------
#NOTEDATA:;
#CHARTNAME:;
#STEPSTYPE:dance-solo;
#DESCRIPTION:;
#CHARTSTYLE:;
#DIFFICULTY:Easy;
#METER:4;
#RADARVALUES:0.225381,0.303272,0.072656,0.000000,0.020759,152.000000,145.000000,7.000000,0.000000,0.000000,0.000000,0.000000,0.000000,0.000000,0.225381,0.303272,0.072656,0.000000,0.020759,152.000000,145.000000,7.000000,0.000000,0.000000,0.000000,0.000000,0.000000,0.000000;
#CREDIT:;
#DISPLAYBPM:142.000000;
#NOTES:
000000
000000
000000
000000
,
000000
000000
000000
000000
,
000000
000000
000000
000000
,
000000
000000
000000
000000
,
000000
000000
000000
000000
,
100000
001000
000001
001000
,
100000
010000
010000
010000
,
000001
001000
100000
001000
,
000001
000010
000010
000010
,
010000
100000
001000
000001
,
000010
000001
001000
100000
,
000010
010000
000100
001000
,
000000
000000
000000
000000
,
010000
000000
100000
000000
,
000010
000000
000001
000000
,
000010
000100
010000
000100
,
000010
000100
010000
000100
,
000000
000001
000000
001000
,
000000
000000
000000
000000
100000
000000
000000
000000
000000
000000
100000
000000
000000
000001
000000
000000
,
100001
000000
000100
000000
,
100000
000000
000010
010000
,
000100
100000
000001
001000
,
010000
000000
000000
000000
000010
000000
000000
000000
000100
000000
100000
000000
000000
000001
000000
000000
,
100001
000000
010000
010000
,
000000
000010
000010
000000
,
001000
001000
001000
000000
,
000000
010000
000000
000010
,
001000
001000
001000
000000
,
000000
000010
000000
010000
,
001000
001000
001000
000000
,
000000
010000
000000
000010
,
001000
001000
001000
000000
,
000000
000000
100000
100001
,
000000
001000
000100
000000
,
100000
001000
000001
001000
,
100000
010000
010000
010000
,
000001
001000
100000
001000
,
000001
000010
000010
000010
,
010000
100000
001000
000001
,
000010
000001
001000
100000
,
000010
010000
000100
001000
,
000000
000000
000000
000000
,
010000
000000
100000
000000
,
000010
000000
000001
000000
,
000010
000100
010000
000100
,
000010
000100
010000
000100
,
000000
000001
000000
001000
,
000000
000000
000000
000000
100000
000000
000000
000000
000000
000000
000001
000000
000000
100000
000000
000000
,
100001
000000
000000
000000
,
100000
001000
000001
001000
,
100000
010000
010000
010000
,
100000
001000
000000
000000
,
000011
000000
000000
000000
000000
000000
000000
000000
000000
100001
000000
000000
000000
000000
000000
000000
,
000000
110000
000000
000000
000000
000000
000000
000000
;

//---------------dance-solo - ----------------
#NOTEDATA:;
#CHARTNAME:;
#STEPSTYPE:dance-solo;
#DESCRIPTION:;
#CHARTSTYLE:;
#DIFFICULTY:Medium;
#METER:5;
#RADARVALUES:0.324726,0.468693,0.083035,0.000000,0.057087,219.000000,211.000000,8.000000,0.000000,0.000000,0.000000,0.000000,0.000000,0.000000,0.324726,0.468693,0.083035,0.000000,0.057087,219.000000,211.000000,8.000000,0.000000,0.000000,0.000000,0.000000,0.000000,0.000000;
#CREDIT:;
#DISPLAYBPM:142.000000;
#NOTES:
000000
000000
000000
000000
,
000000
000000
000000
000000
,
000000
000000
000000
000000
,
000000
000000
000000
000000
,
000000
000000
000000
000000
,
100000
001000
100000
000000
100000
000000
001000
000000
,
000001
001000
000001
000000
000001
000000
001000
000000
,
010000
100000
000001
000000
000010
000001
100000
000000
,
000100
010000
100000
000000
000100
000010
000001
000000
,
100000
001000
100000
000000
100000
000000
001000
000000
,
000001
001000
000001
000000
000001
000000
001000
000000
,
010000
100000
000001
000000
000010
000001
100000
000000
,
000000
000000
000000
000000
,
010000
000000
010000
000000
,
000010
000000
000010
000000
,
000010
100000
001000
000000
010000
000001
001000
000000
,
000010
100000
001000
000000
000000
000000
000000
000000
,
010000
000000
010000
000010
000100
000000
000010
010000
,
000100
000000
000000
000000
010000
000000
000010
000000
000100
000000
010000
000000
000000
000010
000000
000000
,
010010
000000
010000
000000
,
000010
000000
000000
000000
010000
000000
010000
000010
,
000100
000000
000010
010000
000100
000000
010000
000010
,
000100
000000
000010
000000
010000
000000
000100
000000
010000
000000
000010
000000
000000
010000
000000
000000
,
010010
000000
000000
000000
000001
001000
000001
000000
,
100000
001000
100000
000000
000001
001000
000001
000000
,
100000
000000
000000
100000
000000
000000
100000
000000
000000
000000
000000
000000
000000
000000
000000
000000
,
000000
000000
010000
100000
000000
000001
000010
000000
,
000001
000000
000000
000001
000000
000000
000001
000000
000000
000000
000000
000000
000000
000000
000000
000000
,
000000
000000
000010
000001
000000
100000
010000
000000
,
100000
000000
000000
100000
000000
000000
100000
000000
000000
000000
000000
000000
000000
000000
000000
000000
,
000000
000000
010000
100000
000000
000001
000010
000000
,
000001
000000
000000
000001
000000
000000
000001
000000
000000
000000
000000
000000
000000
000000
000000
000000
,
000000
000000
100000
100001
,
000000
001000
100001
000000
,
000001
001000
000001
000000
000001
000000
001000
000000
,
100000
001000
100000
000000
100000
000000
001000
000000
,
000010
000001
100000
000000
010000
100000
000001
000000
,
000100
000010
000001
000000
000100
010000
100000
000000
,
000001
001000
000001
000000
000001
000000
001000
000000
,
100000
001000
100000
000000
100000
000000
001000
000000
,
000010
000001
100000
000000
010000
100000
000001
000000
,
000000
000000
000000
000000
,
000010
000000
000010
000000
,
010000
000000
010000
000000
,
010000
000001
001000
000000
000010
100000
001000
000000
,
010000
000001
001000
000000
000000
000000
000000
000000
,
000010
000000
000010
010000
000100
000000
010000
000010
,
000100
000000
000000
000000
000010
000000
010000
000000
000100
000000
000010
000000
000000
010000
000000
000000
,
010010
000000
000010
000000
,
010000
000000
000000
000000
000010
000000
000010
010000
,
000100
010000
000010
000100
000010
010000
000100
010000
,
000010
000000
000100
000000
000010
000000
010000
000000
000100
000000
000010
000000
000000
010000
000000
000000
,
010010
000000
000000
000001
000000
000000
100000
000000
000000
100001
000000
000000
000010
000000
000000
010000
,
000000
010010
000000
000000
000000
000000
000000
000000
;

//---------------dance-solo - ----------------
#NOTEDATA:;
#CHARTNAME:;
#STEPSTYPE:dance-solo;
#DESCRIPTION:;
#CHARTSTYLE:;
#DIFFICULTY:Hard;
#METER:8;
#RADARVALUES:0.504141,0.468693,0.083035,0.000000,0.088225,340.000000,332.000000,8.000000,0.000000,0.000000,0.000000,0.000000,0.000000,0.000000,0.504141,0.468693,0.083035,0.000000,0.088225,340.000000,332.000000,8.000000,0.000000,0.000000,0.000000,0.000000,0.000000,0.000000;
#CREDIT:;
#DISPLAYBPM:142.000000;
#NOTES:
000000
000000
000000
000000
,
000000
000000
000000
000000
,
000000
000000
000000
000000
,
000001
000010
000100
100000
010000
100000
000100
000001
,
000010
000000
000001
000000
000100
000000
100000
000000
010000
000000
100000
010000
000000
000000
000000
000000
,
100000
001000
100000
001000
000001
001000
100000
000100
,
000001
000010
000100
100000
010000
000100
000001
000010
,
000100
100000
000100
000001
001000
100000
001000
000001
,
000100
000001
001000
010000
000010
000001
000100
010000
,
100000
000100
000010
000001
000100
100000
001000
100000
,
000100
000001
000100
010000
100000
000100
000010
000001
,
000100
100000
000100
000001
000100
010000
100000
000100
,
000001
000100
100000
000010
000001
000000
000000
000000
,
000100
010000
100000
000000
000100
010000
100000
000000
,
000100
000010
000001
000000
000100
000010
000001
000000
,
000100
000010
000001
000100
010000
100000
000100
000010
,
000001
000100
010000
100000
000000
000000
000000
000000
,
010000
000000
010000
100000
000100
000001
010000
100000
,
000100
000000
000001
000000
010000
000000
100000
000000
000100
000000
000001
000000
000000
100000
000000
000000
,
100001
000000
000000
000000
000100
100000
001000
000000
,
000100
000001
001000
000000
010000
000000
100000
000100
,
000001
000100
000010
000001
000100
100000
000100
010000
,
100000
000000
000100
000000
000001
000000
000100
000000
000010
000000
010000
000000
000000
000010
000000
000000
,
100001
000000
000000
000000
000100
100000
001000
000000
,
000100
000001
001000
001000
000100
100000
001000
000000
,
010000
000000
000000
100000
000000
000000
100000
000000
001000
000000
000001
000000
001000
000000
100000
000000
,
001000
000001
010000
100000
000000
000010
000001
000000
,
000010
000000
000000
000001
000000
000000
000001
000000
001000
000000
100000
000000
001000
000000
000001
000000
,
001000
100000
000010
000001
000000
010000
100000
000000
,
000000
000000
001000
100000
000000
000000
000100
000000
000000
000000
001000
000001
000000
000000
000100
000000
,
000000
000000
001000
100000
000000
000000
000100
000000
000000
000000
001000
100000
000100
000000
000000
000000
,
000000
000000
001000
000001
000000
000000
000100
000000
000000
000000
001000
100000
000000
000000
000100
000000
,
100000
000000
000100
000000
000000
000000
000000
000000
100000
000001
000000
000000
010010
000000
000000
000000
,
000000
001000
100001
000000
,
000001
001000
000001
001000
100000
001000
000001
000100
,
100000
010000
000100
000001
000010
000100
100000
010000
,
000100
000001
000100
100000
001000
000001
001000
100000
,
000100
100000
001000
000010
010000
100000
000100
000010
,
000001
000100
010000
100000
000100
000001
001000
000001
,
000100
100000
000100
000010
000001
000100
010000
100000
,
000100
000001
000100
100000
000100
000010
000001
000100
,
100000
000100
000001
010000
100000
000000
000000
000000
,
000100
000010
000001
000000
000100
000010
000001
000000
,
000100
010000
100000
000000
000100
010000
100000
000000
,
000100
010000
100000
000100
000010
000001
000100
010000
,
100000
000100
000010
000001
000000
000000
000000
000000
,
000010
000000
000010
000001
000100
100000
000010
000001
,
000100
000000
100000
000000
000010
000000
000001
000000
000100
000000
100000
000000
000000
000001
000000
000000
,
100001
000000
000000
000000
000100
100000
001000
000000
,
000100
000001
001000
000000
000010
000000
000001
000100
,
100000
000100
010000
100000
000100
000001
000100
000010
,
000001
000000
000100
000000
100000
000000
000100
000000
010000
000000
100000
000000
000000
000001
000000
000000
,
100001
000000
000000
000010
000000
000000
010000
000000
000000
010010
000000
000000
100000
000000
000000
000001
,
000000
100001
000000
000000
000000
000000
000000
000000
;

//---------------dance-single - ----------------
#NOTEDATA:;
#CHARTNAME:;
#STEPSTYPE:dance-single;
#DESCRIPTION:;
#CHARTSTYLE:;
#DIFFICULTY:Challenge;
#METER:15;
#RADARVALUES:0.775487,0.818348,0.176449,0.093414,0.877056,523.000000,506.000000,17.000000,9.000000,0.000000,0.000000,0.000000,0.000000,0.000000,0.775487,0.818348,0.176449,0.093414,0.877056,523.000000,506.000000,17.000000,9.000000,0.000000,0.000000,0.000000,0.000000,0.000000;
#CREDIT:;
#DISPLAYBPM:142.000000;
#NOTES:
// measure 0
0000
0000
0000
0000
,  // measure 1
0000
0000
0000
0000
,  // measure 2
0000
0000
0000
0000
,  // measure 3
1000
0001
0100
0001
1000
0001
0100
0001
,  // measure 4
1000
0100
0010
0100
1000
0100
0010
0100
,  // measure 5
1000
0000
0100
1000
0100
0000
1000
0000
0010
1000
0010
1000
0100
0000
1000
0000
,  // measure 6
0001
0100
0001
0000
0010
0000
0001
0000
1000
0001
1000
0001
0100
0000
0001
0000
,  // measure 7
1000
0000
0100
1000
0100
0000
1000
0000
0010
0100
0010
0100
0001
0000
0010
0000
,  // measure 8
0001
0010
0001
0000
1000
0000
0001
0000
0100
0001
0100
0001
0010
0000
0001
0000
,  // measure 9
1000
0000
0010
1000
0010
0000
0001
0000
1000
0001
1000
0001
0100
0000
0001
0000
,  // measure 10
0010
0001
0010
0000
0001
0000
1000
0000
0010
0100
0010
0100
0001
0000
1000
0000
,  // measure 11
0001
0000
1000
0001
1000
0000
0100
0000
0010
0001
1000
0100
0010
0000
0001
0000
,  // measure 12
1000
0001
0100
0001
1000
0010
0100
0001
,  // measure 13
0010
0001
0010
0000
0001
0000
1000
0000
0010
1000
0010
1000
0100
0000
1000
0000
,  // measure 14
0001
0000
1000
0001
1000
0000
0001
0000
0100
0001
0100
0001
0010
0000
0001
0000
,  // measure 15
0010
0001
0010
0000
0001
0000
1000
0000
0010
1000
0010
1000
0001
0000
1000
0000
,  // measure 16
0001
0000
1000
0100
1000
0000
0001
0000
1000
0010
0100
0001
0010
0000
0001
0000
,  // measure 17
1000
0100
0000
1000
0100
0000
0010
0000
1000
0100
0000
1000
0100
0000
0010
0000
,  // measure 18
0001
0010
0000
0001
0010
0000
0100
0000
0001
0000
0011
0000
0000
0101
0000
0000
,  // measure 19
0001
0100
0000
0001
0100
0000
0010
0000
0001
0100
0000
0001
0100
0000
0010
0000
,  // measure 20
1000
0010
0000
1000
0010
0000
0100
0000
1000
0010
0000
1000
0010
0000
0100
0000
,  // measure 21
0001
1000
0000
0001
1000
0000
0100
0000
0001
1000
0000
0001
1000
0000
0100
0000
,  // measure 22
1000
0001
0000
1000
0001
0000
0100
0000
1000
0000
1100
0000
0000
0110
0000
0000
,  // measure 23
0010
0001
0000
0010
0001
0000
1000
0000
0001
1000
0001
1000
0100
0000
1000
0000
,  // measure 24
0001
0100
0000
0001
0100
0000
0010
0000
1000
0010
0100
0010
1000
0000
0001
0000
,  // measure 25
0100
0000
0001
0000
1000
0000
0100
0000
0010
0001
1000
0100
0020
0000
0000
0000
,  // measure 26
0031
0000
1000
0000
0001
0000
0100
0000
0010
1000
0001
0100
0010
0000
1000
0000
,  // measure 27
0001
0000
0010
0000
0100
0000
1000
0100
0010
0001
0010
0100
2000
0000
0000
0000
,  // measure 28
3001
0000
1000
0100
0020
0000
0000
0000
0031
0000
0000
0000
0101
0000
0000
0000
,  // measure 29
0001
0100
0010
0000
0000
0000
0100
0010
0000
0000
1000
0100
0000
0000
0010
0001
,  // measure 30
0000
0000
1000
0010
0000
0000
0100
0001
1000
0001
0100
0001
0010
0000
0000
0000
,  // measure 31
0001
0010
0100
0000
0000
0000
0010
1000
0100
1000
0001
0100
0000
0000
1000
0010
,  // measure 32
0100
0010
0100
0010
1000
0001
1000
0001
0100
0010
1000
0100
0010
0001
1000
0100
,  // measure 33
0000
0000
0000
0000
0000
0000
0200
0320
,  // measure 34
1030
0001
0100
0000
0010
0000
1000
0000
0001
0010
0100
1000
0010
0000
1000
0000
,  // measure 35
0001
0010
0000
0100
1000
0000
0010
0000
1000
0001
0100
0010
1000
0000
0001
0000
,  // measure 36
1000
0010
0100
0000
0001
0000
1000
0000
0010
0100
0000
0010
0100
0000
0001
0000
,  // measure 37
1000
0100
1000
0100
0010
0000
0001
0000
1000
0010
1000
0000
0001
0000
0100
0000
,  // measure 38
0010
1000
0010
0000
1000
0000
0100
0000
1000
0100
0010
0001
1000
0000
0001
0000
,  // measure 39
0010
0001
1000
0000
0001
0000
0100
0010
0000
0100
0010
0000
1000
0000
0001
0000
,  // measure 40
0100
0001
0010
0000
0001
0000
1000
0000
0001
0100
0010
1000
0001
0000
1000
0000
,  // measure 41
0100
0010
0100
0000
0010
0000
0001
0000
1000
0100
0010
0001
1000
0000
0001
0000
,  // measure 42
1000
0001
1000
0001
1000
0100
1000
0100
1000
0001
1000
0100
1000
0000
0100
0000
,  // measure 43
0100
1000
0100
1000
0001
1000
0001
1000
0100
1000
0001
1000
0010
0000
0010
0000
,  // measure 44
0010
0100
0010
0100
0001
0100
0001
0100
0010
0100
0001
0100
0010
0000
0001
0000
,  // measure 45
0001
0010
0001
0010
0001
0100
0001
0100
0001
1000
0001
1000
0100
0000
0010
0000
,  // measure 46
0001
0010
0100
0000
0000
0100
1000
0100
0000
0010
0100
0010
0000
0100
1000
0100
,  // measure 47
0000
0010
0100
0010
0000
0100
1000
0100
0000
0010
0100
0000
0000
0110
0000
0000
,  // measure 48
0011
0000
0202
0000
0000
0303
1001
0000
,  // measure 49
1000
0000
0010
0000
0100
0000
0001
0000
1000
0100
0010
0001
1000
0000
0000
0000
,  // measure 50
0001
1000
0010
0000
0000
0000
0010
1000
0100
1000
0010
0000
0000
0000
0100
0001
,  // measure 51
0000
0010
0001
0010
0000
0001
0010
0001
0000
0100
0001
0000
0000
0101
0000
0000
,  // measure 52
1010
0000
0000
1100
0000
0000
0110
0000
0000
0011
0000
0000
1001
0000
0000
0110
,  // measure 53
0000
2002
0000
0000
0000
0000
0000
0000
,  // measure 54
0000
0000
0000
3003
0000
0000
0000
0000
;
