#VERSION:0.83;
#TITLE:THE RACE;
#SUBTITLE:;
#ARTIST:CAPTAIN JACK;
#TITLETRANSLIT:;
#SUBTITLETRANSLIT:;
#ARTISTTRANSLIT:;
#GENRE:;
#ORIGIN:;
#CREDIT:;
#BANNER:THE RACE.png;
#BACKGROUND:THE RACE-bg.png;
#PREVIEWVID:;
#JACKET:THE RACE-jacket.png;
#CDIMAGE:;
#DISCIMAGE:;
#LYRICSPATH:;
#CDTITLE:;
#MUSIC:THE RACE.ogg;
#OFFSET:0.000000;
#SAMPLESTART:49.921001;
#SAMPLELENGTH:15.000000;
#SELECTABLE:YES;
#DISPLAYBPM:143.000000;
#BPMS:0.000=143.000,
4.000=143.020;
#STOPS:;
#DELAYS:;
#WARPS:;
#TIMESIGNATURES:0.000=4=4;
#TICKCOUNTS:0.000=4;
#COMBOS:0.000=1;
#SPEEDS:0.000=1.000=0.000=0;
#SCROLLS:0.000=1.000;
#FAKES:;
#LABELS:0.000=Song Start;
#BGCHANGES:;
#KEYSOUNDS:;
#ATTACKS:
;

//---------------dance-single - ----------------
#NOTEDATA:;
#CHARTNAME:;
#STEPSTYPE:dance-single;
#DESCRIPTION:;
#CHARTSTYLE:;
#DIFFICULTY:Easy;
#METER:5;
#RADARVALUES:0.249214,0.281721,0.108354,0.000000,0.000000,161.000000,151.000000,10.000000,0.000000,0.000000,0.000000,0.000000,0.000000,0.000000,0.249214,0.281721,0.108354,0.000000,0.000000,161.000000,151.000000,10.000000,0.000000,0.000000,0.000000,0.000000,0.000000,0.000000;
#CREDIT:;
#DISPLAYBPM:143.000000;
#NOTES:
0000
0000
0000
0000
,
0000
0000
0000
0000
,
0000
0000
0000
0000
,
0000
0000
0000
0000
,
0001
1000
0000
0100
,
0000
0001
0001
1001
,
0000
1000
0000
0001
,
0000
0100
0000
0010
,
0001
1000
0000
0100
,
0000
0010
0010
1001
,
0000
0010
0000
0100
,
0000
1000
0000
1001
,
0000
0000
0010
0100
,
0000
0001
0100
1000
,
0000
1000
0100
0001
,
1000
1000
0001
0001
,
0010
0010
0100
0100
,
0000
1000
0100
0001
,
0000
0001
0100
1000
,
0010
0010
0100
0100
,
0001
1000
0001
1000
,
0000
0100
0001
0001
,
0000
0010
1000
1000
,
0001
0010
0001
0010
,
0100
1000
0100
1000
,
0000
0001
0010
0100
,
0000
1000
0100
0010
,
0001
0010
0100
1000
,
0100
0100
0000
0100
,
1000
0000
0001
0100
,
1000
0000
0001
1001
,
0100
0000
0010
1001
,
1000
0001
1000
0001
,
0100
0100
0100
0100
,
0010
0000
0100
1001
,
0001
0000
1000
0110
,
1000
0001
1000
0001
,
0100
0100
0100
0100
,
0000
0001
0001
1001
,
0000
1000
0000
0001
,
0000
0100
0000
0010
,
0100
0100
0100
0100
,
0000
0010
0010
1001
,
0000
0010
0000
0100
,
0000
1000
0000
0001
,
0010
0010
0010
0010
,
0000
0001
0100
1000
,
0000
1000
0100
0001
,
1000
0001
1000
0001
,
0010
0100
0010
0100
,
0000
0001
0100
1000
,
0000
1000
0100
0001
,
1001
0000
0000
0000
;

//---------------dance-single - ----------------
#NOTEDATA:;
#CHARTNAME:;
#STEPSTYPE:dance-single;
#DESCRIPTION:;
#CHARTSTYLE:;
#DIFFICULTY:Medium;
#METER:8;
#RADARVALUES:0.396266,0.480076,0.368404,0.000000,0.000000,256.000000,222.000000,34.000000,0.000000,0.000000,0.000000,0.000000,0.000000,0.000000,0.396266,0.480076,0.368404,0.000000,0.000000,256.000000,222.000000,34.000000,0.000000,0.000000,0.000000,0.000000,0.000000,0.000000;
#CREDIT:;
#DISPLAYBPM:143.000000;
#NOTES:
0000
0000
0000
0000
,
0000
0000
0000
0000
,
0000
0000
0000
0000
,
0000
0000
0000
0000
,
0001
1000
0010
1001
,
1000
0000
0010
0000
0100
0000
0001
1000
,
0000
0011
0000
1100
,
0010
0010
0100
1001
,
0001
0001
0100
1001
,
0100
0000
0010
0000
1000
0000
0001
0100
,
0000
0011
0000
1100
,
0001
0100
0010
1000
,
0100
0000
0100
0000
0100
0100
0100
0000
,
0000
1000
0100
0001
,
0100
0101
0010
1010
,
0001
1000
0100
0010
,
0001
0010
0100
1000
,
0000
0010
0100
0001
,
0001
0011
1000
1100
,
0010
0010
0100
0100
,
0001
1000
0001
1000
,
0001
1000
1000
0001
,
0100
0000
0100
0000
0001
0100
1000
0000
,
0001
0100
1000
0000
0100
0010
1000
0000
,
0100
1000
0100
0000
0010
0001
0010
0000
,
0011
1001
1010
1001
,
0101
0110
1100
0110
,
0001
1000
1000
0000
0010
0100
0100
0000
,
0001
0000
0001
0000
0010
0010
0010
0000
,
1001
0000
1001
0100
,
1000
0010
0100
0000
0001
0000
1001
0000
,
0001
0011
1000
1100
,
1000
0001
1000
0001
1000
0001
1000
0001
,
0100
0100
0100
0100
,
0010
0110
1000
1001
,
0001
0101
1000
1010
,
1000
0001
0100
0000
0001
1000
0010
0000
,
1000
0000
1000
0000
0100
0100
0100
0000
,
1000
0000
0001
0000
0100
0010
1000
0001
,
1000
1100
0001
0011
,
1000
1100
0001
0011
,
0100
0110
0001
1001
,
0010
0000
0100
0000
0001
1000
0010
0100
,
0010
0010
0100
0100
,
1000
1000
0001
0001
,
0010
0010
0010
0010
,
0001
0010
0001
0000
1000
0100
1000
0000
,
0010
0100
0010
0000
1000
0001
1000
0000
,
0010
0100
0010
0100
0010
0100
0010
0100
,
0001
0001
0001
0001
,
1000
0100
1000
0000
0001
0010
0001
0000
,
0100
0010
0100
0000
0001
1000
0001
0000
,
0100
0100
0000
0000
0000
0000
0000
0000
;

//---------------dance-single - ----------------
#NOTEDATA:;
#CHARTNAME:;
#STEPSTYPE:dance-single;
#DESCRIPTION:;
#CHARTSTYLE:;
#DIFFICULTY:Hard;
#METER:12;
#RADARVALUES:0.549510,0.621275,0.660960,0.000000,0.000000,355.000000,294.000000,61.000000,0.000000,0.000000,0.000000,0.000000,0.000000,0.000000,0.549510,0.621275,0.660960,0.000000,0.000000,355.000000,294.000000,61.000000,0.000000,0.000000,0.000000,0.000000,0.000000,0.000000;
#CREDIT:;
#DISPLAYBPM:143.000000;
#NOTES:
0000
0000
0000
0000
,
0000
0000
0000
0000
,
0000
0000
0000
0000
,
0000
0000
0000
0000
,
0001
0001
1000
0000
0010
1000
0001
0000
,
1000
0010
0100
0001
0100
0100
0001
1000
,
0000
0000
0011
0000
0100
0100
0100
0000
,
0001
0000
1000
0000
0010
0100
0001
0000
,
0100
0100
0100
0000
0010
0000
1001
0000
,
0100
0001
1000
0010
0100
0001
1000
1000
,
0000
0000
0011
0000
0001
0001
0001
0000
,
0010
0000
0010
0000
0001
1000
0100
0000
,
1001
0000
1001
0000
0010
0100
0001
1000
,
0010
0010
1000
0001
1000
0010
0100
0100
,
0100
0101
0010
0110
,
0100
0100
0100
0000
0010
0000
1001
0000
,
0010
0100
0100
0000
0001
1000
1000
0000
,
0001
0001
0100
0010
1000
1000
0001
0100
,
0001
0001
1000
0000
0101
0000
1100
0000
,
0010
0001
0011
0000
1000
0100
1100
0000
,
0011
1100
0011
1100
,
0000
0001
1000
0001
1000
1000
0001
0000
,
0010
0100
0010
0001
1000
0100
1000
0000
,
0001
0010
0100
0000
1000
0010
0001
0000
,
0010
0010
0100
0000
0001
1000
0100
0000
,
0001
0010
0011
0000
1000
0010
1010
0000
,
0001
0100
0101
0000
1000
0100
1100
0000
,
0001
0100
1000
0000
0100
0010
1000
0000
,
1001
0000
1001
0000
1001
1001
1001
0000
,
0010
0100
0010
0000
0110
0000
1001
1000
,
1000
0001
0001
1000
0100
0000
1001
0000
,
0011
1100
1010
0101
,
1000
0010
0100
0001
0010
0001
1000
0100
,
1000
0001
0010
0100
1000
0010
0100
0001
,
0011
0110
1100
1010
,
0001
0101
1000
1010
,
1000
0010
1000
0001
1000
0100
1001
1001
,
0100
0100
0001
0001
1000
1000
0010
0010
,
0110
0100
0101
0001
1001
1000
0010
0100
,
0001
0100
0100
0000
1000
0010
0010
0000
,
1100
0011
1100
0011
,
0100
0110
0001
1001
,
1001
0000
0110
0000
1001
0000
0110
0110
,
0110
1010
1100
0101
,
1000
0010
0100
0001
0010
0100
1000
0010
,
0100
0100
0100
0000
0010
0000
1001
0000
,
0010
0010
0100
0000
0001
1000
1001
1001
,
0001
0100
0010
1000
0001
0001
1000
0010
,
0010
0100
0010
0100
0010
0100
0010
0100
,
0001
1000
0001
1000
0001
1000
0001
1000
,
1000
0100
0010
0001
1000
0100
0010
0001
,
0100
0010
0100
0010
1000
0001
0001
1000
,
0100
0100
0000
0000
0000
0000
0000
0000
;

//---------------dance-double - ----------------
#NOTEDATA:;
#CHARTNAME:;
#STEPSTYPE:dance-double;
#DESCRIPTION:;
#CHARTSTYLE:;
#DIFFICULTY:Easy;
#METER:4;
#RADARVALUES:0.246119,0.281721,0.065012,0.000000,0.000000,159.000000,153.000000,6.000000,0.000000,0.000000,0.000000,0.000000,0.000000,0.000000,0.246119,0.281721,0.065012,0.000000,0.000000,159.000000,153.000000,6.000000,0.000000,0.000000,0.000000,0.000000,0.000000,0.000000;
#CREDIT:;
#DISPLAYBPM:143.000000;
#NOTES:
00000000
00000000
00000000
00000000
,
00000000
00000000
00000000
00000000
,
00000000
00000000
00000000
00000000
,
00000000
00000000
00000000
00000000
,
00000001
00001000
00000001
00000001
,
00001000
00000000
00010000
00000100
,
00010000
00000000
00001000
00100000
,
00001000
00001000
01000000
01000000
,
00010000
10000000
00010000
10000000
,
00010000
00000000
00001000
00100000
,
00001000
00000000
00010000
00000100
,
00010000
00010000
00000010
00000010
,
00001000
00000001
00001000
00000001
,
00000000
00000100
00000000
00000100
,
00000000
00010000
00000000
00010000
,
00000000
10000000
00000000
10000000
,
00000000
00100000
00100000
10010000
,
00000000
00001000
00000000
00001000
,
00000000
00010000
00000000
00010000
,
00000000
00000100
00000000
00000100
,
00000000
00000001
00001000
00000110
,
00000000
00010000
00000000
00001000
,
00000000
00100000
00000000
01000000
,
00000000
10000000
10000000
00010000
,
00000000
00000100
00000000
00000001
,
00000000
00000010
00000000
00000100
,
00000000
00010000
00010000
00011000
,
00001000
00010000
00001000
00010000
,
00000010
00000000
00000010
00000000
,
00010000
00010000
00010000
00010000
,
00001000
00000000
01000000
00100000
,
00001000
00000000
10000000
00010000
,
10000000
00010000
10000000
00010000
,
00001000
00000001
00001000
00000001
,
00001000
00000000
00000100
00010000
,
01000000
00000000
10000000
00100000
,
01000000
00010000
10000000
00100000
,
10000000
01000000
00100000
00010000
,
00000000
00000100
00000100
00001001
,
00000000
00000100
00000000
00000100
,
00010000
00001000
00010000
00001000
,
01000000
01000000
01000000
01000000
,
00000000
00001000
00001000
01100000
,
00000000
10000000
00000000
10000000
,
00010000
00010000
01000000
01000000
,
00001000
00001000
00001000
00001000
,
00000100
00001000
00010000
01000000
,
01000000
00010000
00001000
00000100
,
00010000
00010000
00001000
00001000
,
00010000
00001000
00010000
00001000
,
01000000
01000000
00010000
00000100
,
00000001
00000001
00001000
00000010
,
00001001
00000000
00000000
00000000
;

//---------------dance-double - ----------------
#NOTEDATA:;
#CHARTNAME:;
#STEPSTYPE:dance-double;
#DESCRIPTION:;
#CHARTSTYLE:;
#DIFFICULTY:Medium;
#METER:6;
#RADARVALUES:0.414841,0.480076,0.487593,0.000000,0.000000,268.000000,223.000000,45.000000,0.000000,0.000000,0.000000,0.000000,0.000000,0.000000,0.414841,0.480076,0.487593,0.000000,0.000000,268.000000,223.000000,45.000000,0.000000,0.000000,0.000000,0.000000,0.000000,0.000000;
#CREDIT:;
#DISPLAYBPM:143.000000;
#NOTES:
00000000
00000000
00000000
00000000
,
00000000
00000000
00000000
00000000
,
00000000
00000000
00000000
00000000
,
00000000
00000000
00000000
00000000
,
00000010
00000100
00000010
00000000
00001001
00000000
00001001
00000000
,
00001000
00000001
00001000
00000000
00000100
00010000
00000100
00000000
,
00000010
00000010
00001000
01000000
,
01000000
00010000
01000000
10000000
,
00100000
00100000
00100000
00000000
01000000
00000000
01100000
00000000
,
10000000
00010000
01000000
00000000
00100000
01000000
00010000
00000000
,
01000000
01000000
00010000
10010000
,
01000000
01000000
01000000
00000000
00010000
00000000
00011000
00000000
,
00010000
00000100
00010000
00000010
00000000
00000000
00011000
00000000
,
00000010
00000000
00000100
00000100
00000001
00000000
00001000
00001000
,
00010000
00100000
00010000
00100000
,
01000000
00000000
00100000
00100000
10000000
00000000
00010000
00010000
,
00001000
00010000
00001000
00011000
,
00000100
00000000
00000010
00000100
00000001
00000000
00000001
00001000
,
00000100
00000100
00000100
00001000
00000001
00000000
00000001
00001000
,
00000000
00000100
00000000
00000100
,
00000011
00001100
01010000
10100000
,
10000000
00010000
00000000
00001000
,
00110000
10100000
00110000
10100000
,
00000000
10000000
10000000
00010000
,
00001100
00000101
00001100
00000101
,
00000010
00000010
00000100
00000100
,
00001100
00001010
00011000
00110000
,
01010000
00011000
00001010
00001100
,
00000010
00000010
00000010
00000000
00000100
00000000
00000100
00000000
,
00011000
00000000
00010000
00000000
00010000
00010000
00010000
00000000
,
00001000
00100000
00010000
00000000
01000000
01000000
01000000
00000000
,
01100000
01100000
10010000
10010000
,
10000000
00010000
10000000
00000000
01100000
00000000
10010000
00000000
,
00001000
00010000
00001000
00000000
00001001
00000000
00000100
00000010
,
00001000
00000001
00011000
10010000
,
01000000
00000000
01000000
00000000
10000000
00100000
01000000
00000000
,
01000000
00010000
10000000
00000000
00100000
10000000
00010000
00000000
,
10000000
01000000
00100000
10010000
,
00100000
00000000
01000000
00000000
00010000
00000000
10000000
00010000
,
00000000
01000000
10000000
00010000
,
00001000
00000100
00001000
00000010
,
00001000
00010000
00001000
00110000
,
00010000
00000000
10010000
00000000
00100000
00000000
01000000
00100000
,
10000000
10000000
00100000
01000000
,
00010000
01000000
00001000
00010000
,
00000010
00000000
00000010
00000000
00000100
00000100
00000100
00000001
,
00001000
00000010
00000100
00000100
,
00001000
00011000
00100000
01000000
,
00010000
10000000
00010000
00000000
01000000
00100000
01000000
00000000
,
00010000
00000000
01000000
00000000
00100000
00000000
10000000
10000000
,
01000000
01000000
00100000
10010000
,
00010000
00011000
00000100
00000110
,
00001001
00000001
00000000
00000000
00000000
00000000
00000000
00000000
;

//---------------dance-double - ----------------
#NOTEDATA:;
#CHARTNAME:;
#STEPSTYPE:dance-double;
#DESCRIPTION:;
#CHARTSTYLE:;
#DIFFICULTY:Hard;
#METER:7;
#RADARVALUES:0.527839,0.508316,0.931845,0.000000,0.000000,341.000000,255.000000,86.000000,0.000000,0.000000,0.000000,0.000000,0.000000,0.000000,0.527839,0.508316,0.931845,0.000000,0.000000,341.000000,255.000000,86.000000,0.000000,0.000000,0.000000,0.000000,0.000000,0.000000;
#CREDIT:;
#DISPLAYBPM:143.000000;
#NOTES:
00000000
00000000
00000000
00000000
,
00000000
00000000
00000000
00000000
,
00000000
00000000
00000000
00000000
,
00000000
00000000
00000000
00000000
,
00000100
00000100
00000100
00000000
00000100
00000000
00001001
00000000
,
00001010
00011000
00110000
00011000
,
00000000
00001100
00001001
00000011
,
00000100
00000100
00000010
00000000
00001000
00000001
00000001
00000000
,
00000101
00001010
00011000
00011000
,
00100000
01000000
00010000
10000000
01000000
00100000
00010000
10000000
,
10000000
01000000
01100000
10010000
,
01000000
00100000
01100000
00000000
00010000
00001000
00011000
00000000
,
00010000
00000100
00001000
00000010
00001000
00000001
00000001
00000000
,
00000010
00000100
00000001
00001000
00000100
00000000
00011000
00000000
,
00110000
11000000
00110000
11000000
,
10000000
00100000
01000000
00010000
00100000
00000000
00011000
00000000
,
00001100
00000011
00001100
00000011
,
00000100
00001000
00000001
00000010
00000100
00000000
00001001
00000000
,
00000011
00000110
00001100
00011000
,
01000000
00010000
00000010
00000100
,
00000011
00001100
01010000
10100000
,
10000000
01000000
00010000
00000000
01000000
10000000
00100000
00000000
,
10010000
00011000
00001001
00011000
,
00000010
00000100
00000001
00000000
00000100
00000010
00001000
00000000
,
00001001
00011000
10010000
00011000
,
00000010
00000110
00000001
00001001
,
00001100
00001001
00001010
00000110
,
00001000
00010000
00011000
00000000
00001000
00000100
00001100
00000000
,
00000010
00000100
00000110
00000000
00001000
00000001
00001001
00000000
,
00001010
00000000
00011000
00000000
00010000
00001000
00010000
00000000
,
00001000
00100000
00010000
00000000
01000000
01000000
01000000
00000000
,
00110000
10010000
11000000
10010000
,
10000000
00010000
10000000
00010000
01000000
00100000
01000000
00010000
,
00001000
00000010
00000100
00000010
00001000
00000001
00000100
00000010
,
00001000
00000001
00001000
00000000
00011000
00000000
10010000
00000000
,
01100000
00110000
01010000
11000000
,
01000000
00010000
10000000
00100000
01000000
10000000
00100000
00010000
,
10000000
00000000
00100000
00100000
00100000
00000000
10010000
00000000
,
00100000
00100000
01000000
01000000
00010000
00010000
10000000
00010000
,
01000000
00000000
01000000
00000000
00100000
10000000
00010000
01000000
,
00001000
00010000
00000100
00000010
,
00001100
00011000
00110000
01100000
,
00010000
00010000
10000000
10000000
00100000
00100000
01000000
00100000
,
10000000
00000000
00010000
00000000
00100000
01000000
10000000
00010000
,
01000000
00001000
00010000
00000100
,
00000110
00000000
00001100
00000000
00011000
00000000
01010000
01000000
,
00010000
00000000
00000000
00000000
10000000
10000000
10000000
00000000
,
01100000
01010000
00011000
00001100
,
00000100
00001000
00000001
00000100
00000010
00001000
00000001
00000100
,
00001000
00001000
00001000
00000000
00011000
00000000
10010000
10000000
,
01000000
00000000
00000000
00000000
00100000
01000000
01100000
00000000
,
00110000
00011000
00001010
00001001
,
00000110
00000010
00000000
00000000
00000000
00000000
00000000
00000000
;

//---------------dance-couple - ----------------
#NOTEDATA:;
#CHARTNAME:;
#STEPSTYPE:dance-couple;
#DESCRIPTION:;
#CHARTSTYLE:;
#DIFFICULTY:Challenge;
#METER:7;
#RADARVALUES:0.253858,0.480076,0.238379,0.000000,0.000000,164.000000,142.000000,22.000000,0.000000,0.000000,0.000000,0.000000,0.000000,0.000000,0.253858,0.480076,0.238379,0.000000,0.000000,164.000000,142.000000,22.000000,0.000000,0.000000,0.000000,0.000000,0.000000,0.000000;
#CREDIT:;
#DISPLAYBPM:143.000000;
#NOTES:
00000000
00000000
00000000
00000000
,
00000000
00000000
00000000
00000000
,
00000000
00000000
00000000
00000000
,
00000000
00000000
00000000
00000000
,
00001001
10010000
00000000
00000000
,
10000000
00000000
00100000
00000000
01000000
00000000
00011000
10000001
,
00000000
00110001
00000000
11000001
,
00100000
00100001
01000000
10010001
,
00010000
00010001
01000000
10010001
,
00001000
00000000
00000010
00000000
00000100
00000000
10000001
00011000
,
00000000
10000011
00000000
10001100
,
00000010
10000010
00000100
10001001
,
00000001
10000001
00000100
10001001
,
00000000
10000000
01000000
00010000
,
00000000
00000001
00000100
00001000
,
00000000
00010000
10000000
01000000
,
00000000
00001000
00000001
00000100
,
00000000
00000000
00010000
10000000
00010000
10000000
01000000
00000000
,
00000000
00000000
00000001
00001000
00000001
00001000
00000100
00000000
,
10000000
00001000
00010000
00000001
,
00000010
01000000
00000100
00100000
,
00010000
10000000
10000000
00010000
,
01000000
00000000
01000000
00000000
00010000
01000000
10000000
00000000
,
00000001
00001000
00001000
00000001
,
00000100
00000000
00000100
00000000
00000001
00000100
00001000
00000000
,
00110000
10010000
10100000
10010000
,
00000011
00001001
00001010
00001001
,
00011000
10000001
10000001
00000000
00100010
01000100
01000100
00000000
,
00011000
00000000
00011000
00000000
00100010
00100010
00100010
00000000
,
10011001
00000000
00000000
00000000
,
00001000
00000010
10000100
00000000
00000001
00000000
10001001
00000000
,
00000001
10000011
00001000
10001100
,
00001000
00000001
10001000
00000001
00001000
00000001
10001000
00000001
,
00000100
00000100
00000100
00000100
,
10000000
00100000
01000001
00000000
00010000
00000000
10010001
00000000
,
00010000
00110001
10000000
11000001
,
10000000
00010000
10000001
00010000
10000000
00010000
10000001
00010000
,
01000000
01000000
01000000
01000000
,
10010000
00000000
00000110
00000000
10010000
00000000
01100000
01100000
,
00000000
10100000
11000000
01010001
,
10000000
00100000
01000001
00010000
00100000
01000000
10000001
00100000
,
01000000
01000000
01000001
00000000
00100000
00000000
10010001
00000000
,
00001001
00000000
01100000
00000000
00001001
00000000
00000110
00000110
,
00000000
00001010
00001100
10000101
,
00001000
00000010
10000100
00000001
00000010
00000100
10001000
00000010
,
00000100
00000100
10000100
00000000
00000010
00000000
10001001
00000000
,
00010000
00100000
00010000
00000000
10000000
01000000
10000000
00000000
,
00000001
00000010
00000001
00000000
00001000
00000100
00001000
00000000
,
00100000
01000000
00100000
01000000
00100000
01000000
00100000
01000000
,
00000001
00001000
00000001
00001000
00000001
00001000
00000001
00001000
,
10000000
01000000
10000000
00000000
00000001
00000010
00000001
00000000
,
01000100
00100010
01000100
00000000
00011000
10000001
00011000
00000000
,
01000100
01000100
00000000
00000000
00000000
00000000
00000000
00000000
;

//---------------dance-solo - ----------------
#NOTEDATA:;
#CHARTNAME:;
#STEPSTYPE:dance-solo;
#DESCRIPTION:;
#CHARTSTYLE:;
#DIFFICULTY:Easy;
#METER:3;
#RADARVALUES:0.216708,0.253549,0.151696,0.000000,0.000000,140.000000,126.000000,14.000000,0.000000,0.000000,0.000000,0.000000,0.000000,0.000000,0.216708,0.253549,0.151696,0.000000,0.000000,140.000000,126.000000,14.000000,0.000000,0.000000,0.000000,0.000000,0.000000,0.000000;
#CREDIT:;
#DISPLAYBPM:143.000000;
#NOTES:
000000
000000
000000
000000
,
000000
000000
000000
000000
,
000000
000000
000000
000000
,
000000
000000
000000
000000
,
000000
000000
000000
000000
,
000010
000010
010000
000010
,
000000
001000
000000
001000
,
000000
100000
000000
000001
,
000100
000100
000000
100001
,
000000
010000
000010
010000
,
000000
000001
000000
100000
,
000000
000100
000000
001000
,
000010
000000
000000
000000
,
000000
100000
000000
100010
,
000000
000001
000000
010001
,
000000
001000
000000
001000
,
000000
000001
000000
100000
,
000000
000100
000000
010100
,
000000
001000
000000
001010
,
000000
100000
000000
100000
,
000000
000100
000000
000100
,
000000
000100
010000
100000
,
000000
000100
000010
000001
,
000000
100000
000000
100000
,
000000
000001
000000
000001
,
000000
010000
000100
000010
,
000000
000010
000100
010000
,
000001
000000
000001
000000
,
100000
000000
100000
100000
,
000001
000000
000000
001000
,
000100
000000
001000
000100
,
100000
000000
000001
100000
,
000010
000000
000010
000010
,
010000
010000
010000
010000
,
100000
000000
100000
100001
,
000100
000000
000100
001100
,
010000
000000
010000
010000
,
000010
000010
000010
000010
,
001000
001000
000000
100001
,
000000
000100
000000
100001
,
000000
001000
000000
001000
,
000001
000001
000001
000001
,
000000
100000
000000
100001
,
000000
001100
000000
100001
,
000000
010000
000000
010000
,
000010
000010
000010
001000
,
100000
000000
001000
000001
,
000001
000000
001000
100000
,
000010
000010
000010
000010
,
010000
010000
010000
010000
,
001000
000000
001000
100001
,
000100
000000
000100
100001
,
001000
000000
000000
000000
;

//---------------dance-solo - ----------------
#NOTEDATA:;
#CHARTNAME:;
#STEPSTYPE:dance-solo;
#DESCRIPTION:;
#CHARTSTYLE:;
#DIFFICULTY:Medium;
#METER:5;
#RADARVALUES:0.331254,0.422581,0.465923,0.000000,0.000000,214.000000,171.000000,43.000000,0.000000,0.000000,0.000000,0.000000,0.000000,0.000000,0.331254,0.422581,0.465923,0.000000,0.000000,214.000000,171.000000,43.000000,0.000000,0.000000,0.000000,0.000000,0.000000,0.000000;
#CREDIT:;
#DISPLAYBPM:143.000000;
#NOTES:
000000
000000
000000
000000
,
000000
000000
000000
000000
,
000000
000000
000000
000000
,
000000
000000
000000
000000
,
000001
100000
000000
000010
,
001000
001010
000100
100100
,
000010
000010
000010
001000
,
000001
000000
000001
100000
,
000010
001000
000000
001100
,
100000
110000
010000
010100
,
000010
000010
000010
001000
,
000001
000000
000001
100000
,
001000
001000
001000
100001
,
001000
000000
001000
000010
,
100000
000001
010000
001100
,
000000
100000
100000
000001
,
000000
000001
000001
100000
,
000100
000000
000100
010000
,
000001
100000
000010
001100
,
000000
100000
000100
010000
,
000000
000001
000100
000010
,
000000
001000
001000
001010
,
100010
100000
000100
100000
,
000001
000001
010000
000100
,
100000
000010
010000
000001
,
000000
001000
001000
001001
,
010001
010000
000010
100000
,
000001
000000
000001
100000
,
000100
000000
000100
001100
,
100000
110000
010000
010010
,
001000
000000
000010
100000
,
000100
000100
000100
100001
,
100000
110000
000001
000011
,
001000
001001
001010
001100
,
000001
000000
010000
000010
,
100000
100000
100000
001100
,
000100
010100
010000
010010
,
100000
000100
010000
000010
,
001000
000000
000011
001001
,
000010
000000
100000
100000
,
000100
100100
010100
001100
,
000010
000010
000010
000010
,
000001
000000
110000
101000
,
010000
000000
000001
000001
,
100000
100001
100010
100100
,
001000
001100
000100
001100
,
100000
000000
000001
001100
,
010000
010000
010000
010001
,
000100
001100
001000
001100
,
100000
100001
100010
100100
,
000100
000000
001000
001000
,
000001
000000
000000
000000
100000
000000
000001
001000
,
000100
000000
000000
000000
;

//---------------dance-solo - ----------------
#NOTEDATA:;
#CHARTNAME:;
#STEPSTYPE:dance-solo;
#DESCRIPTION:;
#CHARTSTYLE:;
#DIFFICULTY:Hard;
#METER:6;
#RADARVALUES:0.393171,0.422581,0.520100,0.000000,0.000000,254.000000,206.000000,48.000000,0.000000,0.000000,0.000000,0.000000,0.000000,0.000000,0.393171,0.422581,0.520100,0.000000,0.000000,254.000000,206.000000,48.000000,0.000000,0.000000,0.000000,0.000000,0.000000,0.000000;
#CREDIT:;
#DISPLAYBPM:143.000000;
#NOTES:
000000
000000
000000
000000
,
000000
000000
000000
000000
,
000000
000000
000000
000000
,
000000
000000
000000
000000
,
000001
100000
000000
000000
,
100000
000000
000010
000000
010000
000000
000001
001000
,
000000
110000
100100
100010
,
001000
001100
000100
100001
,
000010
010000
000000
000000
,
000010
000000
010000
000000
000001
000000
100000
000100
,
000000
010001
000101
000011
,
110000
000000
000000
000000
000000
000000
001000
001000
,
100000
100001
000100
001100
,
000000
001000
000001
100000
,
000010
010000
000100
100001
,
000000
000100
010000
000001
,
100000
000010
001000
010010
,
000000
000001
010000
000100
,
100000
000010
001000
100001
,
000000
010000
000001
001000
,
000100
100000
000010
001100
,
000000
100000
010100
000001
,
000110
000000
001000
000000
000100
000000
001000
001000
,
000001
000001
001000
100000
,
000000
100000
001000
000001
,
001000
011000
001100
001010
,
000100
001010
000100
011000
,
100000
000001
001000
100000
,
000000
100000
001000
000001
,
100001
100010
010000
001100
,
000000
001000
101000
001001
,
000010
010010
001000
001010
,
100000
000100
001000
000001
,
010000
000000
011000
000000
000010
000000
001010
001000
,
100000
100010
000001
010001
,
000100
100000
000010
000000
010000
000001
001000
001000
,
000100
010000
000001
001000
,
000010
000000
001010
000000
010001
010001
010001
000000
,
000000
000000
001000
000000
001000
000000
000001
100000
,
000100
000000
110000
000000
010000
000010
001000
001000
,
000001
100001
000100
001100
,
000010
100000
000001
010000
000100
100000
000010
001000
,
000000
000000
000100
000000
000100
000000
010000
000010
,
100000
000000
010100
000000
000010
001000
000001
000001
,
100000
110000
010000
010010
,
000100
100000
001000
010000
000001
100000
000010
000100
,
000000
000000
001000
000000
001000
000000
000001
100000
,
000100
000000
110000
000000
010000
000010
001000
001000
,
000001
100001
000100
001100
,
000010
100000
000001
010000
000100
100000
000010
001000
,
000000
000000
000100
000000
000100
000000
010000
000010
,
100000
000000
010100
000000
000010
001000
000001
000001
,
011000
000000
000000
000000
;

//---------------dance-single - ----------------
#NOTEDATA:;
#CHARTNAME:;
#STEPSTYPE:dance-single;
#DESCRIPTION:;
#CHARTSTYLE:;
#DIFFICULTY:Beginner;
#METER:3;
#RADARVALUES:0.156339,0.254158,0.043342,0.249214,0.000000,101.000000,97.000000,4.000000,23.000000,0.000000,0.000000,0.000000,0.000000,0.000000,0.156339,0.254158,0.043342,0.249214,0.000000,101.000000,97.000000,4.000000,23.000000,0.000000,0.000000,0.000000,0.000000,0.000000;
#CREDIT:;
#DISPLAYBPM:143.000000;
#NOTES:
0000
0000
0000
0000
,
0000
0000
0000
0000
,
0000
0000
0000
0000
,
0000
0000
0000
0000
,
0100
0100
0000
0000
,
0010
0010
0010
0020
,
0030
0020
0030
1000
,
0001
0000
0000
0000
,
0001
1000
0000
0000
,
0010
0010
0010
0020
,
0030
0020
0030
0100
,
2002
0000
3003
0000
,
0000
0000
0000
0000
,
0000
0001
0000
1000
,
0000
0010
0000
0100
,
0000
0001
0000
0010
,
0000
0100
0000
1000
,
0000
0010
0000
1000
,
0000
0001
0000
0100
,
0000
0010
0000
0100
,
0000
0001
0000
1000
,
0000
0100
0000
0010
,
0000
0001
0000
1000
,
0000
0001
0000
0100
,
0000
0010
0000
0100
,
0000
1000
0000
0001
,
0000
0100
0000
0010
,
0000
1000
0000
0001
,
2002
0000
0000
0000
,
3003
0000
0000
0100
,
0010
0000
0010
0000
,
1000
0001
1000
0001
,
0100
0000
0000
0000
,
0000
0000
0000
0010
,
0100
0000
0000
0000
,
1000
0001
1000
0001
,
0010
0000
0000
0000
,
0000
0000
0000
0000
,
0020
0030
0020
0030
0020
0030
0020
0000
,
0030
0020
0030
0100
,
2002
0000
0000
0000
,
3003
0000
0000
0000
,
0020
0030
0020
0030
0020
0030
0020
0000
,
0030
0020
0030
0010
,
0220
0000
0000
0000
,
0330
0000
0000
1000
,
0001
0000
1000
0000
,
0001
1000
0001
0100
,
0010
0000
0100
0000
,
0000
0000
0000
0010
,
1000
1000
0001
0001
,
0010
0100
0010
1000
,
0002
0003
0000
0000
0000
0000
0000
0000
;

//---------------dance-single - ----------------
#NOTEDATA:;
#CHARTNAME:;
#STEPSTYPE:dance-single;
#DESCRIPTION:;
#CHARTSTYLE:;
#DIFFICULTY:Challenge;
#METER:15;
#RADARVALUES:0.829683,0.800195,0.238379,0.119190,0.823491,536.000000,514.000000,22.000000,11.000000,0.000000,0.000000,0.000000,0.000000,0.000000,0.829683,0.800195,0.238379,0.119190,0.823491,536.000000,514.000000,22.000000,11.000000,0.000000,0.000000,0.000000,0.000000,0.000000;
#CREDIT:;
#DISPLAYBPM:143.000000;
#NOTES:
// measure 0
0000
0000
0000
0000
,  // measure 1
0000
0000
0000
0000
,  // measure 2
0000
0000
0000
0000
,  // measure 3
0000
0000
0000
0000
,  // measure 4
0010
0100
0010
0000
0100
0010
0100
0000
0000
0000
0110
0000
0110
0000
0000
0000
,  // measure 5
0020
1030
0010
0000
0020
0130
0010
0000
0020
0031
0010
0000
0100
0010
1000
0001
,  // measure 6
0010
0000
0000
0000
0100
0010
1000
0001
0010
0000
0000
0000
0001
0010
0100
1000
,  // measure 7
0001
0000
0101
0000
0100
0010
1000
0001
0010
0000
0100
0000
1000
0010
1000
0000
,  // measure 8
1000
0001
1000
0000
0001
0100
0001
0000
0010
0000
0001
0000
0100
0000
0010
0000
,  // measure 9
0020
0031
0010
0000
0020
0130
0010
0000
0020
1030
0010
0000
0010
0100
0001
1000
,  // measure 10
0100
0000
0000
0000
0010
0100
0001
1000
0100
0000
0000
0000
1000
0100
0010
0001
,  // measure 11
0100
0000
0110
0000
0010
0000
0000
0000
0001
0010
0100
0000
1100
0000
0000
0000
,  // measure 12
0022
0000
0000
0033
,  // measure 13
1100
0000
1000
0100
1000
0000
0010
0001
0010
0000
0100
0010
0100
0000
0001
1000
,  // measure 14
0001
0000
0010
0001
0010
0000
0100
0010
0100
0000
1000
0100
1000
0000
0001
0000
,  // measure 15
0100
0000
0001
0010
0001
0000
0010
0100
0010
0000
0100
1000
0100
0000
1000
0010
,  // measure 16
1000
0000
0010
0001
0010
0000
0100
0010
0100
0000
0001
0010
0001
0000
0100
0000
,  // measure 17
0010
0000
1000
0010
1000
0000
0010
0100
0010
0000
0001
0100
0001
0000
1000
0100
,  // measure 18
1000
0000
0010
0100
0010
0000
0001
0010
0001
0000
1000
0010
1000
0000
0100
0000
,  // measure 19
0010
0000
1000
0010
1000
0000
0001
0010
0001
0000
1000
0010
1000
0000
0100
0010
,  // measure 20
0100
0000
0001
0010
0001
0000
0100
0010
0100
0000
1000
0010
1000
0000
0010
0000
,  // measure 21
0001
0000
0100
0001
0100
0000
0010
1000
0010
0000
0100
0001
0100
0000
1000
0100
,  // measure 22
1000
0000
0010
0001
0010
0000
1000
0100
1000
0000
0010
0001
0010
0000
0100
0000
,  // measure 23
0001
0000
0010
0001
0010
0000
0100
1000
0100
0000
0010
0001
0010
0000
0100
1000
,  // measure 24
0100
0000
0001
0100
0001
0000
1000
0010
1000
0000
0001
0100
0001
0000
0010
0000
,  // measure 25
0100
0000
1000
0010
1000
0000
0100
0010
0100
0000
1000
0010
1000
0000
0100
0010
,  // measure 26
0100
0000
0001
0010
0001
0000
0100
0010
0100
0000
0001
0010
0001
0000
0100
0000
,  // measure 27
0010
0000
0001
0100
0001
0000
0010
0100
0010
0000
0001
0100
0001
0000
0010
0100
,  // measure 28
0010
0000
1000
0100
1000
0000
0010
0100
0010
0000
1000
0100
1000
0000
0020
0000
,  // measure 29
2000
0000
0000
0000
0000
3030
0001
0011
,  // measure 30
0100
1000
0100
0000
0010
0000
0001
0000
1000
0100
1000
0000
0010
0000
0100
0000
,  // measure 31
0001
0010
0001
0000
0100
0010
0100
0000
1000
0010
1000
0000
0001
0010
0100
1000
,  // measure 32
0010
0000
0110
0000
0100
0001
1000
0001
0010
0000
0110
0000
0100
0001
0100
0000
,  // measure 33
0010
1000
0010
0000
0001
0100
0001
0000
0010
1000
0010
0000
0001
0000
0101
0000
,  // measure 34
0100
1000
0100
0000
0001
0000
0010
0000
0100
0010
0100
0000
1000
0000
0010
0000
,  // measure 35
1000
0010
1000
0000
0001
0010
0001
0000
0100
0010
0100
0000
0001
1000
0001
1000
,  // measure 36
0010
0000
1010
0000
1000
0010
1000
0001
0100
0000
0110
0000
0010
1000
0010
0000
,  // measure 37
0001
0010
0001
0000
0100
0010
0100
0000
1000
0010
1000
0000
0010
0000
0100
0000
,  // measure 38
0010
0011
0010
0000
0010
0110
0010
0000
0010
1010
0010
0000
0010
1000
0001
0010
,  // measure 39
0100
0000
0000
0000
0100
0010
1000
0001
0010
0000
0000
0000
0100
0010
1000
0100
,  // measure 40
0010
0000
0110
0000
0100
0000
0001
0000
1000
0001
1000
0000
0001
0000
0010
0000
,  // measure 41
0100
0010
0100
0000
0010
1000
0010
0000
0001
0000
0010
0000
1000
0000
0100
0000
,  // measure 42
0010
1010
0010
0000
0010
0110
0010
0000
0010
0011
0010
0000
0001
0010
0100
1000
,  // measure 43
0010
0000
0000
0000
0001
0010
1000
0100
0010
0000
0000
0000
0001
0010
1000
0100
,  // measure 44
0010
0000
0011
0000
0001
0000
0100
0000
0010
1000
0010
0000
0001
0000
0100
0000
,  // measure 45
0010
1000
0010
0000
0001
0010
0001
0000
0100
0001
0100
0000
0010
0000
1010
0000
,  // measure 46
1000
0100
1000
0000
0010
0000
0001
0000
0100
1000
0100
0000
0010
0000
0001
0000
,  // measure 47
0010
1000
0010
0000
0001
0010
0001
0000
0100
0010
0100
0000
1000
0001
1000
0010
,  // measure 48
0100
1000
0100
0000
0010
0000
0001
0000
0100
0001
0100
0000
0010
0000
1000
0000
,  // measure 49
0001
0010
0001
0000
0010
0100
0010
0000
0100
1000
0100
0000
0001
0000
0010
0000
,  // measure 50
0100
0001
0100
0000
0010
0000
1000
0000
0010
1000
0010
0000
0001
0000
0010
0000
,  // measure 51
1000
0100
1000
0000
0010
0100
0010
0000
0001
0010
0001
0000
0100
0010
1000
0001
,  // measure 52
0020
0100
0000
0000
0000
0000
0030
0000
;
