#TITLE:TEST MY BEST;
#SUBTITLE:;
#ARTIST:E-ROTIC;
#TITLETRANSLIT:;
#SUBTITLETRANSLIT:;
#ARTISTTRANSLIT:;
#GENRE:;
#CREDIT:;
#BANNER:TEST MY BEST.png;
#BACKGROUND:TEST MY BEST-bg.png;
#LYRICSPATH:;
#CDTITLE:;
#MUSIC:TEST MY BEST.ogg;
#OFFSET:0.000000;
#SAMPLESTART:7.348000;
#SAMPLELENGTH:15.000000;
#SELECTABLE:YES;
#DISPLAYBPM:147.000000;
#BPMS:0.000000=146.860001
,4.000000=147.003006
;
#STOPS:
;
#BGCHANGES:;
#KEYSOUNDS:;
#ATTACKS:;

//---------------dance-single - ----------------
#NOTES:
     dance-single:
     :
     Beginner:
     3:
     0.148938,0.229790,0.191491,0.000000,0.000000,98.000000,80.000000,18.000000,0.000000,0.000000,0.000000,0.148938,0.229790,0.191491,0.000000,0.000000,98.000000,80.000000,18.000000,0.000000,0.000000,0.000000:
0000
0000
0000
0000
,
0000
0000
0000
0000
,
0000
0000
0000
0000
,
0000
0000
0000
0000
,
0000
0000
0000
0000
,
1001
0000
0000
0000
,
1000
0000
1000
0000
,
1001
0000
0000
0000
,
0001
0000
0001
0000
,
1001
0000
0000
0000
,
1000
0000
1000
0000
,
1001
0000
0000
0000
,
1001
0000
0000
0000
,
0110
0000
0000
0000
,
0001
0000
0001
0000
,
0110
0000
0000
0000
,
1000
0000
1000
0000
,
0110
0000
0000
0000
,
0001
0000
0001
0000
,
0110
0000
0000
0000
,
1001
0000
1001
0000
,
1000
0000
0000
0000
,
1000
1000
1000
0000
,
0010
0000
0000
0000
,
0010
0010
0010
0000
,
0001
0000
0000
0000
,
0001
0001
0001
0000
,
0100
0000
0000
0000
,
0100
0100
0100
0000
,
1000
0000
1000
0000
,
1000
0000
1000
0000
,
0100
0000
0100
0000
,
1001
0000
1001
0000
,
0001
0000
0001
0000
,
0001
0000
0001
0000
,
0010
0000
0010
0000
,
1001
0000
1001
0000
,
1001
0000
0000
0000
,
0010
0000
0000
0000
,
0010
0000
0010
0000
,
0100
0000
0000
0000
,
0100
0000
0100
0000
,
0010
0000
0000
0000
,
0010
0000
0010
0000
,
0110
0000
0000
0000
,
1001
0000
0000
0000
,
0010
0000
0000
0000
,
0001
0000
0001
0000
,
0010
0000
0000
0000
,
1000
0000
1000
0000
,
0010
0000
0000
0000
,
0001
0000
0001
0000
,
0010
0000
0000
0000
,
1000
0000
1000
0000
,
0100
0000
0000
0000
;

//---------------dance-single - ----------------
#NOTES:
     dance-single:
     :
     Easy:
     6:
     0.224926,0.287237,0.010638,0.000000,0.000000,148.000000,147.000000,1.000000,0.000000,0.000000,0.000000,0.224926,0.287237,0.010638,0.000000,0.000000,148.000000,147.000000,1.000000,0.000000,0.000000,0.000000:
0000
0000
0000
0000
,
0000
0000
0000
0000
,
0000
0000
0000
0000
,
0000
0000
0000
0000
,
0000
0000
0000
0000
,
0010
1000
0010
1000
,
0001
0000
0000
0000
,
0010
0001
0010
0001
,
1000
0000
0000
0000
,
0010
1000
0010
0100
,
0001
0000
0010
0100
,
1000
0000
0000
0000
,
0001
0000
0000
0000
,
0100
0001
0100
0001
,
1000
0000
0100
0000
,
0010
0001
0010
0001
,
1000
0000
0010
0000
,
1000
0100
0010
0001
,
0100
0010
0100
0100
,
0001
0000
0001
0000
,
0100
0001
0100
1000
,
0100
0000
0001
0001
,
0010
0000
0100
0100
,
0010
0000
0001
0001
,
1000
0000
0010
0010
,
0100
0000
0010
1000
,
0100
0000
1000
0001
,
0100
0000
0001
0010
,
0100
0000
1000
0010
,
1000
0000
0100
0000
,
0010
0010
0001
0001
,
1000
0000
0100
0000
,
0010
0010
0001
0001
,
1000
1000
0010
0010
,
0100
0100
0001
0001
,
0010
0010
0100
0100
,
1000
1000
0001
0001
,
1001
0000
0000
0000
,
0010
1000
0010
1000
,
0001
0000
0001
0000
,
0010
0001
0010
0001
,
1000
0000
0010
0000
,
1000
0001
0010
0100
,
1000
0000
0010
0100
,
0001
0000
1000
0000
,
0010
0000
0000
0000
,
1000
0010
0100
0001
,
1000
0000
0100
0000
,
0010
0001
0100
1000
,
0100
0000
0001
0000
,
1000
0100
0010
0001
,
0100
0010
0100
0100
,
0001
0000
0100
0000
,
0010
1000
0100
0001
,
0100
0000
0000
0000
;

//---------------dance-single - ----------------
#NOTES:
     dance-single:
     :
     Medium:
     9:
     0.300915,0.344685,0.095746,0.000000,0.000000,198.000000,189.000000,9.000000,0.000000,0.000000,0.000000,0.300915,0.344685,0.095746,0.000000,0.000000,198.000000,189.000000,9.000000,0.000000,0.000000,0.000000:
0000
0000
0000
0000
,
0000
0000
0000
0000
,
0000
0000
0000
0000
,
0010
0000
0001
0000
,
1000
0000
0010
1000
,
0001
0000
0000
0000
1000
0010
0100
0000
,
0001
0000
0010
0001
,
1000
0000
0000
0000
0010
1000
0001
0000
,
0010
0000
0100
1000
,
0001
0000
0000
0000
0100
0010
1000
0000
,
0100
0000
0010
0001
,
1000
0000
1000
0000
,
0010
0000
0100
0001
,
1000
0000
0000
0000
0001
0100
0010
0000
,
1000
0000
0100
1000
,
0001
0000
0000
0000
0100
0001
1000
0000
,
0100
0000
0010
0001
,
1000
0000
0000
0000
0010
0100
0001
0000
,
0010
0000
0100
1000
,
0001
0000
0000
0000
,
1000
0000
0000
0000
,
0010
0010
0010
0010
,
0100
0000
0100
0000
0100
1000
0100
0000
,
0001
0001
0001
0001
,
0010
0000
0010
0000
0010
0100
0010
0000
,
0001
0001
0001
0001
,
0100
0000
0100
0000
0100
1000
0100
0000
,
0001
0001
0001
0001
,
1000
0000
1000
0000
1000
0100
0010
0000
,
0001
0100
0001
0000
1000
0000
0100
0000
,
0001
0100
0001
0000
0100
0000
1000
0000
,
0010
1000
0010
0000
0100
0000
1000
0000
,
0100
1000
0100
0000
0001
0000
0010
0000
,
0100
0001
0100
0000
1000
0000
0001
0000
,
0100
1000
0100
0000
0001
0000
1000
0000
,
0100
0010
0100
0000
1000
0000
0010
0000
,
0100
0010
0100
0000
0001
0000
0010
0000
,
0110
0000
0110
1001
,
1000
0000
0000
0000
0001
0010
0100
0000
,
1000
0000
0010
1000
,
0001
0000
0000
0000
0010
0001
1000
0000
,
0010
0000
0110
1001
,
1000
0000
0000
0000
0100
0010
0001
0000
,
0100
0000
0010
1000
,
0001
0000
0001
0000
,
0010
0000
0011
1100
,
0001
0000
0000
0000
1000
0010
0100
0000
,
0001
0000
0010
0100
,
1000
0000
0000
0000
0010
0100
1000
0000
,
0100
0000
0101
1010
,
0001
0000
0000
0000
0010
0100
1000
0000
,
0010
0000
0100
0001
,
1000
1000
1000
1000
,
0001
0001
0001
0001
,
0010
0000
0000
0000
;

//---------------dance-single - ----------------
#NOTES:
     dance-single:
     :
     Hard:
     12:
     0.471130,0.545750,0.191491,0.000000,0.127661,310.000000,292.000000,18.000000,0.000000,0.000000,0.000000,0.471130,0.545750,0.191491,0.000000,0.127661,310.000000,292.000000,18.000000,0.000000,0.000000,0.000000:
0000
0000
0000
0000
,
0000
0000
0000
0000
,
0000
0000
0000
0000
,
1001
1001
1000
1000
,
1001
1001
0001
0001
,
1000
0010
1000
0000
0001
0000
0001
0000
,
1000
0100
1000
0000
0010
0000
0010
0000
,
0100
1000
0100
0000
0010
0000
0010
0000
,
1000
0100
1000
0000
0001
0000
1001
0000
,
0010
0001
0010
0000
0100
0000
0100
0000
,
1000
0010
1000
0000
0100
0000
0100
0000
,
0001
0100
0001
0000
0100
0000
0100
0000
,
1000
0001
1000
0000
0001
0000
1001
0000
,
0100
0010
1000
0000
0100
0000
0001
0000
,
0100
1000
0010
0000
0100
0000
0001
0000
,
0100
0010
1000
0000
0001
0000
1000
0000
,
0100
0010
0100
0000
1000
0000
1001
0000
,
0001
0100
1000
0000
0100
0000
0010
0000
,
1000
0100
0010
0000
0001
0000
0001
0000
,
0100
1000
0100
0000
0001
0000
0001
0000
,
0010
0100
1000
0000
0001
0000
1001
0000
,
1000
0100
1000
0100
1000
0100
1000
0100
,
0010
0100
0010
0100
0010
0100
0010
0001
,
0010
0001
0010
0001
0010
0001
0010
0001
,
0100
0000
0001
0000
0100
0000
0001
0000
0100
0000
0001
0000
0100
0001
1000
0001
,
0100
0010
0100
0010
0100
0010
0100
0010
,
1000
0100
1000
0100
1000
0100
1000
0100
,
0001
0100
0001
0100
0001
0100
0001
0100
,
1000
0000
0010
0000
1000
0000
0010
0000
1000
0000
0010
0000
1000
0010
0100
0010
,
1000
0000
0000
0001
0000
0000
0010
0000
0001
0000
0000
1000
0000
0000
0001
0000
,
0010
0000
0000
0001
0000
0000
0010
0000
0100
0000
0000
0100
0000
0000
1000
0001
,
0100
0000
0000
0010
0000
0000
1000
0000
0001
0000
0000
0001
0000
0000
0010
0000
,
0100
0000
0000
1000
0000
0000
0100
0000
0010
0000
0000
0001
0000
0000
1000
0010
,
0100
0000
0000
0001
0000
0000
0100
0000
0001
0000
0000
0001
0000
0000
1000
0000
,
0100
0000
0000
1000
0000
0000
0100
0000
0010
0000
0000
0010
0000
0000
0001
1000
,
0010
0000
0000
0100
0000
0000
0001
0000
1000
0000
0000
1000
0000
0000
0100
0000
,
0010
0000
0000
0001
0000
0000
0010
0000
0100
0000
0000
1000
0000
0000
0001
0100
,
0010
0000
0110
0110
,
0001
0010
0100
0000
0010
0000
0001
0000
,
1000
0010
0100
0000
0010
0000
1001
0000
,
0001
0010
0100
0000
0010
0000
0001
0000
,
1000
0010
0100
0000
0001
0000
1001
0000
,
0010
0100
1000
0000
0010
0000
0100
0000
,
0001
0010
0001
0000
0100
0000
1001
0000
,
0100
0010
0100
0000
0001
0000
1000
0000
,
0100
0010
0100
0000
1000
0000
1001
0000
,
0100
0010
0001
0000
0100
0000
1000
0000
,
0100
0001
0010
0000
0100
0000
1001
0000
,
0100
0010
0001
0000
1000
0000
0001
0000
,
0100
0010
0100
0000
0001
0000
1001
0000
,
1000
0100
0001
0000
0100
0000
0010
0000
,
0001
0100
0010
0000
1000
0000
1001
0000
,
0100
0001
0100
0000
1000
0000
1000
0000
,
0010
0100
0001
0000
1000
0000
1000
0000
,
1001
0000
0000
0000
;

//---------------dance-double - ----------------
#NOTES:
     dance-double:
     :
     Easy:
     3:
     0.231006,0.373408,0.127661,0.000000,0.000000,152.000000,140.000000,12.000000,0.000000,0.000000,0.000000,0.231006,0.373408,0.127661,0.000000,0.000000,152.000000,140.000000,12.000000,0.000000,0.000000,0.000000:
00000000
00000000
00000000
00000000
,
00000000
00000000
00000000
00000000
,
00000000
00000000
00000000
00000000
,
00000000
00000000
00000000
00000000
,
00000000
00000000
00010000
00001000
,
00100000
00000000
00000000
00000000
,
00010000
00000000
01000000
00100000
,
10000000
00000000
00000000
00000000
,
00010000
00000000
00000010
00001000
,
00000001
00000000
00000000
00000000
,
00000100
00000000
00010000
00001000
,
01000000
00000000
00000000
00000000
,
00010000
00000000
00100000
00010000
,
10000000
00000000
01000000
00000000
,
00001000
00000000
00010000
00000010
,
00000100
00000000
00010000
00000000
,
00000010
00000000
00010000
00001000
,
01000000
00000000
00010000
00000000
,
00100000
00000000
00001000
00010000
,
00000100
00000000
00000010
00000000
,
00000100
00000000
00010000
00000000
,
00011000
00000000
00000100
00000010
,
00000110
00000000
00000001
00001000
,
00001001
00000000
00000010
00010000
,
00011000
00000000
01000000
00100000
,
01100000
00000000
10000000
00010000
,
10010000
00000000
00100000
00001000
,
00011000
00000000
00001010
00001001
,
00000110
00000000
00000110
00001001
,
00000010
00000010
00001000
00000000
,
00000100
00001000
00100000
10000000
,
00010000
00010000
00100000
00000000
,
00001000
00000010
00000001
00000100
,
00000010
00000010
00010000
00000000
,
00001000
00100000
01000000
10000000
,
00100000
00100000
01000000
00000000
,
00001000
00010000
00000100
00001000
,
00000010
00000000
00010000
00001000
,
00100000
00100000
00100000
00000000
,
00010000
00000000
01000000
00100000
,
10000000
01000000
10000000
00000000
,
00010000
00000000
00000010
00001000
,
00000001
00000001
00000001
00000000
,
00000100
00000000
00010000
00001000
,
01000000
00100000
01000000
00000000
,
00010000
00000000
00100000
00010000
,
10000000
10000000
01000000
00000000
,
00001000
00000000
00010000
00000010
,
00000100
00010000
00001000
00000000
,
01000000
00000000
00010000
00001000
,
00010000
00010000
00010000
00000000
,
00100000
00000000
00001000
00010000
,
00000100
00000000
00000010
00000000
,
00000100
00000000
00010000
00001000
,
00010000
00000000
00000000
00000000
,
00000000
00000000
00000000
00000000
;

//---------------dance-double - ----------------
#NOTES:
     dance-double:
     :
     Medium:
     5:
     0.361706,0.402132,0.138299,0.000000,0.000000,238.000000,225.000000,13.000000,0.000000,0.000000,0.000000,0.361706,0.402132,0.138299,0.000000,0.000000,238.000000,225.000000,13.000000,0.000000,0.000000,0.000000:
00000000
00000000
00000000
00000000
,
00000000
00000000
00000000
00000000
,
00000000
00000000
00000000
00000000
,
00010000
00000000
00001000
00000000
,
01000000
01000000
01000000
01000000
,
00100000
10000000
00100000
10000000
00010000
00000000
00000000
00000000
,
01000000
00000000
00001000
00010000
,
00000010
00001000
00000010
00001000
00000001
00000000
00000000
00000000
,
00000100
00000000
00010000
01000000
,
00010000
00100000
00010000
00100000
01000000
00000000
00000000
00000000
,
10000000
00000000
00010000
01000000
,
00100000
00000000
10000000
00000000
,
00010000
00010000
01000000
01000000
,
00001000
00010000
00001000
00010000
00000100
00000000
00000000
00000000
,
00000001
00000000
00000100
00010000
,
00000010
00001000
00000010
00001000
00000100
00000000
00010000
00000000
,
00001000
01000000
01100000
01100000
,
00010000
10000000
00010000
10000000
00100000
00000000
00000000
00000000
,
01000000
00000000
10000000
01000000
,
00001000
00010000
00001000
00010000
00000010
00000000
00000100
00000000
,
00000001
00001000
00000100
00000100
,
00000010
00000001
00000100
00001000
,
00100000
00010000
10000000
10000000
,
01000000
00010000
00000100
00000001
,
00000100
00001000
00000010
00000010
,
00010000
00100000
10000000
01000000
,
00100000
00001000
00000010
00000010
,
00000001
00000100
00001000
01000000
,
00100000
10000000
01000000
00010000
,
00011000
00000000
00000100
00000000
00001000
00010000
01000000
00000000
,
10010000
00000000
01000000
00000000
00010000
10000000
01000000
00000000
,
10010000
00000000
01000000
00000000
00010000
00001000
00000100
00000000
,
00011000
00000000
00000100
00000000
00001000
00000001
00000100
00000000
,
00000110
00000000
00000001
00000000
00001000
00000100
00010000
00000000
,
00011000
00000000
00000100
00000000
00010000
00100000
01000000
00000000
,
01100000
00000000
10000000
00000000
00010000
01000000
00001000
00000000
,
00011000
00000000
01000000
00000000
00001000
00000010
00000100
00000000
,
00000110
00000000
00000100
00000100
,
00000010
00000001
00000010
00000001
00001000
00000000
00000010
00000000
,
00010000
00000000
00000000
00000000
00001000
00010000
00001000
00000000
,
00100000
00010000
00100000
00010000
10000000
00000000
01000000
00000000
,
00100000
00000000
00000000
00000000
00001000
00010000
00000100
00000000
,
00001000
00000010
00001000
00000010
00000100
00000000
00000001
00000000
,
00000010
00000100
00000001
00000100
,
00001000
00000000
00000001
00001000
,
00000010
00001000
00000100
00000100
,
00010000
00001000
00010000
00001000
01000000
00000000
00100000
00000000
,
10000000
00000000
00000000
00000000
00010000
01000000
00100000
00000000
,
01000000
00010000
01000000
00010000
00100000
00000000
00001000
00000000
,
00010000
00000010
00000110
00000110
,
00001000
00000001
00001000
00000001
00000100
00000000
00000010
00000000
,
00010000
00001000
10000000
00100000
,
01000000
10000000
01000000
10000000
01000000
00000000
00001000
00000000
,
00010000
00000100
00000010
00000010
,
00000010
00000000
00000000
00000000
,
00000000
00000000
00000000
00000000
;

//---------------dance-double - ----------------
#NOTES:
     dance-double:
     :
     Hard:
     7:
     0.486327,0.515830,0.372344,0.000000,0.000000,320.000000,285.000000,35.000000,0.000000,0.000000,0.000000,0.486327,0.515830,0.372344,0.000000,0.000000,320.000000,285.000000,35.000000,0.000000,0.000000,0.000000:
00000000
00000000
00000000
00000000
,
00000000
00000000
00000000
00000000
,
00000000
00000000
00000000
00000000
,
00010000
00000000
00010000
00000000
,
00010000
00000000
00010000
00010000
,
00010000
00100000
00010000
10000000
00010000
01000000
00001000
00010000
,
00000100
00000010
00000100
00001000
00000010
00000000
00001000
00000000
,
00000001
00000010
00000001
00001000
00000001
00000100
00000010
00001000
,
00000001
00000100
00000010
00000100
00000001
00000000
00000001
00000000
,
00000001
00000010
00000001
00001000
00000001
00000100
00000010
00010000
,
00001000
01000000
00100000
00000000
10000000
00000000
10000000
00000000
,
10010000
00000000
00010000
00010000
,
10010000
00000000
01000000
01000000
,
00010000
01000000
00010000
10000000
00010000
00100000
00001000
00010000
,
00000100
00000010
00000100
00001000
00000010
00000000
00010000
00000000
,
00001000
00010000
00001000
01000000
00001000
00010000
00000100
00001000
,
00000001
00000010
00000100
00000010
00000001
00000000
00000001
00000000
,
00000001
00000100
00000001
00001000
00000001
00000010
00000100
00010000
,
00001000
00100000
01000000
00000000
10000000
00000000
10000000
00000000
,
10010000
00000000
00010000
00010000
,
10010000
00000000
00000000
00000000
10000000
00010000
01000000
00100000
,
10000000
00000000
00000000
00000000
10000000
01000000
00100000
00001000
,
00010000
00000100
00000010
00000001
00000100
00000010
00001000
00000100
,
00010000
00000000
00000000
00000000
00010000
00001000
00100000
01000000
,
10000000
00010000
01000000
00001000
00010000
00000010
00001000
00000001
,
00000100
00000000
00000000
00000000
00000100
00000010
00010000
00001000
,
01000000
00010000
10000000
01000000
00100000
00001000
00010000
00000100
,
00000010
00000000
00000000
00000000
00000010
00000001
00000100
00000010
,
00001000
00000000
00000000
00000000
00001000
00000100
00010000
00001000
,
00011000
00011000
00110000
00110000
,
10010000
10010000
01010000
01010000
,
00011000
00011000
00001100
00001100
,
00001001
00001001
00001010
00001010
,
00010000
00001000
01000000
00000000
01100000
00000000
01100000
00000000
,
00100000
10000000
01000000
00000000
01100000
00000000
01100000
00000000
,
00001000
00000100
00001000
00000000
00001100
00000000
00001001
00000000
,
00000010
00010000
00001000
00000000
00011000
00000000
01010000
00000000
,
10010000
00000000
00011000
00001001
,
00001000
00000010
00001000
00000001
00001000
00000100
00010000
00001000
,
01000000
00100000
01000000
00010000
00100000
00000000
00001000
00000000
,
00000010
00001000
00000001
00001000
00010000
00001000
00100000
00010000
,
10000000
01000000
00100000
01000000
10000000
00000000
10000000
00000000
,
10000000
00100000
10000000
00010000
10000000
01000000
00100000
00001000
,
00010000
00000100
00000010
00000000
00000001
00000000
00000001
00000000
,
00001001
00000000
00000100
00010000
,
00011000
00000000
00100000
00100000
,
00010000
00100000
00010000
10000000
00010000
01000000
00001000
00010000
,
00000100
00000001
00000100
00001000
00000010
00000000
00010000
00000000
,
00001000
00010000
00001000
01000000
00001000
00010000
00000010
00001000
,
00000001
00000100
00000010
00000100
00000001
00000000
00000001
00000000
,
00000001
00000010
00000001
00001000
00000001
00000100
00000010
00010000
,
00001000
01000000
00100000
00000000
10000000
00000000
10000000
00000000
,
10010000
00000000
01000000
00001000
,
00011000
00000000
00000000
00000000
00000100
00001000
00000010
00010000
,
00000000
00000000
00000000
00000000
;

//---------------dance-single - ----------------
#NOTES:
     dance-single:
     :
     Challenge:
     16:
     0.890587,0.967630,0.265960,0.180853,1.031926,586.000000,561.000000,25.000000,17.000000,0.000000,0.000000,0.890587,0.967630,0.265960,0.180853,1.031926,586.000000,561.000000,25.000000,17.000000,0.000000,0.000000:
// measure 0
0000
0000
0000
0000
,  // measure 1
0000
0000
0000
0000
,  // measure 2
0000
0000
0000
0000
,  // measure 3
2000
0001
3002
1000
,  // measure 4
2003
0000
0000
0000
3001
0000
1000
0001
0100
0001
0000
0001
0010
0000
0000
0000
,  // measure 5
0011
0000
0000
0010
0100
0000
1000
0100
1000
0000
0010
0000
0100
0010
0001
0100
,  // measure 6
1000
0000
0010
1000
0010
0000
0001
1000
0100
0000
0000
0000
0101
0000
0000
0000
,  // measure 7
1010
0000
0000
0010
1000
0000
0100
1000
0100
0000
0010
0000
1000
0100
0010
0002
,  // measure 8
1000
0000
1000
0000
1000
0000
0103
0010
0001
0000
0000
0000
0011
0000
0000
0000
,  // measure 9
0101
0000
0001
1000
0100
0000
1000
0000
0010
1000
0001
0000
0100
0010
0001
0010
,  // measure 10
0100
0000
1000
0010
0100
0000
0001
0000
0101
0000
0100
0000
0110
0000
0100
0000
,  // measure 11
1000
0100
0010
0100
1000
0000
0010
1000
0001
0000
0000
0001
0100
0000
0010
0000
,  // measure 12
1000
0010
0000
0010
0100
0000
0001
1000
0100
1000
0000
0100
0010
0000
0001
0000
,  // measure 13
0011
0000
0000
0001
1000
0000
0100
1000
0010
0000
1000
0000
0010
1000
0010
0100
,  // measure 14
0001
0000
0010
0001
0100
0000
0001
0010
0100
0000
1000
0000
1001
0000
0000
0000
,  // measure 15
1100
0000
0000
1000
0100
0000
1000
0010
0100
0000
0001
0000
0010
0001
0100
0020
,  // measure 16
1000
0000
0100
0000
0130
0000
0010
0001
1000
0000
0000
0000
1001
0000
0000
0000
,  // measure 17
0101
0000
0000
0100
0010
0000
1000
0010
0100
0000
0001
0000
1000
0100
0010
0001
,  // measure 18
1000
0000
0001
0010
0100
0000
1000
0000
1100
0000
0110
0000
0101
0000
0000
0000
,  // measure 19
0100
1000
0010
0100
1000
0000
0010
0100
0001
0000
1000
0000
0001
0100
0010
0000
,  // measure 20
1000
0000
1000
0000
0100
0000
0100
0000
0010
0001
0100
0010
1000
0001
0100
0001
,  // measure 21
0010
0001
0010
0001
0100
0001
0100
0001
1000
0001
1000
0001
0100
0001
0100
0001
,  // measure 22
0020
0031
0100
0010
1000
0001
0010
0100
,  // measure 23
1000
0100
1000
0100
0010
0100
0010
0100
0001
0100
0001
0100
0010
0100
0010
0100
,  // measure 24
1000
0000
0100
0000
0010
0000
0001
0000
0020
0000
0001
0000
0130
0001
1000
0001
,  // measure 25
0010
0000
0001
0100
0010
0000
1000
0010
0000
0010
0100
0000
0001
1000
0100
0010
,  // measure 26
0001
0000
1000
0001
0100
0000
0001
0010
0000
0100
1000
0000
0001
0100
0010
1000
,  // measure 27
0100
0000
1000
0010
0100
0000
0001
0010
0000
0100
1000
0000
1000
0010
0100
0002
,  // measure 28
2000
0000
3000
0000
1000
0000
0000
1000
0000
0000
1000
0000
1003
0100
0010
0001
,  // measure 29
1000
0000
0001
0100
0000
0010
1000
0000
0100
1000
0000
0100
1000
0000
0010
0000
,  // measure 30
1000
0100
0010
0100
1000
0000
0100
1000
0010
0000
0100
0000
1000
0000
0100
0000
,  // measure 31
0001
0000
0010
0001
0100
0000
0010
0100
1000
0000
0100
1000
0010
0000
0100
0001
,  // measure 32
0020
0000
0000
0001
0000
0000
0001
0000
0031
0000
0100
0010
0000
1000
0100
0010
,  // measure 33
0001
0000
0100
0000
0001
0000
1000
0100
0010
0000
0100
0000
1000
0000
0100
1000
,  // measure 34
0010
0000
0100
0001
0010
0000
0100
0010
0100
0000
0110
0000
0110
0000
0010
0100
,  // measure 35
1000
0000
0100
0000
1000
0000
0100
0000
0010
0000
0001
0000
0010
0000
0001
1000
,  // measure 36
0001
0100
0001
0100
0010
1000
0010
1000
0001
1000
0001
1000
0100
1000
0010
0100
,  // measure 37
0002
0000
0000
0000
0103
0000
0010
0100
0010
0100
0000
0100
0010
0000
0001
0000
,  // measure 38
0010
0100
1000
0000
0001
0000
1000
0100
0010
0000
0001
0000
1000
0010
0100
0001
,  // measure 39
0010
0000
0001
1000
0100
0000
0010
0100
0001
0000
1001
0000
0110
0000
1100
0000
,  // measure 40
1000
0010
0100
0001
0010
0000
0001
0010
0100
0000
1000
0000
0100
1000
0100
1000
,  // measure 41
0200
0000
0010
0000
1300
0000
0100
0010
0001
1000
0000
1000
0001
0000
0100
0000
,  // measure 42
0001
0100
1000
0000
0010
0000
0001
0010
0100
1000
0010
0000
1000
0010
0100
0001
,  // measure 43
0010
0000
0001
0100
0010
0000
1000
0010
0200
0000
0301
0000
0101
0000
1001
0000
,  // measure 44
0001
0010
0100
1000
0001
0000
1000
0001
0010
0000
0100
0000
1000
0000
0010
0000
,  // measure 45
0110
0000
0100
1000
0001
0000
0010
0100
1000
0001
0000
0001
0010
0000
0110
0000
,  // measure 46
0100
1000
0100
0000
0010
0000
0001
0000
0100
0010
0001
0010
1000
0001
0100
0001
,  // measure 47
0010
0000
0010
0100
1000
0000
1000
0001
0100
0010
0000
0100
0010
0000
1010
0000
,  // measure 48
1000
0010
0001
0000
0001
0000
0010
0100
1000
0100
0010
0001
0100
0010
1000
0001
,  // measure 49
0020
0000
0100
0000
0032
0000
0013
0001
1000
0001
0000
0001
0200
0000
0301
0010
,  // measure 50
0100
1000
0100
0000
1000
0010
0100
0001
0010
0001
0100
0010
1000
0001
0100
0010
,  // measure 51
1000
0000
0100
1000
0010
0000
0010
0100
0001
0010
0000
1000
0100
0000
0000
0000
,  // measure 52
0010
0100
0001
1000
0100
0010
0100
0010
1000
0001
1000
0001
0100
1000
0100
1000
,  // measure 53
0010
0100
0010
0100
0001
0010
0001
0010
0100
1000
0100
1000
0001
0010
0100
1000
,  // measure 54
0200
0000
0000
0000
,  // measure 55
0000
0300
0000
0000
0000
0000
0000
0000
;
