#VERSION:0.83;
#TITLE:TENSHI;
#SUBTITLE:;
#ARTIST:GOURYELLA;
#TITLETRANSLIT:;
#SUBTITLETRANSLIT:;
#ARTISTTRANSLIT:;
#GENRE:;
#ORIGIN:;
#CREDIT:;
#BANNER:TENSHI.png;
#BACKGROUND:TENSHI-bg.png;
#PREVIEWVID:;
#JACKET:TENSHI-jacket.png;
#CDIMAGE:;
#DISCIMAGE:;
#LYRICSPATH:;
#CDTITLE:;
#MUSIC:TENSHI.ogg;
#OFFSET:0.000000;
#SAMPLESTART:57.400002;
#SAMPLELENGTH:15.000000;
#SELECTABLE:YES;
#DISPLAYBPM:138.000000;
#BPMS:0.000=137.800,
4.000=138.000;
#STOPS:;
#DELAYS:;
#WARPS:;
#TIMESIGNATURES:0.000=4=4;
#TICKCOUNTS:0.000=4;
#COMBOS:0.000=1;
#SPEEDS:0.000=1.000=0.000=0;
#SCROLLS:0.000=1.000;
#FAKES:;
#LABELS:0.000=Song Start;
#BGCHANGES:0.000=TENSHI.avi=1.000=0=0=0=StretchNoLoop====,
99999=-nosongbg-=1.000=0=0=0 // don't automatically add -songbackground-
;
#KEYSOUNDS:;
#ATTACKS:
;

//---------------dance-single - ----------------
#NOTEDATA:;
#CHARTNAME:;
#STEPSTYPE:dance-single;
#DESCRIPTION:;
#CHARTSTYLE:;
#DIFFICULTY:Beginner;
#METER:1;
#RADARVALUES:0.098844,0.165911,0.019490,0.000000,0.000000,71.000000,69.000000,2.000000,0.000000,0.000000,0.000000,0.000000,0.000000,0.000000,0.098844,0.165911,0.019490,0.000000,0.000000,71.000000,69.000000,2.000000,0.000000,0.000000,0.000000,0.000000,0.000000,0.000000;
#CREDIT:;
#DISPLAYBPM:138.000000;
#NOTES:
0000
0000
0000
0000
,
0000
0000
0000
0000
,
0000
0000
0000
0000
,
0000
0000
0000
0000
,
0000
0000
0000
0000
,
0001
0000
0000
0000
,
0100
0000
0000
0000
,
1000
0000
0000
0000
,
0000
0000
0000
0000
,
1000
0000
0000
0000
,
0100
0000
0000
0000
,
0001
0000
0000
0000
,
0000
0000
0000
0000
,
0010
0000
0000
0000
,
0000
0000
0000
0000
,
0010
0000
0000
0000
,
0000
0000
0000
0000
,
0001
0000
0001
0000
,
0001
0000
0000
0000
,
0100
0000
0100
0000
,
0100
0000
0000
0000
,
1000
0000
1000
0000
,
1000
0000
0000
0000
,
0100
0000
0100
0000
,
0100
0000
0000
0000
,
0001
0000
0001
0000
,
0001
0000
0000
0000
,
0010
0000
0010
0000
,
0010
0000
0000
0000
,
1000
0000
1000
0000
,
1000
0000
0000
0000
,
0010
0000
0010
0000
,
0010
0000
0000
0000
,
0001
0000
0001
0000
,
0100
0000
0000
0000
,
1000
0000
1000
0000
,
0100
0000
0000
0000
,
0010
0000
0010
0000
,
0010
0000
0000
0000
,
0100
0000
0100
0000
,
0100
0000
0000
0000
,
0001
0000
0001
0000
,
0010
0000
0000
0000
,
1000
0000
1000
0000
,
0010
0000
0000
0000
,
0001
0000
0001
0000
,
1000
0000
1000
0000
,
0001
0000
1000
0000
,
1001
0000
0000
0000
,
0001
0000
0000
0000
,
0100
0000
0000
0000
,
1000
0000
0000
0000
,
0100
0000
0000
0000
,
0001
0000
0001
0000
,
0100
0000
0100
0000
,
1000
0000
1000
0000
,
0001
0000
0000
1001
,
0000
0000
0000
0000
;

//---------------dance-single - ----------------
#NOTEDATA:;
#CHARTNAME:;
#STEPSTYPE:dance-single;
#DESCRIPTION:;
#CHARTSTYLE:;
#DIFFICULTY:Easy;
#METER:4;
#RADARVALUES:0.168452,0.248867,0.029235,0.136432,0.000000,121.000000,118.000000,3.000000,14.000000,0.000000,0.000000,0.000000,0.000000,0.000000,0.168452,0.248867,0.029235,0.136432,0.000000,121.000000,118.000000,3.000000,14.000000,0.000000,0.000000,0.000000,0.000000,0.000000;
#CREDIT:;
#DISPLAYBPM:138.000000;
#NOTES:
0000
0000
0000
0000
,
0000
0000
0000
0000
,
0000
0000
0000
0000
,
0000
0000
0000
0000
,
0000
0000
0000
0000
,
0200
0000
0000
0300
,
0002
0000
0000
0003
,
0020
0000
0000
0000
,
0000
0000
0030
0000
,
0200
0000
0000
0300
,
2000
0000
0000
3000
,
0020
0000
0000
0000
,
0000
0000
0030
0000
,
0200
0000
0000
0000
,
0000
0000
0300
0000
,
0020
0000
0000
0000
,
0000
0000
0030
0000
,
0100
0000
0100
0100
,
0001
0000
0001
0000
,
1000
0000
1000
1000
,
0010
0000
0010
0000
,
0100
0000
0100
0100
,
0001
0000
0100
0000
,
0001
0000
1000
1000
,
0010
0000
1000
0000
,
0001
0000
0001
0001
,
0100
0000
0100
0100
,
1000
0000
1000
1000
,
0010
0000
0010
0010
,
0001
0000
0100
0000
,
1000
0000
0010
0000
,
0001
1000
0010
0010
,
2002
0000
0000
3003
,
0100
0100
0000
0100
,
0010
1000
0000
1000
,
0001
0100
0000
0100
,
0001
0010
0000
0010
,
0100
1000
0000
1000
,
0001
0100
0000
0100
,
0010
0100
0000
0100
,
0001
1000
0000
0001
,
0100
1000
0000
0001
,
0100
1000
0000
0010
,
0100
0001
0000
0010
,
0100
1000
0000
0001
,
0010
1000
0000
0001
,
0010
1000
0000
0001
,
0100
0100
0100
0100
,
0220
0000
0000
0330
,
0001
0000
0100
0010
,
0001
0000
0100
0010
,
0001
0000
0100
0010
,
1000
0000
0010
0100
,
2000
0000
0000
3000
,
0002
0000
0000
0003
,
0010
0010
0010
0010
,
0100
0100
0100
1001
,
0000
0000
0000
0000
;

//---------------dance-single - ----------------
#NOTEDATA:;
#CHARTNAME:;
#STEPSTYPE:dance-single;
#DESCRIPTION:;
#CHARTSTYLE:;
#DIFFICULTY:Medium;
#METER:8;
#RADARVALUES:0.304884,0.359475,0.185158,0.185158,0.000000,219.000000,200.000000,19.000000,19.000000,0.000000,0.000000,0.000000,0.000000,0.000000,0.304884,0.359475,0.185158,0.185158,0.000000,219.000000,200.000000,19.000000,19.000000,0.000000,0.000000,0.000000,0.000000,0.000000;
#CREDIT:;
#DISPLAYBPM:138.000000;
#NOTES:
0000
0000
0000
0000
,
0000
0000
0000
0000
,
0000
0000
0000
0000
,
0000
0000
0000
0000
,
0000
0000
0000
0000
,
0021
0000
0001
0030
,
1200
0000
1000
0300
,
0210
0000
0010
0000
,
0020
0000
0000
0330
,
0020
0100
1000
0130
,
0002
0100
1000
0103
,
0200
0001
0010
0301
,
0020
1000
0100
1030
,
2002
0000
0000
0000
,
0000
0000
0000
3003
,
0200
0000
0000
0000
,
0020
0000
0000
0330
,
0010
0010
0001
0010
,
0100
1000
0100
1001
,
0100
0100
0001
1000
,
0100
0000
0010
0000
0001
1000
0001
0000
,
1000
1000
0001
0001
,
1000
0001
0010
1100
,
1000
1000
0001
0001
,
0100
0001
0100
0000
0010
0000
0100
0000
,
0001
0100
1000
0100
,
0010
1100
0010
0010
,
0001
0100
0001
0000
0010
0000
0001
0000
,
1000
0001
1000
0000
0010
0000
1000
0000
,
0001
0100
0010
1100
,
0010
1000
0001
0101
,
2000
0100
3002
0103
,
2002
0000
0000
3003
,
0001
0010
0000
0010
0000
0010
0000
0011
,
0000
0100
0000
0100
0000
1000
0000
1000
,
0100
1000
0000
1000
0000
1000
0000
1100
,
0000
0010
0000
0010
0000
0100
0000
0100
,
0001
0100
0000
0100
0000
0010
0000
1000
,
0000
0001
0000
0100
0000
0100
0000
0010
,
0100
0010
0000
0010
0000
0001
0000
1000
,
0000
0010
0000
0100
0000
1010
0000
1001
,
0000
0010
0000
0010
0000
0010
0100
0010
,
0000
1000
0000
1000
0000
0001
0100
0001
,
0000
1000
0000
1100
0000
0010
0000
0001
,
0000
0100
0000
0101
0000
0010
0000
1000
,
0010
0100
0000
0001
0000
1000
0000
0010
,
0100
0001
0000
1000
0000
0010
0000
0100
,
0010
0100
0000
0001
0000
1000
0000
0100
,
0200
0000
0000
0300
,
1000
0000
1100
0000
0010
0001
0100
0000
,
0010
0000
0010
0000
1000
0100
0001
0000
,
0010
0000
0101
0000
0010
1000
0100
0000
,
0001
0100
0001
0000
0001
0100
1000
0000
,
0002
0100
0010
0100
,
2003
0100
0010
0100
,
3001
0100
1000
0010
,
0001
0100
1000
0100
0001
0000
1001
0000
,
0000
0000
0000
0000
;

//---------------dance-single - ----------------
#NOTEDATA:;
#CHARTNAME:;
#STEPSTYPE:dance-single;
#DESCRIPTION:;
#CHARTSTYLE:;
#DIFFICULTY:Hard;
#METER:11;
#RADARVALUES:0.470552,0.497734,0.126687,0.048726,0.063344,338.000000,325.000000,13.000000,5.000000,0.000000,0.000000,0.000000,0.000000,0.000000,0.470552,0.497734,0.126687,0.048726,0.063344,338.000000,325.000000,13.000000,5.000000,0.000000,0.000000,0.000000,0.000000,0.000000;
#CREDIT:;
#DISPLAYBPM:138.000000;
#NOTES:
0000
0000
0000
0000
,
0000
0000
0000
0000
,
0000
0000
0000
0000
,
0000
0000
0000
0000
,
0000
0000
0000
0000
,
0000
0001
0000
0001
0000
0001
0000
0001
,
0000
0010
0000
0010
0000
0010
0000
0010
,
0000
1000
0000
1000
0000
1000
0000
1000
,
0000
1000
0000
1000
0000
0100
0000
0100
,
0001
0010
0000
0010
0000
0010
0000
0010
,
0000
0100
0000
0100
0000
0100
0000
0100
,
0010
1000
0000
1000
0000
1000
0000
1000
,
0100
0001
0000
0001
0000
1000
0000
1000
,
0200
0010
0000
0010
0000
0010
0000
0010
,
0000
1000
0000
1000
0000
0010
0300
0010
,
0002
1000
0000
1000
0000
1000
0000
1000
,
0000
0100
0000
0100
0000
0100
0003
0100
,
1001
0001
1000
0001
0000
0001
1000
0001
,
0100
0010
0100
0010
0000
0100
0000
0001
,
1000
0010
1000
0010
0000
0001
1000
0001
,
0100
0010
0100
0010
0000
1000
0000
0001
,
0010
1000
0010
1000
0000
0001
0010
0001
,
1000
0100
1000
0100
0000
1000
0000
0001
,
0010
0100
0010
0100
0000
1000
0010
1000
,
0001
0010
0001
0010
0000
0001
0000
0100
,
0010
1000
0010
1000
0000
0001
1000
0001
,
0100
0010
0100
0010
0000
0100
0001
0100
,
0001
0010
0001
0010
0000
0100
1000
0100
,
0010
0001
0010
0001
0000
1000
0100
1000
,
0001
1000
0001
1000
0001
1000
0001
1000
,
0100
0010
0100
0010
0100
0010
0100
0010
,
0001
0010
0001
0010
1000
0010
1000
0010
,
0002
0100
0000
0100
0000
0100
0003
0100
,
1001
0001
0010
0001
0100
0001
1000
0001
,
0100
0010
0100
1000
0100
0010
0100
0001
,
1000
0100
1000
0001
1000
0010
1000
0001
,
0010
0100
0010
0001
0010
1000
0010
0100
,
1000
0010
1000
0100
0001
0100
1000
0010
,
1000
0100
0001
0100
1000
0010
1000
0100
,
1000
0001
0010
0001
0100
1000
0100
0001
,
0010
0001
0100
1000
0100
0001
0010
1001
,
0000
0001
0001
0100
0000
0100
0001
1000
,
0000
0100
0100
0010
0000
0010
0001
1000
,
0000
1010
1000
0100
0000
0010
0010
0100
,
0000
1010
0100
0001
0000
0110
1000
0001
,
0000
0100
0010
1000
0001
0100
0001
1000
,
0010
1000
0001
0100
0010
0001
0010
0100
,
0001
0010
0010
0100
0100
1000
1000
0010
,
2002
0000
0000
3003
,
0100
0000
1001
0000
0010
1000
0010
0000
,
0100
0000
0011
0000
1000
0100
0001
0000
,
0010
0000
1100
0000
0001
0010
0100
0000
,
1000
0000
0000
0000
0101
0000
0000
0000
0110
0000
0000
0110
0000
0000
0000
0000
,
0010
0000
0100
0000
0010
0000
1000
0100
0000
1000
0000
0100
1000
0000
0000
0000
,
0010
0000
0100
0000
0010
0000
0100
0001
0000
0010
0000
0001
0100
0000
0000
0000
,
1000
0000
0100
0000
1000
0000
0010
0100
0000
0001
0000
0100
0010
0000
0000
0000
,
0001
0000
0100
0000
0001
0000
1000
0100
0000
0010
0000
0001
0100
0000
0000
0000
,
0000
0000
0000
0000
;

//---------------dance-double - ----------------
#NOTEDATA:;
#CHARTNAME:;
#STEPSTYPE:dance-double;
#DESCRIPTION:;
#CHARTSTYLE:;
#DIFFICULTY:Easy;
#METER:4;
#RADARVALUES:0.157315,0.221215,0.048726,0.146177,0.000000,113.000000,108.000000,5.000000,15.000000,0.000000,0.000000,0.000000,0.000000,0.000000,0.157315,0.221215,0.048726,0.146177,0.000000,113.000000,108.000000,5.000000,15.000000,0.000000,0.000000,0.000000,0.000000,0.000000;
#CREDIT:;
#DISPLAYBPM:138.000000;
#NOTES:
00000000
00000000
00000000
00000000
,
00000000
00000000
00000000
00000000
,
00000000
00000000
00000000
00000000
,
00000000
00000000
00000000
00000000
,
00000000
00000000
00000000
00000000
,
00000020
00000000
00000000
00000030
,
00002000
00000000
00000000
00003000
,
00020000
00000000
00000000
00000000
,
00000000
00000000
00000000
00030000
,
00200000
00000000
00000000
00300000
,
02000000
00000000
00000000
03000000
,
20000000
00000000
00000000
30000000
,
00020000
00000000
00000000
00030000
,
00002000
00000000
00000000
00000000
,
00000000
00000000
00000000
00003000
,
00000002
00000000
00000000
00000000
,
00000000
00000000
00000000
00000003
,
00000100
00000000
00000100
00000000
,
00001000
00000000
00001000
00000000
,
00010000
00000000
00010000
00000000
,
00100000
00000000
00100000
00000000
,
01000000
00000000
01000000
00000000
,
00100000
00000000
00100000
00000000
,
10000000
00000000
10000000
00000000
,
01000000
00000000
00100000
00000000
,
00001000
00001000
00001000
00000000
,
00010000
00000000
00010000
00000000
,
00000100
00000100
00000100
00000000
,
00000010
00000000
00000010
00000000
,
00000001
00000001
00000001
00000000
,
00001000
00001000
00001000
00000000
,
00000010
00000000
00000100
00000000
,
00022000
00000000
00000000
00033000
,
00100000
00100000
00000000
01000000
,
01000000
10000000
00000000
00100000
,
00100000
00010000
00000000
00001000
,
00000100
00000100
00000000
00000010
,
00000100
00000010
00000000
00000001
,
00001000
00001000
00000000
00001000
,
00000010
00000010
00000000
00000100
,
00010000
00010000
00000000
00010000
,
00011000
00000000
00100000
00100000
,
01000000
00100000
00000000
00010000
,
10000000
00010000
00000000
00001000
,
00010000
00001000
00000000
00001000
,
00000010
00001000
00000000
00000001
,
00000000
00000100
00000000
00010000
,
00000000
00001000
00000000
00010000
,
00022000
00000000
00000000
00033000
,
00001000
00000000
00010000
01000000
,
10000000
00000000
01000000
10000000
,
00100000
00000000
01000000
00010000
,
00001000
00000000
00010000
00011000
,
00002000
00000000
00000000
00003000
,
00000020
00000000
00000000
00000030
,
00000100
00000000
00000010
00000000
,
00000001
00000100
00001000
00001001
,
00000000
00000000
00000000
00000000
;

//---------------dance-double - ----------------
#NOTEDATA:;
#CHARTNAME:;
#STEPSTYPE:dance-double;
#DESCRIPTION:;
#CHARTSTYLE:;
#DIFFICULTY:Medium;
#METER:7;
#RADARVALUES:0.254766,0.387127,0.116942,0.146177,0.000000,183.000000,171.000000,12.000000,15.000000,0.000000,0.000000,0.000000,0.000000,0.000000,0.254766,0.387127,0.116942,0.146177,0.000000,183.000000,171.000000,12.000000,15.000000,0.000000,0.000000,0.000000,0.000000,0.000000;
#CREDIT:;
#DISPLAYBPM:138.000000;
#NOTES:
00000000
00000000
00000000
00000000
,
00000000
00000000
00000000
00000000
,
00000000
00000000
00000000
00000000
,
00000000
00000000
00000000
00000000
,
00000000
00000000
00000000
00000000
,
20000000
00010000
00000000
30010000
,
00200000
01000000
00000000
01300000
,
00020000
00001000
00000000
00031000
,
00000020
00000100
00000000
00000130
,
00000001
00000100
00000100
00000001
,
00001000
00000100
00000100
00001000
,
00000010
00000100
00000010
00000100
,
00001000
00010000
00001000
00010000
,
00002000
00000000
00000000
00003000
,
00200000
00000000
00000000
00300000
,
02000000
00000000
00000000
03000000
,
20020000
00000000
00000000
30030000
,
01000000
00000000
00001000
00000000
,
00100000
00000000
10000000
00000000
,
00001000
00000000
01000000
00000000
,
00000100
00000000
00010000
00000000
,
00000010
00000000
00001000
00000000
,
00000001
00000000
00010000
00000000
,
00000100
00000000
00100000
00000000
,
00001000
00000000
10000000
00000000
,
01000000
00010000
00001000
00000000
,
00100000
00010000
10000000
00000000
,
00001000
00010000
01000000
00000000
,
00000100
00001000
00010000
00000000
,
00000010
00000001
00001000
00000000
,
00000001
00000100
00010000
00000000
,
00000100
00010000
00100000
00000000
,
00022000
00000000
00000000
00033000
,
00000010
00001000
00010000
00001000
,
00000100
00000000
00000010
00000000
00000001
00001000
00000100
00000000
,
00010000
00001000
00000010
00010000
,
00100000
01000000
00001000
00010000
,
01000000
10000000
00010000
00100000
,
10000000
00000000
00100000
00000000
00001000
00010000
00001000
00000000
,
00100000
00001000
00000100
00001000
,
00010000
00001000
00000001
00000010
,
00000100
00001010
00010000
00000100
,
00000010
00000000
00001100
00000000
00000001
00001000
00000100
00000000
,
00010100
00010000
00000100
00011000
,
01001000
00000000
00100000
00000000
00001000
00010000
01000000
00000000
,
00100000
10000000
00010000
10010000
,
10000000
10010000
00001000
00010000
,
01000000
00001000
00010000
00000000
00000010
00010000
00001000
00000000
,
00022000
00000000
00000000
00033000
,
00100000
00000000
00001000
00000000
00010000
10000000
00010000
00000000
,
00000010
00000000
00000100
00000000
00001000
00000001
00001000
00000000
,
00100000
00000000
01000000
00000000
00010000
10000000
00010000
00000000
,
00000010
00000001
00002002
00003003
,
00000001
00000100
00001000
00100000
,
00010000
01000000
00100000
10000000
,
01000000
00010000
00000010
00000100
,
00000001
00000100
00001000
00011000
,
00000000
00000000
00000000
00000000
;

//---------------dance-double - ----------------
#NOTEDATA:;
#CHARTNAME:;
#STEPSTYPE:dance-double;
#DESCRIPTION:;
#CHARTSTYLE:;
#DIFFICULTY:Hard;
#METER:12;
#RADARVALUES:0.497003,0.497734,0.116942,0.068216,0.004873,357.000000,345.000000,12.000000,7.000000,0.000000,0.000000,0.000000,0.000000,0.000000,0.497003,0.497734,0.116942,0.068216,0.004873,357.000000,345.000000,12.000000,7.000000,0.000000,0.000000,0.000000,0.000000,0.000000;
#CREDIT:;
#DISPLAYBPM:138.000000;
#NOTES:
00000000
00000000
00000000
00000000
,
00000000
00000000
00000000
00000000
,
00000000
00000000
00000000
00000000
,
00000000
00000000
00000000
00000000
,
00000000
00000000
00000000
00000000
,
00000000
00000001
00000000
00000001
00000000
00000010
00000000
00000010
,
00000000
00000100
00000000
00000100
00000000
00001000
00000000
00001000
,
00000000
00000010
00000000
00000010
00000000
00000010
00000000
00000010
,
00000000
00001000
00000000
00010000
00000000
00100000
00000000
10000000
,
00000000
00100000
00000000
00100000
00000000
10000000
00000000
10000000
,
00000000
01000000
00000000
01000000
00000000
00100000
00000000
00100000
,
00000000
00010000
00000000
00010000
00000000
00001000
00000000
00001000
,
00000000
00000100
00000000
00000100
00000000
00000010
00000000
00000010
,
00000002
00000100
00000000
00000100
00000000
00001000
00000003
00001000
,
00000020
00010000
00000000
00010000
00000000
00001000
00000030
00001000
,
00000200
00010000
00000000
00010000
00000000
00001000
00000300
00001000
,
00200000
01000000
00000000
01000000
00000000
01000000
00300000
01000000
,
10010000
00010000
10000000
00010000
10000000
00010000
10000000
00010000
,
00100000
01000000
00100000
01000000
00100000
01000000
00100000
01000000
,
00100000
00001000
00100000
00001000
00100000
00001000
00100000
00001000
,
00010000
00001000
00010000
00001000
00010000
00000100
00010000
00000100
,
00001000
00000010
00001000
00000010
00001000
00000010
00001000
00000010
,
00000100
00000001
00000100
00000001
00000100
00000001
00000100
00000001
,
00001000
00000100
00000001
00000100
00001000
00000100
00000001
00000100
,
00001000
00000100
00000001
00000100
00001000
00000100
00000001
00000100
,
00000010
00000001
00000010
00000001
00001000
00000001
00001000
00000001
,
00001000
00000100
00001000
00000100
00010000
00001000
00010000
00001000
,
01000000
00100000
01000000
00100000
10000000
01000000
10000000
01000000
,
00010000
00001000
00010000
00001000
00100000
00010000
00100000
00010000
,
10000000
00100000
00010000
00100000
10000000
00100000
00010000
00100000
,
10000000
01000000
00010000
01000000
10000000
01000000
00010000
00001000
,
00000010
00000001
00000010
00001000
00000010
00000001
00000100
00001000
,
00020000
00001000
00000000
00001000
00000000
00001000
00030000
00001000
,
00011000
00010000
01000000
10000000
00100000
10000000
01000000
00010000
,
01000000
10000000
00100000
10000000
01000000
00010000
01000000
10000000
,
00100000
10000000
01000000
00100000
00001000
00010000
00100000
00010000
,
00001000
00100000
00010000
00001000
00000010
00001000
00000100
00000010
,
00000001
00000100
00001000
00000100
00000001
00000010
00000001
00000100
,
00001000
00000100
00000001
00000010
00000001
00000100
00001000
00000100
,
00000010
00001000
00000100
00000010
00000100
00001000
00000001
00000100
,
00001000
00010000
00000010
00000100
00001000
00010000
00000100
00000010
,
00001000
00010000
00001000
00100000
00001000
01000000
00001000
00010000
,
01000000
10000000
01000000
00100000
01000000
00010000
01000000
00100000
,
00010000
01000000
00010000
10000000
00010000
00100000
00010000
00001000
,
00000100
00000001
00000100
00000010
00000100
00001000
00000100
00000010
,
00000001
00000100
00000001
00000010
00000100
00001000
00000100
00000010
,
00001000
00010000
00001000
00100000
01000000
10000000
01000000
00100000
,
00010000
01000000
00001000
00100000
01000000
00010000
00000010
00002000
,
00000002
00000000
00000000
00003003
,
00001001
00000000
00001100
00000000
00000001
00000100
00001000
00000000
,
00010010
00000000
00011000
00000000
00100000
01000000
00010000
00000000
,
00101000
00000000
11000000
00000000
10000000
01000000
00010000
00000000
,
00011000
00000000
00000000
00000000
00000110
00000000
00000000
00000000
00001000
00000000
00000000
00001001
00000000
00000000
00000000
00000000
,
00000100
00000001
00001000
00000010
00010000
00001000
00000100
00000000
,
00000010
00010000
00001000
01000000
00010000
00100000
00001000
00000000
,
01000000
00001000
00100000
10000000
00010000
00001000
01000000
00000000
,
00100000
10000000
01000000
00100000
00001000
00010000
00011000
00000000
,
00000000
00000000
00000000
00000000
;

//---------------dance-single - ----------------
#NOTEDATA:;
#CHARTNAME:;
#STEPSTYPE:dance-single;
#DESCRIPTION:;
#CHARTSTYLE:;
#DIFFICULTY:Challenge;
#METER:17;
#RADARVALUES:0.931359,1.138722,0.467768,0.165668,1.568971,669.000000,621.000000,48.000000,17.000000,0.000000,0.000000,0.000000,0.000000,0.000000,0.931359,1.138722,0.467768,0.165668,1.568971,669.000000,621.000000,48.000000,17.000000,0.000000,0.000000,0.000000,0.000000,0.000000;
#CREDIT:;
#DISPLAYBPM:138.000000;
#NOTES:
// measure 0
0000
0000
0000
0000
,  // measure 1
0000
0000
0000
0000
,  // measure 2
0000
0000
0000
0000
,  // measure 3
0000
0000
0000
0000
,  // measure 4
0000
0000
0000
0000
,  // measure 5
0000
1001
0000
0110
0000
1001
0000
0110
,  // measure 6
0000
1010
0000
0101
0000
1010
0000
0101
,  // measure 7
0000
1100
0000
0011
0000
1100
0000
0011
,  // measure 8
0000
1001
0000
0110
0000
1001
0000
0110
,  // measure 9
0000
2000
0000
3200
0000
0302
0000
0203
,  // measure 10
0000
2300
0000
3020
0000
0032
0000
0023
,  // measure 11
0000
2030
0000
3200
0000
0320
0000
0230
,  // measure 12
0000
0302
0000
0023
0000
0230
0000
0310
,  // measure 13
0100
0001
0100
0001
1000
0100
1000
0100
0010
0001
0010
0001
1000
0100
1000
0100
,  // measure 14
0010
0001
0010
0001
1000
0010
1000
0010
0100
0001
0100
0001
1000
0010
1000
0010
,  // measure 15
0100
0001
0100
0001
1000
0100
0010
0001
1000
0010
0100
0001
1000
0100
0010
0001
,  // measure 16
1000
0000
0000
0010
0000
0000
0100
0000
0000
0001
0000
0000
1000
0000
0000
0100
0000
0000
0010
0000
0000
0001
0000
0000
1000
0000
0000
0100
0000
0000
0010
0000
0000
0001
0000
0000
1000
0000
0100
0000
0010
0000
0001
0000
0010
0000
0100
0000
,  // measure 17
1000
0010
0001
0010
0000
0010
0001
0010
0000
0010
1000
0010
0000
0010
0100
0010
,  // measure 18
0000
0010
1000
0010
0000
0010
0100
0010
0000
0010
0001
0010
0000
0010
0100
0001
,  // measure 19
1000
0100
0010
0001
0000
0001
0010
0001
0000
0001
0100
0001
0000
0001
0010
0001
,  // measure 20
0000
0001
0100
0001
0000
0001
0010
0001
0000
0001
1000
0001
0000
0001
1000
0100
,  // measure 21
0010
0001
0010
1000
0000
1000
0100
1000
0000
1000
0010
1000
0000
1000
0001
1000
,  // measure 22
0000
1000
0010
1000
0000
1000
0100
1000
0000
1000
0010
1000
0000
1000
0001
0010
,  // measure 23
0100
1000
0010
0100
0000
0100
0001
0100
0000
0100
1000
0100
0000
0100
0001
0100
,  // measure 24
0000
0100
1000
0100
0000
0100
0001
0100
0000
0100
1000
0100
0000
0100
0010
0100
,  // measure 25
0001
0010
1000
0010
0000
0010
0001
0010
0000
0010
1000
0010
0000
0010
0001
0010
,  // measure 26
0000
0010
1000
0010
0000
0010
0001
0010
0000
0010
1000
0010
0000
0010
0001
1000
,  // measure 27
0010
0100
0001
1000
0000
1000
0010
0001
0000
1000
0100
0001
0000
1000
0010
0001
,  // measure 28
0000
1000
0100
0001
0000
1000
0010
0001
0000
1000
0100
0001
0000
1000
0010
0001
,  // measure 29
0100
0010
1000
0001
0100
0001
0010
1000
0010
0001
0100
1000
0100
0001
0010
1000
,  // measure 30
0010
0001
0100
1000
0100
0001
0010
1000
0010
0001
0100
1000
0100
0001
0010
1000
,  // measure 31
0100
0010
1000
0100
0010
0100
0001
0100
0010
0100
1000
0100
0010
0100
0001
0100
,  // measure 32
0001
0010
0100
1000
0100
0010
0001
0010
0100
1000
0100
0010
0001
0010
0001
0010
0001
0010
0100
1000
0100
1000
0100
1000
,  // measure 33
0010
0100
0001
1000
0000
1000
0100
0010
0000
0010
0001
1000
0000
1000
0100
0001
,  // measure 34
0000
0001
0100
1000
0000
1000
0010
0001
0000
0001
0100
0010
0000
0010
1000
0001
,  // measure 35
0010
0100
1000
0100
0000
0100
0001
1000
0000
1000
0010
0001
0000
0001
0010
1000
,  // measure 36
0000
1000
0100
0001
0000
0001
0100
1000
0000
1000
0010
0100
0000
0100
0010
0001
,  // measure 37
0010
0100
1000
0100
0000
0100
1000
0001
0000
0001
0100
0010
0000
0010
1000
0100
,  // measure 38
0000
0100
1000
0010
0000
0010
1000
0100
0000
0100
0010
0001
0000
0001
0010
0100
,  // measure 39
1000
0010
0001
0100
0000
0100
0001
1000
0000
1000
0010
0001
0000
0001
0010
1000
,  // measure 40
0000
1000
0100
0010
0000
0010
0001
1000
0000
1000
0100
0010
0000
0010
0001
0100
,  // measure 41
0010
1000
0001
0010
0000
0010
1000
0001
0000
0001
0010
1000
0000
0001
0100
0010
,  // measure 42
0000
1000
0100
0010
0000
1000
0010
0100
0000
0100
0010
0001
0000
0001
0100
1000
,  // measure 43
0010
0100
0001
1000
0000
1000
0010
0001
0000
0001
0100
1000
0000
1000
0010
0001
,  // measure 44
0000
0001
0100
1000
0000
1000
0100
0001
0000
0001
0010
1000
0000
1000
0010
0001
,  // measure 45
1000
0100
1000
0100
1000
0100
1000
0100
1000
0010
1000
0010
1000
0010
1000
0010
,  // measure 46
0001
0100
0001
0100
0001
0100
0001
0100
0001
0010
0001
0010
0001
0010
0001
0010
,  // measure 47
0100
0100
0001
0100
0100
1000
0100
0100
0001
0100
0100
1000
0100
0100
0001
0100
,  // measure 48
1000
0100
0010
0001
0010
0100
1000
0100
0010
0001
0010
0100
1000
0100
1000
0100
1000
0100
0010
0001
0010
0001
0010
0001
,  // measure 49
0010
0000
0001
0010
0100
0000
0001
0100
1000
0000
1100
0000
0101
0000
0001
0100
,  // measure 50
1000
0000
1100
0000
0101
0000
0001
0100
1000
0000
1100
0000
0101
0000
0001
0010
,  // measure 51
1000
0000
1010
0000
0011
0000
0001
0010
1000
0000
1010
0000
0011
0000
0001
0010
,  // measure 52
1000
0000
1001
0000
0110
0000
0001
0100
1000
0000
0110
0000
1001
0000
1000
0100
,  // measure 53
0010
0000
0011
0000
1010
0000
1000
0100
0010
0000
0011
0000
1010
0000
1000
0001
,  // measure 54
0010
0000
0011
0000
0101
0000
1000
0001
0010
0000
0011
0000
0101
0000
0100
0001
,  // measure 55
1000
0000
1010
0000
0101
0000
0100
0001
1000
0000
1100
0000
0011
0000
0100
0010
,  // measure 56
1001
0000
0110
0000
1001
0000
0010
0100
1001
0000
0110
0000
2002
0000
0000
0000
,  // measure 57
3003
0000
0000
0000
;
