#VERSION:0.83;
#TITLE:TELL ME TELL ME;
#SUBTITLE:;
#ARTIST:(s#arp);
#TITLETRANSLIT:;
#SUBTITLETRANSLIT:;
#ARTISTTRANSLIT:;
#GENRE:;
#ORIGIN:;
#CREDIT:;
#BANNER:TELL ME TELL ME.png;
#BACKGROUND:TELL ME TELL ME-bg.png;
#PREVIEWVID:;
#JACKET:TELL ME TELL ME-jacket.png;
#CDIMAGE:;
#DISCIMAGE:;
#LYRICSPATH:;
#CDTITLE:;
#MUSIC:TELL ME TELL ME.mp3;
#OFFSET:1.707000;
#SAMPLESTART:66.283997;
#SAMPLELENGTH:15.000000;
#SELECTABLE:YES;
#DISPLAYBPM:130.000000;
#BPMS:0.000=130.000,
38.000=131.000,
40.000=130.000,
83.000=131.000,
85.000=130.000,
115.000=131.000,
117.000=130.000,
148.000=133.000,
150.000=130.000,
179.000=131.000,
181.000=130.000;
#STOPS:;
#DELAYS:;
#WARPS:;
#TIMESIGNATURES:0.000=4=4;
#TICKCOUNTS:0.000=4;
#COMBOS:0.000=1;
#SPEEDS:0.000=1.000=0.000=0;
#SCROLLS:0.000=1.000;
#FAKES:;
#LABELS:0.000=Song Start;
#BGCHANGES:;
#KEYSOUNDS:;
#ATTACKS:
;

//---------------dance-single - ----------------
#NOTEDATA:;
#CHARTNAME:;
#STEPSTYPE:dance-single;
#DESCRIPTION:;
#CHARTSTYLE:;
#DIFFICULTY:Easy;
#METER:4;
#RADARVALUES:0.269700,0.271385,0.049682,0.009936,0.000000,190.000000,185.000000,5.000000,1.000000,0.000000,0.000000,0.000000,0.000000,0.000000,0.269700,0.271385,0.049682,0.009936,0.000000,190.000000,185.000000,5.000000,1.000000,0.000000,0.000000,0.000000,0.000000,0.000000;
#CREDIT:;
#DISPLAYBPM:130.000000;
#NOTES:
0000
0000
0000
0000
,
0000
0000
0000
0000
,
0000
0000
0000
0000
,
0000
0000
0000
0000
,
0000
0000
0000
0000
,
1000
1000
0001
0001
,
1000
0000
1000
0000
,
0010
0100
0010
0100
,
1000
0100
0010
0001
,
0010
0100
0010
1001
,
0001
0000
0001
0000
,
1000
0001
1000
0001
,
1000
0100
0010
0001
,
1000
0010
0100
0001
,
0100
0010
0100
1000
,
0100
1000
1000
1000
,
1000
0001
0001
0001
,
0001
0010
1000
0100
,
0100
0010
0001
0100
,
0100
1000
1000
0001
,
0001
1000
0100
0010
,
0001
0010
0010
0100
,
0100
0010
0010
0100
,
0100
1000
1000
0001
,
0001
1000
1000
0001
,
0001
0010
0100
0001
,
0100
0010
0100
1000
,
0100
1000
1000
1000
,
1000
0001
0001
0001
,
0001
0010
1000
0100
,
0100
0010
0001
0100
,
0110
1000
1000
0001
,
0001
1000
0100
0010
,
0001
0010
0010
0100
,
0100
0010
0010
0100
,
0100
1000
1000
0001
,
0001
1000
1000
0001
,
0001
1000
1000
0001
,
0001
1000
0000
1000
,
0000
0010
0100
0010
,
0100
1000
0100
0010
,
0001
0010
0100
0010
,
1001
0001
0000
0001
,
0000
1000
0001
1000
,
0001
1000
0100
0010
,
0001
0010
0100
0010
,
1001
1000
0000
1000
,
0000
1000
1000
0001
,
0001
1000
0100
0010
,
0001
0010
0100
0010
,
1001
0001
0000
0001
,
0000
1000
1000
0001
,
0001
0001
0010
0100
,
1000
0000
0100
0000
,
0100
0000
1000
0000
0002
0003
0000
0000
;

//---------------dance-single - ----------------
#NOTEDATA:;
#CHARTNAME:;
#STEPSTYPE:dance-single;
#DESCRIPTION:;
#CHARTSTYLE:;
#DIFFICULTY:Medium;
#METER:7;
#RADARVALUES:0.350610,0.352801,0.268280,0.000000,0.000000,247.000000,220.000000,27.000000,0.000000,0.000000,0.000000,0.000000,0.000000,0.000000,0.350610,0.352801,0.268280,0.000000,0.000000,247.000000,220.000000,27.000000,0.000000,0.000000,0.000000,0.000000,0.000000,0.000000;
#CREDIT:;
#DISPLAYBPM:130.000000;
#NOTES:
0000
0000
0000
0000
,
0000
0000
0000
0000
,
0000
0000
0000
0000
,
0000
0000
0000
0000
,
0000
0000
0000
0000
,
0010
0100
0010
0101
,
0010
0100
0010
1100
,
0001
0000
1000
0000
0001
1000
0001
0000
,
1000
0000
0001
0000
1000
0001
1000
0000
,
0010
0100
0010
0101
,
0010
0100
0010
1100
,
0001
0000
1000
0000
0001
1000
0001
0000
,
0010
0000
0100
0000
0001
0100
1000
0000
,
0001
0000
1000
0000
1000
0000
0010
0100
,
0010
0000
0001
0000
0001
0000
0010
0100
,
0010
0001
1100
1000
,
0101
0010
0100
0010
,
1001
0000
0001
0000
0001
0000
0010
0100
,
0010
0000
1000
0000
1000
0000
0010
0100
,
0010
1000
0101
0001
,
1100
0010
0100
0010
,
1001
0000
0001
0000
0010
0000
0100
1000
,
0010
0010
1001
0100
,
0110
0000
1000
0000
0010
0000
0100
0001
,
0010
0100
1001
0010
,
0110
0010
0001
1000
,
0101
0010
1000
0001
,
1100
1000
0100
0001
,
0100
0000
0001
1000
0001
1000
0000
0000
,
0000
0000
0001
0000
1000
0000
0010
0100
,
0001
0000
1000
0000
0001
0000
0010
0100
,
1000
0001
0100
1000
,
0100
1000
0100
0010
,
0001
0000
1001
0000
0010
0000
0001
0100
,
1000
0000
1001
0000
0010
0000
1000
0100
,
0001
0001
0010
1000
,
0100
0001
0010
0100
,
1001
0001
0001
0010
,
1100
0010
0010
1000
,
0101
0000
1000
0000
0001
0000
1000
0001
,
1000
0000
0001
0000
1000
0000
0001
1000
,
0001
1000
1000
0010
,
0101
0010
0010
0001
,
1100
0000
0001
0000
1000
0000
0001
1000
,
0001
0000
1000
0000
0001
0000
1000
0001
,
1000
0010
0100
0010
,
1100
0010
0100
0010
,
0101
0000
1000
0000
0001
0000
1000
0001
,
1000
0000
0001
0000
1000
0000
0001
1000
,
0001
0010
0100
0010
,
0101
0010
0100
0010
,
1100
0000
0001
0000
1000
0000
0001
1000
,
0001
0000
1000
0000
0001
0000
1000
0001
,
1000
0000
0100
0000
,
0100
0000
0010
1000
0000
0100
0000
0000
;

//---------------dance-single - ----------------
#NOTEDATA:;
#CHARTNAME:;
#STEPSTYPE:dance-single;
#DESCRIPTION:;
#CHARTSTYLE:;
#DIFFICULTY:Hard;
#METER:11;
#RADARVALUES:0.434359,0.434217,0.417325,0.000000,0.004968,306.000000,264.000000,42.000000,0.000000,0.000000,0.000000,0.000000,0.000000,0.000000,0.434359,0.434217,0.417325,0.000000,0.004968,306.000000,264.000000,42.000000,0.000000,0.000000,0.000000,0.000000,0.000000,0.000000;
#CREDIT:;
#DISPLAYBPM:130.000000;
#NOTES:
0000
0000
0000
0000
,
0000
0000
0000
0000
,
0000
0000
0000
0000
,
0000
0000
0000
0000
,
0000
0000
0000
0000
,
1000
0100
1000
0001
1000
0100
1000
0001
,
0010
0100
0000
1001
0000
0000
0000
0000
,
1010
0000
1100
0000
0010
0100
0010
0000
,
0011
0000
0101
0000
0010
0100
0010
0000
,
0001
0100
0001
1000
0001
0100
0001
1000
,
0010
0100
0000
1001
0000
0000
0000
0000
,
0011
0000
0101
0000
0010
0100
0010
0000
,
1000
0001
1000
0000
0010
0100
0010
0000
,
1001
0000
0001
0100
1000
1000
0010
0000
,
1100
0000
1000
0100
0001
0001
0010
0000
,
0101
0000
1000
0000
1000
0000
0010
1000
,
0100
1100
1010
0100
,
1001
0000
1000
0100
0001
0001
0010
0000
,
0101
0000
0001
0100
1000
1000
0010
0000
,
1100
0000
0001
0000
0001
0000
0010
0001
,
0100
0101
0011
0100
,
1001
1000
1100
0001
,
0101
0000
0010
0010
0100
0000
0010
0010
,
0100
0000
1000
0000
1000
0000
0010
1000
,
0001
0000
1000
0100
1000
0010
0100
0010
,
0001
0000
0100
0100
0010
0000
0001
0001
,
0100
0000
1000
1000
0100
0000
0001
0001
,
0100
0000
0001
0001
0001
1000
0000
0001
,
0000
0001
0000
0000
0100
0000
0010
0000
0001
0000
1000
0000
0000
0000
0000
0000
,
0000
0000
0001
0001
1000
0000
0010
0100
,
0001
0000
1000
1000
0001
0000
0010
0100
,
1000
0000
0001
0000
0001
0000
1000
0100
,
0100
1000
0110
0000
,
0000
0000
1000
0000
0101
0000
0001
1000
,
0100
0000
0001
0000
1100
0000
1000
0001
,
0100
0000
0001
0001
0100
0000
1000
1000
,
0100
0100
0000
0000
1001
0000
0000
0000
,
0000
0000
1000
0100
1000
0001
1000
0100
,
1000
0001
0010
0100
0000
1001
0000
0000
,
0000
0000
1010
0000
1100
0000
0010
0100
,
0010
0000
0011
0000
0101
0000
0010
0100
,
0010
0000
0001
0100
0001
1000
0001
0100
,
0001
1000
0010
0100
0000
1001
0000
0000
,
0000
0000
0011
0000
0101
0000
0010
0100
,
0010
0000
1000
0001
1000
0000
0010
0100
,
0010
0000
1000
0100
1000
0001
0010
0100
,
1000
0001
0010
0100
0000
1001
0000
0000
,
0000
0000
1010
0000
1100
0000
0010
0100
,
0010
0000
0011
0000
0101
0000
0010
0100
,
0010
0000
0100
1000
0100
0010
0100
0001
,
0100
0010
0001
1000
0000
0110
0000
0000
,
0000
0000
0011
0000
0101
0000
0010
0100
,
0010
0000
0001
1000
0001
0000
0010
0100
,
0010
0000
1000
0010
1000
0100
0001
0010
,
1000
0100
0010
0100
0000
1001
0000
0000
;

//---------------dance-double - ----------------
#NOTEDATA:;
#CHARTNAME:;
#STEPSTYPE:dance-double;
#DESCRIPTION:;
#CHARTSTYLE:;
#DIFFICULTY:Easy;
#METER:6;
#RADARVALUES:0.305187,0.379940,0.308026,0.019873,0.000000,215.000000,184.000000,31.000000,2.000000,0.000000,0.000000,0.000000,0.000000,0.000000,0.305187,0.379940,0.308026,0.019873,0.000000,215.000000,184.000000,31.000000,2.000000,0.000000,0.000000,0.000000,0.000000,0.000000;
#CREDIT:;
#DISPLAYBPM:130.000000;
#NOTES:
00000000
00000000
00000000
00000000
,
00000000
00000000
00000000
00000000
,
00000000
00000000
00000000
00000000
,
00000000
00000000
00000000
00000000
,
00000000
00000000
00000000
00000000
,
10000000
00100000
00010000
01100000
,
01000000
00010000
00011000
00000000
,
00000010
00000010
00000001
00000100
,
00000010
00000001
00001001
00000000
,
00000001
00000010
00001000
00000110
,
00000100
00001000
00011000
00000000
,
00100000
00100000
10000000
01000000
,
00100000
10000000
10010000
00000000
,
10010000
10000000
10000000
01000000
,
00010000
00010000
00100000
01000000
,
00000000
00100000
00001000
00100000
,
00001000
01000000
00010000
00001000
,
00000000
00000001
00000001
00000100
,
00001000
00001000
00000010
00000100
,
00000000
00000010
00010000
00000010
,
00010000
00000100
00001000
00010000
,
00000000
10010000
01000000
10000000
,
01000000
00100000
01000000
00100000
,
01000000
00100000
00010000
00100000
,
00001000
00010000
00001000
00000010
,
00000110
00001001
00000100
00000001
,
00000100
00000010
00000100
00000010
,
00000100
00000010
00001000
00000010
,
00010000
00001000
00010000
00100000
,
01100000
10000000
10000000
01100000
,
01100000
00010000
00010000
00011000
,
00011000
00001000
00001000
00000010
,
00000010
00000001
00000001
00000001
,
00000001
00000010
00001001
00000100
,
00001000
00000100
00001001
00000010
,
00000100
00000010
00000010
00001000
,
00001000
00000100
00001000
00010000
,
10010000
10000000
00100000
00010000
,
01100000
01000000
00010000
00011000
,
00000000
00000010
00000010
00000001
,
00000100
00000010
00000001
00001001
,
00000000
00000001
00000010
00001000
,
00000110
00000100
00001000
00011000
,
00000000
00100000
00100000
10000000
,
01000000
00100000
10000000
10010000
,
00000000
10000000
00100000
00010000
,
01100000
01000000
00010000
00011000
,
00000000
00000010
00000010
00000001
,
00000100
00000010
00000001
00001001
,
00000000
00000001
00000010
00001000
,
00000110
00000100
00001000
00011000
,
00000000
00100000
00100000
10000000
,
01000000
10000000
10000000
00010000
,
00001000
00001000
00000010
00000001
,
00000100
00000000
00000110
00000000
00022000
00033000
00000000
00000000
;

//---------------dance-double - ----------------
#NOTEDATA:;
#CHARTNAME:;
#STEPSTYPE:dance-double;
#DESCRIPTION:;
#CHARTSTYLE:;
#DIFFICULTY:Medium;
#METER:8;
#RADARVALUES:0.349190,0.352801,0.308026,0.000000,0.000000,246.000000,215.000000,31.000000,0.000000,0.000000,0.000000,0.000000,0.000000,0.000000,0.349190,0.352801,0.308026,0.000000,0.000000,246.000000,215.000000,31.000000,0.000000,0.000000,0.000000,0.000000,0.000000,0.000000;
#CREDIT:;
#DISPLAYBPM:130.000000;
#NOTES:
00000000
00000000
00000000
00000000
,
00000000
00000000
00000000
00000000
,
00000000
00000000
00000000
00000000
,
00000000
00000000
00000000
00000000
,
00000000
00000000
00000000
00000000
,
10000000
01100000
00010000
01100000
,
01000000
00010000
00000000
00001000
00000000
00000000
00000000
00000000
,
00000010
00000001
00000001
00000000
00001000
00000100
00000100
00000000
,
00000010
00000000
00000001
00000000
00001000
00000001
00000100
00000000
,
00000001
00000110
00001000
00000110
,
00000100
00001000
00000000
00010000
00000000
00000000
00000000
00000000
,
00100000
00010000
00010000
00000000
10000000
01000000
01000000
00000000
,
00100000
00000000
00010000
00000000
10000000
00010000
01000000
00000000
,
10010000
00000000
01000000
01000000
00000000
00000000
10000000
00000000
,
01000000
00000000
00010000
00000000
00100000
00000000
10000000
01000000
,
00010000
00100000
00011000
00000100
,
00011000
00000100
00001000
00000001
,
00000010
00000000
00000100
00000100
00000000
00000000
00000001
00000000
,
00000100
00000000
00001000
00000000
00000010
00000000
00000001
00000100
,
00001000
00000010
00011000
00000100
,
00011000
01000000
00010000
10000000
,
00100000
00000000
00010000
00000000
00100000
00000000
01000000
10000000
,
00100000
00000000
10000000
00000000
,
10000000
00000000
10000000
00100000
00010000
00000000
01000000
00010000
,
00001000
01000000
00011000
00000100
,
00000110
00000000
00000001
00000010
00000100
00000000
00000001
00000000
,
00000001
00000000
00000010
00000100
00001000
00000000
00001000
00000000
,
00001000
00000100
00000000
00000010
,
00011000
00000000
00010000
00001000
00000100
00001000
00000000
00000000
,
00000000
00010000
11000000
10000000
,
01010000
00100000
01000000
00000000
,
10010000
10000000
00100000
01000000
,
00011000
00000010
00000100
00000000
,
00001001
00000010
00000101
00000010
,
00001100
00000001
00000010
00000100
,
00011000
00001000
00010000
01000000
,
00100000
00000000
00010000
00010000
00000000
00000000
00010000
00010000
,
00010000
10000000
01100000
00010000
,
01100000
00000000
01000000
00010000
00000000
00001000
00000000
00000000
,
00000000
00000000
00000010
00000001
00000001
00000000
00001000
00000100
,
00000100
00000000
00000010
00000000
00000001
00000000
00001000
00000001
,
00000100
00000001
00000110
00001000
,
00000110
00000000
00000100
00001000
00000000
00010000
00000000
00000000
,
00000000
00000000
00100000
00010000
00010000
00000000
10000000
01000000
,
01000000
00000000
00100000
00000000
00010000
00000000
10000000
00010000
,
01000000
10000000
01100000
00010000
,
01100000
00000000
01000000
00010000
00000000
00001000
00000000
00000000
,
00000000
00000000
00000010
00000001
00000001
00000000
00001000
00000100
,
00000100
00000000
00000010
00000000
00000001
00000000
00001000
00000001
,
00000100
00000001
00000110
00001000
,
00000110
00000000
00000100
00001000
00000000
00010000
00000000
00000000
,
00000000
00000000
00100000
00010000
00010000
00000000
10000000
01000000
,
01000000
00000000
00100000
00000000
00010000
00000000
10000000
00010000
,
01000000
10000000
01100000
00011000
,
00000110
00000000
00000001
00000001
00000000
00000100
00000000
00000000
;

//---------------dance-double - ----------------
#NOTEDATA:;
#CHARTNAME:;
#STEPSTYPE:dance-double;
#DESCRIPTION:;
#CHARTSTYLE:;
#DIFFICULTY:Hard;
#METER:12;
#RADARVALUES:0.404550,0.434217,0.109299,0.000000,0.144076,285.000000,274.000000,11.000000,0.000000,0.000000,0.000000,0.000000,0.000000,0.000000,0.404550,0.434217,0.109299,0.000000,0.144076,285.000000,274.000000,11.000000,0.000000,0.000000,0.000000,0.000000,0.000000,0.000000;
#CREDIT:;
#DISPLAYBPM:130.000000;
#NOTES:
00000000
00000000
00000000
00000000
,
00000000
00000000
00000000
00000000
,
00000000
00000000
00000000
00000000
,
00000000
00000000
00000000
00000000
,
00000000
00000000
00000000
00000000
,
10000000
01000000
00000000
00000000
10000000
01000000
00000000
00000000
01000000
00010000
00000000
00000000
01000000
00010000
00000000
00000000
,
00010000
00001000
00000000
00000100
00000000
00000000
00000000
00000000
,
00000010
00000001
00000100
00000000
00000100
00001000
00010000
00000000
,
00011000
00000000
00000100
00000001
00000010
00000000
00000000
00000000
,
00000001
00000100
00000000
00000000
00000001
00000100
00000000
00000000
00000100
00001000
00000000
00000000
00000100
00001000
00000000
00000000
,
00001000
00010000
00000000
01000000
00000000
00000000
00000000
00000000
,
00100000
10000000
01000000
00000000
01000000
00010000
00001000
00000000
,
00011000
00000000
01000000
10000000
00100000
00000000
00000000
00000000
,
01100000
00000000
10000000
10000000
01000000
00100000
01000000
01000000
,
00010000
00000000
00001000
00000010
00001000
00000100
00000000
00000000
,
00000101
00000000
00000010
00000000
00000010
00000000
00000010
00001000
,
00000100
00000010
00000001
00000010
00000100
00001000
00000100
00001000
,
00010000
00000000
00100000
00010000
01000000
00100000
10000000
01000000
,
00010000
00000000
00001000
00000010
00001000
00000100
00000000
00000000
,
00000101
00000000
00000010
00000000
00000010
00000000
00000010
00001000
,
00000100
00000010
00000001
00000010
00000100
00001000
00000100
00001000
,
00010000
10000000
10000000
01000000
,
01000000
00000000
00100000
00010000
00001000
00010000
00100000
00010000
,
00001000
00000010
00000100
00000001
,
00000010
00000000
00000100
00001000
00010000
00001000
00000100
00001000
,
00010000
00000000
00010000
01000000
10000000
01000000
00100000
00000000
,
00010000
00000000
00001000
00000100
00000001
00000100
00000010
00000000
,
00001000
00000000
00010000
01000000
00010000
00001000
00000000
00001000
,
00000000
00010000
00000000
00000000
01000000
00000000
00100000
00000000
00010000
00000000
10000000
00000000
00000000
00000000
00000000
00000000
,
00000000
00000000
10000000
01000000
00100000
00000000
01000000
00100000
,
00010000
00000000
00100000
00010000
00001000
00000000
00010000
00001000
,
00000100
00000000
00001000
00000100
00000010
00000000
00000100
00000010
,
00000001
00000010
00000100
00000000
00000110
00000000
00000000
00000000
,
00000000
00000000
00000001
00000010
00000100
00000000
00000010
00000100
,
00001000
00000000
00000100
00001000
00010000
00000000
00001000
00010000
,
00100000
00000000
00010000
00100000
01000000
00000000
00100000
01000000
,
10000000
01000000
00100000
00000000
01100000
00000000
00000000
00000000
,
00000000
00000000
00000000
00000000
10000000
01000000
00000000
00000000
10000000
01000000
00000000
00000000
00100000
00010000
00000000
00000000
,
00100000
00010000
00000000
00000000
00010000
00000000
00001000
00000000
00000000
00000000
00000100
00000000
00000000
00000000
00000000
00000000
,
00000000
00000000
00000010
00000001
00000100
00000000
00000100
00001000
,
00010000
00000000
00011000
00000000
00000100
00000001
00000010
00000000
,
00000000
00000000
00000000
00000000
00000001
00000100
00000000
00000000
00000001
00000100
00000000
00000000
00000010
00001000
00000000
00000000
,
00000010
00001000
00000000
00000000
00001000
00000000
00010000
00000000
00000000
00000000
01000000
00000000
00000000
00000000
00000000
00000000
,
00000000
00000000
00100000
10000000
01000000
00000000
01000000
00010000
,
00001000
00000000
00011000
00000000
01000000
10000000
00100000
00000000
,
00000000
00000000
00000000
00000000
10000000
01000000
00000000
00000000
10000000
00100000
00000000
00000000
01000000
00010000
00000000
00000000
,
00100000
00010000
00000000
00000000
00010000
00000000
00001000
00000000
00000000
00000000
00000100
00000000
00000000
00000000
00000000
00000000
,
00000000
00000000
00000010
00000001
00000100
00000000
00000100
00001000
,
00010000
00000000
00011000
00000000
00000100
00000001
00000010
00000000
,
00000000
00000000
00000000
00000000
00000001
00000100
00000000
00000000
00000001
00000010
00000000
00000000
00000100
00001000
00000000
00000000
,
00000010
00001000
00000000
00000000
00001000
00000000
00010000
00000000
00000000
00000000
01000000
00000000
00000000
00000000
00000000
00000000
,
00000000
00000000
00100000
10000000
01000000
00000000
01000000
00010000
,
00001000
00000000
00011000
00000000
01000000
10000000
00100000
00000000
,
00000000
00000000
00000000
00000000
10000000
01000000
00000000
00000000
10000000
01000000
00000000
00000000
00100000
00010000
00000000
00000000
,
00100000
00010000
00000000
00000000
00010000
00000000
00001000
00000000
00000000
00000000
00000100
00000000
00000000
00000000
00000000
00000000
;

//---------------dance-couple - ----------------
#NOTEDATA:;
#CHARTNAME:;
#STEPSTYPE:dance-couple;
#DESCRIPTION:;
#CHARTSTYLE:;
#DIFFICULTY:Challenge;
#METER:6;
#RADARVALUES:0.271119,0.434217,0.198726,0.000000,0.000000,191.000000,171.000000,20.000000,0.000000,0.000000,0.000000,0.000000,0.000000,0.000000,0.271119,0.434217,0.198726,0.000000,0.000000,191.000000,171.000000,20.000000,0.000000,0.000000,0.000000,0.000000,0.000000,0.000000;
#CREDIT:;
#DISPLAYBPM:130.000000;
#NOTES:
00000000
00000000
00000000
00000000
,
00000000
00000000
00000000
00000000
,
00000000
00000000
00000000
00000000
,
00000000
00000000
00000000
00000000
,
00000000
00000000
00000000
00000000
,
00100000
01000001
00100000
01010001
,
00100000
01000001
00100000
11000001
,
00010000
00000000
10000001
00000000
00010000
10000000
00010001
00000000
,
10000000
00000000
00010001
00000000
10000000
00010000
10000001
00000000
,
00000010
10000100
00000010
10000101
,
00000010
10000100
00000010
10001100
,
00000001
00000000
10001000
00000000
00000001
00001000
10000001
00000000
,
00001000
00000000
10000001
00000000
00001000
00000001
10001000
00000000
,
00010001
00100000
01000000
10000000
,
01000000
00000010
00000100
00001000
,
00000100
10000000
10000000
10000000
,
10000000
00000001
00000001
00000001
,
00000001
00100000
10000000
01000000
,
01000000
00000010
00000001
00000100
,
00000100
10000000
10000000
00000001
,
00000001
10000000
00000010
00100000
,
00000001
10000000
11000000
00000001
,
00000101
00000000
00100000
00100000
01000000
00000000
00000010
00000010
,
00000100
00000000
10000000
00000000
00000001
00000000
00100010
10001000
,
00010001
00000000
10001000
01000100
10001000
00100010
01000100
00100010
,
10001000
01000000
00100000
00010000
,
01010000
00000010
00001000
00000001
,
00001100
10000000
00000001
01000000
,
00000100
00000000
00010000
10000000
00000001
00001000
00000000
00000000
,
00000000
00100000
10000000
01000000
,
01000000
00000010
00000001
00000100
,
00000100
10000000
10000000
00000001
,
00000001
10000000
00000100
00100000
,
00000001
00000000
10010000
00000000
00100000
00000000
00010000
01000000
,
10000000
00000000
00001001
00000000
00000010
00000000
00001000
00000100
,
00000010
00010001
00100010
10001000
,
01000100
00010001
00100010
01000100
,
10011001
00000000
10000000
01000000
10000001
00010000
10000000
01000000
,
10000001
00010000
00100000
01000000
00000001
10010000
00000000
00000000
,
00000001
00000000
10100000
00000000
11000001
00000000
00100000
01000000
,
00100001
00000000
00110000
00000000
01010001
00000000
00100000
01000000
,
00100001
00000000
00001000
00000100
10001000
00000001
00001000
00000100
,
10001000
00000001
00000010
00000100
10000000
00001001
00000000
00000000
,
10000000
00000000
00001010
00000000
10001100
00000000
00000010
00000100
,
10000010
00000000
00000011
00000000
10000101
00000000
00000010
00000100
,
10000010
00000000
10001000
01000100
10001000
00010001
00100010
01000100
,
10001000
00010001
00100010
01000100
00000000
10011001
00000000
00000000
,
00000000
00000000
10101010
00000000
11001100
00000000
00100010
01000100
,
00100010
00000000
00110011
00000000
01010101
00000000
00100010
01000100
,
00100010
00000000
01000100
10001000
01000100
00100010
01000100
00010001
,
01000100
00100010
00010001
10001000
00000000
01100110
00000000
00000000
,
00000000
00000000
00110011
00000000
01010101
00000000
00100010
01000100
,
00100010
00000000
00010001
10001000
00010001
00000000
00100010
01000100
,
00100010
00000000
10001000
00100010
10001000
01000100
00010001
00100010
,
10001000
01000100
00100010
01000100
00000000
10011001
00000000
00000000
;

//---------------dance-solo - ----------------
#NOTEDATA:;
#CHARTNAME:;
#STEPSTYPE:dance-solo;
#DESCRIPTION:;
#CHARTSTYLE:;
#DIFFICULTY:Easy;
#METER:4;
#RADARVALUES:0.271119,0.272006,0.049682,0.000000,0.000000,191.000000,186.000000,5.000000,0.000000,0.000000,0.000000,0.000000,0.000000,0.000000,0.271119,0.272006,0.049682,0.000000,0.000000,191.000000,186.000000,5.000000,0.000000,0.000000,0.000000,0.000000,0.000000,0.000000;
#CREDIT:;
#DISPLAYBPM:130.000000;
#NOTES:
000000
000000
000000
000000
,
000000
000000
000000
000000
,
000000
000000
000000
000000
,
000000
000000
000000
000000
,
000000
000000
000000
000000
,
010000
010000
000010
000010
,
100000
000000
100000
000000
,
000100
001000
000100
001000
,
000010
100000
000100
010000
,
000010
001000
000100
100001
,
000010
000000
000010
000000
,
010000
000100
100000
000001
,
010000
001000
000100
000001
,
100000
000010
001000
000001
,
001000
000100
001000
100000
,
001000
010000
010000
010000
,
010000
000001
000001
000001
,
000001
000010
100000
001000
,
001000
010000
000001
001000
,
001000
100000
100000
000010
,
000010
010000
001000
000100
,
000001
010000
010000
001000
,
001000
000100
000100
001000
,
001000
010000
010000
000001
,
000001
100000
100000
000010
,
000010
010000
000100
100000
,
001000
000100
001000
010000
,
001000
100000
100000
100000
,
100000
000001
000001
000001
,
000001
000100
010000
001000
,
001000
000100
000001
001000
,
001010
100000
100000
000001
,
000001
010000
001000
000100
,
000001
010000
010000
001000
,
001000
000100
000100
001000
,
001000
100000
100000
000001
,
000001
010000
010000
000010
,
000010
100000
100000
000001
,
000001
010000
000000
010000
,
000000
000010
001000
000010
,
001000
100000
001000
000100
,
000001
010000
001000
010000
,
100001
000010
000000
000010
,
000000
010000
000001
100000
,
000010
010000
001000
000100
,
000001
010000
001000
000100
,
100001
010000
000000
010000
,
000000
100000
100000
000010
,
000010
010000
001000
000100
,
000001
010000
001000
000100
,
100001
000010
000000
000010
,
000000
010000
010000
000001
,
000001
000001
000100
001000
,
010000
000000
001000
000000
,
001000
100000
000001
001000
;

//---------------dance-solo - ----------------
#NOTEDATA:;
#CHARTNAME:;
#STEPSTYPE:dance-solo;
#DESCRIPTION:;
#CHARTSTYLE:;
#DIFFICULTY:Medium;
#METER:5;
#RADARVALUES:0.350610,0.352801,0.268280,0.000000,0.000000,247.000000,220.000000,27.000000,0.000000,0.000000,0.000000,0.000000,0.000000,0.000000,0.350610,0.352801,0.268280,0.000000,0.000000,247.000000,220.000000,27.000000,0.000000,0.000000,0.000000,0.000000,0.000000,0.000000;
#CREDIT:;
#DISPLAYBPM:130.000000;
#NOTES:
000000
000000
000000
000000
,
000000
000000
000000
000000
,
000000
000000
000000
000000
,
000000
000000
000000
000000
,
000000
000000
000000
000000
,
000100
001000
000100
001010
,
000100
001000
000100
011000
,
000001
000000
100000
000000
000010
100000
000010
000000
,
010000
000000
000001
000000
100000
000010
100000
000000
,
000100
001000
000100
001010
,
000100
001000
000100
011000
,
000001
000000
100000
000000
000010
010000
000010
000000
,
000100
000000
001000
000000
000010
001000
010000
000000
,
000001
000000
100000
000000
100000
000000
000010
001000
,
000010
000000
000001
000000
000001
000000
000100
001000
,
000100
000010
101000
010000
,
001001
000100
001000
000010
,
100001
000000
000010
000000
000010
000000
000100
001000
,
000100
000000
100000
000000
100000
000000
000010
001000
,
000010
100000
001001
000010
,
101000
010000
001000
010000
,
100001
000000
000010
000000
000100
000000
001000
010000
,
000100
000100
100001
001000
,
001100
000000
100000
000000
000010
000000
001000
000001
,
000100
001000
100001
010000
,
001100
010000
000001
100000
,
001010
100000
000001
010000
,
101000
010000
000001
100000
,
000100
000000
010000
000010
010000
000010
000000
000000
,
000000
000000
100000
000000
000001
000000
000100
001000
,
010000
000000
000001
000000
100000
000000
000100
001000
,
000010
100000
000001
010000
,
001000
100000
000001
010000
,
000010
000000
100001
000000
000100
000000
000001
001000
,
010000
000000
100001
000000
000100
000000
100000
001000
,
000010
000001
010000
100000
,
001000
000001
010000
001000
,
100001
000010
000010
000100
,
101000
000100
000100
010000
,
001001
000000
100000
000000
000010
000000
010000
000100
,
010000
000000
000001
000000
100000
000000
000010
010000
,
000010
100000
100000
000100
,
001001
000100
000100
000010
,
101000
000000
000001
000000
010000
000000
000010
100000
,
000010
000000
010000
000000
000001
000000
100000
000010
,
100000
000100
001000
000100
,
101000
000100
001000
000100
,
001001
000000
100000
000000
000010
000000
010000
000001
,
010000
000000
000010
000000
100000
000000
000001
010000
,
000001
000100
001000
010000
,
001001
000100
001000
000010
,
101000
000000
000001
000000
010000
000000
000010
100000
,
000010
000000
010000
000000
000001
000000
100000
000010
,
100000
000000
001000
000000
,
001000
000000
000100
100000
000000
001000
000000
000000
;

//---------------dance-solo - ----------------
#NOTEDATA:;
#CHARTNAME:;
#STEPSTYPE:dance-solo;
#DESCRIPTION:;
#CHARTSTYLE:;
#DIFFICULTY:Hard;
#METER:7;
#RADARVALUES:0.435778,0.461355,0.427261,0.000000,0.004968,307.000000,264.000000,43.000000,0.000000,0.000000,0.000000,0.000000,0.000000,0.000000,0.435778,0.461355,0.427261,0.000000,0.004968,307.000000,264.000000,43.000000,0.000000,0.000000,0.000000,0.000000,0.000000,0.000000;
#CREDIT:;
#DISPLAYBPM:130.000000;
#NOTES:
000000
000000
000000
000000
,
000000
000000
000000
000000
,
000000
000000
000000
000000
,
000000
000000
000000
000000
,
000000
000000
000000
000000
,
100000
001000
100000
000001
010000
001000
010000
000001
,
000100
001000
000000
100001
000000
000000
000000
000000
,
010100
000000
101000
000000
010000
001000
010000
000000
,
000101
000000
001010
000000
000100
001000
000100
000000
,
000010
001000
000010
100000
000001
001000
000001
100000
,
000100
001000
000000
100001
000000
000000
000000
000000
,
000110
000000
001001
000000
000100
001000
000100
000000
,
100000
000010
100000
000000
000100
001000
000100
000000
,
100001
000000
000010
001000
010000
010000
000100
000000
,
101000
000000
010000
001000
000010
000010
000100
000000
,
001001
000000
100000
000000
100000
000000
000100
010000
,
001000
101000
010100
001000
,
100001
000000
010000
001000
000010
000010
000100
000000
,
001001
000000
000011
001000
010000
010000
000100
000000
,
101000
000000
000001
000000
000001
000000
010000
000010
,
001000
100001
000110
001000
,
100001
010000
101000
000001
,
001010
000000
000100
000100
001000
000000
000010
000010
,
001000
000000
100000
000000
100000
000000
000100
010000
,
000001
000000
100000
001000
100000
000100
001000
000100
,
000001
000000
001000
001000
000100
000000
000010
000010
,
001000
000000
100000
100000
001000
000000
000001
000001
,
001000
000000
000010
000010
000010
100000
000000
000001
,
000000
000001
000000
000000
001000
000000
000100
000000
100000
000000
000010
000000
000000
000000
000000
000000
,
000000
000000
000001
000001
010000
000000
000100
001000
,
000010
000000
100000
100000
000001
000000
000100
001000
,
010000
000000
000001
000000
000001
000000
100000
001000
,
001000
010000
001100
000000
,
000000
000000
100000
000000
001001
000000
000010
010000
,
001000
000000
000001
000000
101000
000000
010000
000001
,
001000
000000
000010
000010
001000
000000
100000
100000
,
001000
001000
000000
000000
010001
000000
000000
000000
,
000000
000000
100000
001000
100000
000001
010000
001000
,
010000
000001
000100
001000
000000
100001
000000
000000
,
000000
000000
010100
000000
101000
000000
000100
001000
,
000100
000000
000011
000000
001100
000000
010000
001000
,
010000
000000
000001
001000
000001
100000
000010
001000
,
000010
100000
000100
001000
000000
100001
000000
000000
,
000000
000000
000110
000000
001001
000000
000010
001000
,
000010
000000
100000
000001
100000
000000
000100
001000
,
000100
000000
100000
001000
100000
000001
000100
001000
,
010000
000001
000100
001000
000000
100001
000000
000000
,
000000
000000
010100
000000
101000
000000
010000
001000
,
010000
000000
000101
000000
001010
000000
000100
001000
,
000100
000000
001000
010000
001000
000100
001000
000010
,
001000
000100
100000
000001
000000
001100
000000
000000
,
000000
000000
000011
000000
001100
000000
010000
001000
,
010000
000000
000001
100000
000001
000000
000100
001000
,
000100
000000
000001
000100
000001
001000
000010
000100
,
001000
100000
000100
001000
000000
100001
000000
000000
;

//---------------dance-single - ----------------
#NOTEDATA:;
#CHARTNAME:;
#STEPSTYPE:dance-single;
#DESCRIPTION:;
#CHARTSTYLE:;
#DIFFICULTY:Beginner;
#METER:2;
#RADARVALUES:0.035487,0.054277,0.000000,0.248408,0.000000,25.000000,25.000000,0.000000,25.000000,0.000000,0.000000,0.000000,0.000000,0.000000,0.035487,0.054277,0.000000,0.248408,0.000000,25.000000,25.000000,0.000000,25.000000,0.000000,0.000000,0.000000,0.000000,0.000000;
#CREDIT:;
#DISPLAYBPM:130.000000;
#NOTES:
0000
0000
0000
0000
,
0000
0000
0000
0000
,
0000
0000
0000
0000
,
0000
0000
0000
0000
,
0000
0000
0000
0000
,
0002
0000
0000
0000
,
0003
0000
0000
0000
,
2000
0000
0000
0000
,
3000
0000
0000
0000
,
0020
0000
0000
0000
,
0030
0000
0000
0000
,
0200
0000
0000
0000
,
0300
0000
0000
0000
,
0000
0020
0000
0000
,
0000
0030
0000
0000
,
0000
0002
0000
0000
,
0000
0003
0000
0000
,
0000
0200
0000
0000
,
0000
0300
0000
0000
,
0000
2000
0000
0000
,
0000
3000
0000
0000
,
0000
0020
0000
0000
,
0000
0030
0000
0000
,
0000
0002
0000
0000
,
0000
0003
0000
0000
,
0000
0020
0000
0000
,
0000
0030
0000
0000
,
0000
0200
0000
0000
,
0000
0300
0000
0000
,
0000
2000
0000
0000
,
0000
3000
0000
0000
,
0000
0200
0000
0000
,
0000
0300
0000
0000
,
0000
0020
0000
0000
,
0000
0030
0000
0000
,
0000
0002
0000
0000
,
0000
0003
0000
0000
,
0000
0002
0000
0000
,
0000
0003
0000
0000
,
0000
0020
0000
0000
,
0000
0030
0000
0000
,
0000
0200
0000
0000
,
0000
0300
0000
0000
,
0000
2000
0000
0000
,
0000
3000
0000
0000
,
0000
0002
0000
0000
,
0000
0000
0000
0003
,
0000
0020
0000
0000
,
0000
0030
0000
0000
,
0000
0200
0000
0000
,
0000
0000
0000
0300
,
0000
2000
0000
0000
,
0000
0000
0000
3000
,
0000
0002
0000
0000
,
0000
0000
0000
0000
0000
0003
0000
0000
;

//---------------dance-single - ----------------
#NOTEDATA:;
#CHARTNAME:;
#STEPSTYPE:dance-single;
#DESCRIPTION:;
#CHARTSTYLE:;
#DIFFICULTY:Challenge;
#METER:12;
#RADARVALUES:0.506752,0.569909,0.327898,0.407389,0.069554,357.000000,324.000000,33.000000,41.000000,0.000000,0.000000,0.000000,0.000000,0.000000,0.506752,0.569909,0.327898,0.407389,0.069554,357.000000,324.000000,33.000000,41.000000,0.000000,0.000000,0.000000,0.000000,0.000000;
#CREDIT:;
#DISPLAYBPM:130.000000;
#NOTES:
// measure 0
0000
0000
0000
0000
,  // measure 1
0000
0000
0000
0000
,  // measure 2
0000
0000
0000
0000
,  // measure 3
0000
0000
0000
0000
,  // measure 4
0000
0000
0000
0000
0000
1000
0001
1000
,  // measure 5
0001
1000
0010
0100
0010
0100
0001
0010
,  // measure 6
0001
1000
0000
1001
0000
1000
0100
0020
,  // measure 7
0000
0031
0010
0200
0000
0310
0100
2000
,  // measure 8
0000
3200
0000
2300
0000
3010
0100
0001
,  // measure 9
0000
0010
0010
0100
0100
1000
1000
0001
,  // measure 10
0100
0010
0000
1010
0000
1000
0100
0020
,  // measure 11
0000
0031
0010
0200
0000
1300
0010
0200
,  // measure 12
0000
0302
0000
0203
0000
0310
0010
0100
,  // measure 13
0101
2000
0000
3100
0010
0001
0010
0001
,  // measure 14
0100
0010
1000
0001
0000
0101
0000
0010
,  // measure 15
1000
0100
1000
0010
0100
0001
0100
0010
,  // measure 16
1000
0010
0100
0001
0000
0110
0000
0100
,  // measure 17
0010
0100
0010
1000
0010
0100
0001
0010
,  // measure 18
0100
1000
0010
0100
0000
0101
0000
0001
,  // measure 19
1000
0010
0100
0010
0100
0001
1000
0001
,  // measure 20
1000
0000
0100
0000
0010
0000
0001
0000
0000
0000
1001
0000
0000
1000
0200
0000
,  // measure 21
0310
0001
0000
0001
0001
0010
0100
1000
,  // measure 22
0001
0100
0000
0110
0000
1010
0010
0100
,  // measure 23
0000
0101
0000
0001
1000
0100
0010
0001
,  // measure 24
0010
0020
0000
0001
0031
0010
0010
0100
,  // measure 25
0100
1000
0000
0100
1000
0010
0000
0110
,  // measure 26
0000
0101
0000
0001
0010
0001
0000
0011
,  // measure 27
0000
0110
0100
1000
0010
0100
0000
0110
,  // measure 28
0100
0000
0001
0000
0000
0000
1001
0000
0000
0000
1100
0000
0000
0100
1000
0000
,  // measure 29
0100
0000
2000
0000
0000
0000
3100
0000
0010
0000
0001
0020
0000
0000
0031
0000
,  // measure 30
0100
0000
0001
0020
0000
0000
0031
0000
0100
0000
0001
0020
0000
0000
0130
0000
,  // measure 31
1000
0010
0000
0110
0010
1000
0000
1001
,  // measure 32
1000
0100
0000
0110
0000
1100
0000
1000
,  // measure 33
0010
0200
0000
0301
1000
0200
0000
2300
,  // measure 34
0000
3020
0000
0230
0000
0302
0000
1003
,  // measure 35
1001
0002
0000
0023
0100
0230
0000
2300
,  // measure 36
0000
0000
3200
0000
0000
0000
0320
0000
0000
0000
0031
0010
0000
0000
0001
0000
,  // measure 37
1000
0001
0000
0001
0001
0010
0010
0100
,  // measure 38
0100
1000
1000
1000
0000
1001
0000
1000
,  // measure 39
0001
0200
0000
1300
0001
0020
0000
0031
,  // measure 40
1000
0020
0000
0230
0000
0302
0000
1003
,  // measure 41
0100
0010
0000
0010
0010
0001
0001
1000
,  // measure 42
1000
0100
0100
0110
0000
0011
0000
0001
,  // measure 43
0100
0020
0000
1030
0100
0020
0000
0031
,  // measure 44
0010
0100
0000
1100
0000
1010
0000
0010
,  // measure 45
0010
0000
0100
0000
0001
0010
0100
0000
0010
0100
1000
0000
0100
1000
0100
0000
,  // measure 46
0010
0100
0010
0000
0001
0000
0010
0000
0100
0000
1000
0000
0000
0000
1000
0000
,  // measure 47
0100
1000
0000
0001
0100
0001
0000
1000
,  // measure 48
0010
1000
0000
0011
0000
1001
0000
0001
,  // measure 49
0100
0000
0010
0000
1000
0100
0010
0000
0100
0010
0001
0000
0010
0001
0010
0000
,  // measure 50
0100
0010
0100
0000
1000
0000
0010
0000
0100
0000
0001
0000
0000
0000
0001
0000
,  // measure 51
0100
0020
0000
1030
0010
0200
0000
0301
,  // measure 52
1000
0200
0000
2300
0000
3020
0000
0130
,  // measure 53
0001
1000
0000
1001
1001
1001
1000
0100
,  // measure 54
0010
0001
0100
0010
0000
0110
0000
0000
;
