#TITLE:Synthesized;
#SUBTITLE:;
#ARTIST:The Epoxies;
#TITLETRANSLIT:;
#SUBTITLETRANSLIT:;
#ARTISTTRANSLIT:;
#GENRE:;
#CREDIT:;
#BANNER:Synthesized.png;
#BACKGROUND:Synthesized-bg.png;
#LYRICSPATH:;
#CDTITLE:;
#MUSIC:Synthesized.ogg;
#OFFSET:0.000000;
#SAMPLESTART:11.604000;
#SAMPLELENGTH:15.000000;
#SELECTABLE:YES;
#DISPLAYBPM:189.000000;
#BPMS:0.000000=187.500000
,4.000000=183.673004
,12.000000=187.013000
,20.000000=186.528000
,36.000000=188.481995
,52.000000=189.473999
,68.000000=188.975998
,84.000000=189.473999
,96.000000=190.475998
,100.000000=188.975998
,108.000000=186.528000
,112.000000=190.475998
,116.000000=188.481995
,124.000000=188.975998
,132.000000=187.500000
,140.000000=189.473999
,148.000000=189.141998
,184.000000=190.141006
,196.000000=187.990005
,204.000000=188.975998
,212.000000=193.029007
,220.000000=190.475998
,228.000000=186.528000
,232.000000=189.473999
,244.000000=187.990005
,252.000000=190.981003
,260.000000=190.813004
,272.000000=198.347000
,280.000000=192.513000
,284.000000=169.811005
,286.000000=163.636002
,288.000000=192.102005
;
#STOPS:
;
#BGCHANGES:0.000=Synthesized.avi=1.000=0=0=0=StretchNoLoop====,
99999=-nosongbg-=1.000=0=0=0 // don't automatically add -songbackground-
;
#KEYSOUNDS:;
#ATTACKS:;

//---------------dance-single - ----------------
#NOTES:
     dance-single:
     :
     Beginner:
     2:
     0.111434,0.184746,0.000000,0.000000,0.000000,76.000000,76.000000,0.000000,0.000000,0.000000,0.000000,0.111434,0.184746,0.000000,0.000000,0.000000,76.000000,76.000000,0.000000,0.000000,0.000000,0.000000:
0000
0000
0000
0000
,
0000
0000
0000
0000
,
0000
0000
0000
0000
,
0000
0000
0000
0000
,
0000
0000
0000
0000
,
0001
0000
0000
0000
,
0001
0000
0000
0000
,
1000
0000
0000
0000
,
1000
0000
0000
0000
,
0001
0000
0000
0000
,
0000
0000
0000
0000
,
1000
0000
0000
0000
,
0000
0000
0000
0000
,
0010
0000
0000
0000
,
0000
0000
0000
0000
,
0100
0000
0000
0000
,
0000
0000
0000
0000
,
1000
0000
0000
0000
,
1000
0000
0000
0000
,
0010
0000
0000
0000
,
0010
0000
0000
0000
,
0001
0000
0000
0000
,
0001
0000
0000
0000
,
0100
0000
0000
0000
,
0100
0000
0000
0000
,
1000
0000
0000
0000
,
0000
0000
0000
0000
,
0100
0000
0000
0000
,
0001
0000
0000
0000
,
0001
0000
0000
0000
,
0000
0000
0000
0000
,
0100
0000
0000
0000
,
1000
0000
0000
0000
,
0001
0000
0000
0000
,
0010
0000
0000
0000
,
0001
0000
0000
0000
,
0010
0000
0000
0000
,
1000
0000
0000
0000
,
0010
0000
0000
0000
,
1000
0000
0000
0000
,
0010
0000
0000
0000
,
0001
0000
0001
0000
,
1000
0000
0000
0000
,
1000
0000
1000
0000
,
0001
0000
0000
0000
,
0001
0000
0001
0000
,
0010
0000
0000
0000
,
1000
0000
1000
0000
,
0010
0000
0000
0000
,
0100
0000
0000
0000
,
1000
0000
1000
0000
,
0001
0000
0000
0000
,
0010
0000
0000
0000
,
0001
0000
0000
0000
,
1000
0000
1000
0000
,
0100
0000
0000
0000
,
0010
0000
0000
0000
,
0001
0000
0000
0000
,
0010
0000
0010
0000
,
0001
0000
0000
0000
,
0100
0000
0000
0000
,
1000
0000
0000
0000
,
0001
0000
0000
0000
,
1000
0000
0001
0000
,
1000
0000
0000
0000
,
0001
0000
1000
0000
,
0001
0000
0000
0000
,
1000
0000
0001
0000
,
1000
0000
1000
0000
,
0001
0000
0001
0000
,
0010
0000
0010
0000
,
0100
0000
0100
0000
,
1000
0000
0000
0000
;

//---------------dance-single - ----------------
#NOTES:
     dance-single:
     :
     Easy:
     5:
     0.241929,0.332543,0.030791,0.153955,0.000000,165.000000,162.000000,3.000000,15.000000,0.000000,0.000000,0.241929,0.332543,0.030791,0.153955,0.000000,165.000000,162.000000,3.000000,15.000000,0.000000,0.000000:
0000
0000
0000
0000
,
0000
0000
0000
0000
,
0000
0000
0000
0000
,
0000
0000
0000
0000
,
0000
0000
0000
0000
,
0000
0100
1000
0010
,
0000
0010
0000
0010
,
0000
0100
0001
0010
,
0000
0010
0000
0010
,
1000
1000
0010
0000
,
0001
0000
0100
0000
,
0001
0001
0010
0000
,
1000
0000
0100
0000
,
1001
0000
0100
0100
,
0001
0000
0100
0100
,
0010
0000
0100
0010
,
0001
1000
0100
0000
,
1000
0010
1000
0000
,
0100
0000
0100
0000
,
0001
0010
0001
0000
,
0100
0000
0100
0000
,
0010
0100
1000
0000
,
0010
0100
0001
0000
,
1000
0100
0001
0100
,
1000
0010
0001
0000
,
0002
0000
0000
0000
,
0100
0000
1000
0003
,
0200
0000
0000
0300
,
0020
0000
0000
0030
,
2000
0000
0000
0000
,
0010
0000
0100
3000
,
0002
0000
0000
0003
,
0200
0000
0000
0300
,
0000
0010
1000
0100
,
0000
0100
0001
0100
,
0000
0010
0001
0100
,
0000
0100
1000
0100
,
0001
0001
0100
0000
,
1000
1000
0100
0000
,
0010
0000
0100
0000
,
0010
0001
0100
0000
,
0010
1000
0010
1000
,
0001
0100
0001
0000
,
0010
0001
0010
0001
,
1000
0100
1000
0000
,
1001
0000
0001
0000
,
0100
1000
0010
0000
,
0001
0100
1000
0100
,
0001
0010
1000
0000
,
2000
0000
0000
0000
,
0100
0000
0001
3000
,
0200
0000
0000
0300
,
0020
0000
0000
0030
,
0002
0000
0000
0000
,
0010
0000
0100
0003
,
2000
0000
0000
3000
,
0200
0000
0000
0300
,
0002
0000
0000
0000
,
0010
0000
1000
0003
,
0020
0000
0001
0030
,
0200
0000
0001
0300
,
1000
0000
0001
0000
,
1000
0000
0001
0000
,
0100
0000
0100
0000
,
0010
0001
0100
0001
,
0010
0000
0100
0000
,
0010
1000
0100
1000
,
0010
0000
0100
0000
,
0001
0001
0010
0000
,
1000
1000
0010
0000
,
0001
0010
1000
0100
,
1000
0000
0001
0000
,
1001
0000
0000
0000
;

//---------------dance-single - ----------------
#NOTES:
     dance-single:
     :
     Medium:
     8:
     0.390020,0.480340,0.174482,0.153955,0.020527,266.000000,249.000000,17.000000,15.000000,0.000000,0.000000,0.390020,0.480340,0.174482,0.153955,0.020527,266.000000,249.000000,17.000000,15.000000,0.000000,0.000000:
0000
0000
0000
0000
,
0000
0000
0000
0000
,
0000
0000
0000
0000
,
0000
0000
0000
0000
,
0000
0000
0000
0000
,
0100
0001
0010
1100
,
0010
0000
1000
0000
0010
0100
0010
0000
,
0100
1000
0010
0101
,
0010
0000
0001
0000
0010
0100
0010
0000
,
0001
0001
0010
0010
,
1000
0000
1000
0000
0100
0010
0100
0000
,
1000
1000
0010
0010
,
0001
0100
1000
0100
,
0000
0001
0100
0101
,
0000
1000
0100
1100
,
0010
0010
0100
0010
,
0010
1000
0010
0000
0100
0001
0100
0000
,
0001
0010
0001
0010
,
0100
1000
0010
0001
,
1000
0100
1000
0100
,
0001
0010
1000
0100
,
0110
0000
1000
0010
,
0100
0000
1000
0000
0010
0100
0010
0000
,
0001
0100
1000
0100
,
0001
0010
1000
0100
,
2000
0000
0010
0000
,
0100
0000
0001
3001
,
0200
0000
0001
0300
,
0020
0000
1000
0030
,
0002
0000
1000
0000
,
0010
0000
0100
0103
,
2000
0000
0001
3000
,
0200
0000
0001
0300
,
1000
0010
0001
0100
,
1000
0100
1000
0100
,
0001
0010
1000
0100
,
0001
0100
0001
0100
,
0000
1000
0100
1100
,
0000
0001
0100
0101
,
0010
0010
0100
0010
,
0010
0001
0010
0000
0100
1000
0100
0000
,
0010
1001
0010
1001
,
0100
0001
0010
1000
,
0010
1001
0010
1001
,
1000
0010
0001
0100
,
0110
0000
0001
0010
,
0100
0000
0001
0000
0010
0100
0010
0000
,
1000
0100
0001
0100
,
1000
0010
0001
0100
,
0002
0000
0010
0000
,
0100
0000
1000
1003
,
0200
0000
1000
0300
,
0020
0000
0001
0030
,
2000
0000
0001
0000
,
0010
0000
0100
3100
,
0002
0000
1000
0003
,
0200
0000
1000
0300
,
2000
0001
0100
0001
,
0010
0100
0001
3001
,
0020
1000
0100
1030
,
0200
0010
1000
0310
,
0001
0001
1000
1000
,
0001
0011
1000
1010
,
0100
0100
0100
0100
,
0010
1000
0100
1100
,
0010
0000
0010
0000
1000
0100
1000
0000
,
0010
0001
0100
0101
,
0010
0000
0010
0000
0001
0100
0001
0000
,
1000
0010
0001
0010
,
0100
0000
0100
0000
0010
0100
0010
0000
,
1000
0010
0001
0100
,
0001
0000
0000
0000
0000
0000
0000
0000
0000
0000
0001
0000
0000
0000
0000
0000
0000
0000
0000
0000
0000
0001
0000
0000
0000
0000
0000
0000
0000
0000
0000
0000
1000
0000
0000
0000
0000
0000
0000
0000
0000
0000
0000
1000
0000
0000
0000
0000
0000
0000
0000
0000
0000
0000
1000
0000
0000
0000
0000
0000
0000
0000
0000
0000
,
1001
0000
0000
0000
;

//---------------dance-single - ----------------
#NOTES:
     dance-single:
     :
     Hard:
     11:
     0.573299,0.775934,0.451602,0.153955,0.020527,391.000000,347.000000,44.000000,15.000000,0.000000,0.000000,0.573299,0.775934,0.451602,0.153955,0.020527,391.000000,347.000000,44.000000,15.000000,0.000000,0.000000:
0000
0000
0000
0000
,
0000
0000
0000
0000
,
0000
0000
0000
0000
,
0000
0000
0000
0000
,
0000
0000
0000
0000
,
0010
0100
1000
0000
1010
0000
0101
0000
,
0010
0001
0100
0001
0000
0010
1000
0100
,
0010
0001
1000
0000
0101
0000
1100
0000
,
0010
0100
1000
0100
0000
0001
0010
0100
,
1000
0000
1000
0000
0001
0100
0001
0000
,
0010
0000
0010
0000
0100
1000
0100
0000
,
0001
0000
0001
0000
1000
0100
0001
0000
,
0010
0000
0010
0000
0001
0100
1000
0000
,
0010
1000
0100
0000
0010
0100
1000
0000
,
0010
0001
0100
0000
0010
0100
0001
0000
,
1000
0001
1010
1001
,
0100
0001
0100
1000
0100
0001
0100
0000
,
1010
0000
0101
0000
1000
0100
0100
0000
,
0010
0001
0100
1000
,
0011
0000
1100
0000
0001
0100
0100
0000
,
1000
0100
0001
0010
,
1100
0000
0000
0000
0001
1000
0100
0000
,
0010
0000
0001
0000
0100
0010
0100
0000
,
1000
0010
0001
0000
0001
0010
1000
0000
,
1000
0100
0010
0100
0001
0100
1000
0000
,
0012
1000
0100
1000
,
0010
0000
0100
0000
0010
0010
0013
0000
,
1020
0100
0001
0130
,
0201
0010
0001
1300
,
2001
0010
0001
0100
,
0010
0000
0100
0000
0010
0010
3010
0000
,
0102
0010
1000
0013
,
0120
0001
1000
0130
,
0001
0100
0001
0000
1000
0100
1000
0000
,
0010
1000
0010
0100
0001
0100
0001
0000
,
1000
0100
0001
0000
0001
0100
1000
0000
,
0010
0001
0010
0100
1000
0100
1000
0000
,
0010
0000
0100
0000
0010
0100
0001
0000
,
0010
0000
0100
0000
0010
0100
1000
0000
,
0001
1000
0011
1001
,
0100
1000
0100
0001
0100
1000
0100
0000
,
0011
0000
1100
0000
0001
0100
0100
0000
,
0010
1000
0100
0001
,
1010
0000
0101
0000
1000
0100
0100
0000
,
0001
0100
1000
0010
,
0101
0000
0000
0000
1000
0001
0100
0000
,
0010
0000
1000
0000
0100
0010
0100
0000
,
0001
0010
1000
0000
1000
0010
0001
0000
,
0001
0100
0010
0100
1000
0100
0001
0000
,
2010
0001
0100
0001
,
0010
0000
0100
0000
0010
0010
3010
0000
,
0021
0100
1000
0130
,
1200
0010
1000
0301
,
1002
0010
1000
0100
,
0010
0000
0100
0000
0010
0010
0013
0000
,
2100
0010
0001
3010
,
0120
1000
0001
0130
,
2100
0001
0010
0001
,
0100
0000
0010
0000
0100
0100
3100
0000
,
0201
0010
1000
0310
,
1020
0100
1000
0031
,
1000
0100
0001
0100
,
1000
0100
0001
0100
,
0010
0001
0010
1000
0010
0001
0010
1000
,
0010
0100
0001
0000
0011
0000
1100
0000
,
0010
1000
0100
1000
0000
0010
0001
0100
,
0010
1000
0001
0000
1100
0000
0101
0000
,
0010
0100
0001
0100
0000
1000
0010
0100
,
0001
0001
0100
0100
1000
1000
0100
0000
,
0010
0001
0100
0001
0000
1000
0100
0010
,
0001
0100
1000
0010
1000
0100
0001
0000
,
1010
0000
0000
0000
0000
0000
0000
0000
0000
0000
1010
0000
0000
0000
0000
0000
0000
0000
0000
0000
0000
0101
0000
0000
0000
0000
0000
0000
0000
0000
0000
0000
1100
0000
0000
0000
0000
0000
0000
0000
0000
0000
0000
1100
0000
0000
0000
0000
0000
0000
0000
0000
0000
0000
0011
0000
0000
0000
0000
0000
0000
0000
0000
0000
,
1001
0000
0000
0000
;

//---------------dance-double - ----------------
#NOTES:
     dance-double:
     :
     Easy:
     5:
     0.236065,0.369492,0.030791,0.123164,0.000000,161.000000,158.000000,3.000000,12.000000,0.000000,0.000000,0.236065,0.369492,0.030791,0.123164,0.000000,161.000000,158.000000,3.000000,12.000000,0.000000,0.000000:
00000000
00000000
00000000
00000000
,
00000000
00000000
00000000
00000000
,
00000000
00000000
00000000
00000000
,
00000000
00000000
00000000
00000000
,
00000000
00000000
00000000
00000000
,
00100000
10000000
01000000
00000000
,
00100000
00010000
01000000
00000000
,
00001000
00000000
00010000
00000000
,
00000100
00000000
00000010
00000000
,
00000001
00000100
00001000
00000000
,
00010000
00000000
00001000
00000000
,
00000010
00000100
00001000
00000000
,
00010000
00000000
00100000
00000000
,
01000000
00000000
10000000
00000000
,
01000000
00000000
00100000
00000000
,
10000000
10000000
00010000
00010000
,
10000000
00010000
01000000
00001000
,
00011000
00000000
00000010
00000000
,
00000001
00000100
00000001
00000000
,
00001000
00000000
00000010
00000000
,
00010000
00001000
00010000
00000000
,
01000000
00000000
00010000
00000000
,
00100000
00000000
10000000
00000000
,
10000000
01000000
00010000
01000000
,
00010000
00001000
00010000
00000000
,
00002000
00000000
00000000
00000000
,
00000000
00000000
00000000
00003000
,
00000020
00000000
00000000
00000030
,
00000002
00000000
00000000
00000003
,
00000200
00000000
00000000
00000000
,
00000000
00000000
00000000
00000300
,
00020000
00000000
00000000
00030000
,
00200000
00000000
00000000
00300000
,
10000000
01000000
00010000
00000000
,
00001000
00001000
00010000
00000000
,
00100000
01000000
00010000
00000000
,
00001000
00001000
00000010
00000000
,
00000100
00000000
00000001
00000000
,
00000100
00000000
00000010
00000000
,
00000001
00000001
00001000
00001000
,
00000001
00001000
00000100
00010000
,
00011000
00000000
00100000
00000000
,
10000000
01000000
10000000
01000000
,
00010000
00000000
00100000
00000000
,
00001000
00010000
00001000
00010000
,
00000100
00000000
00001000
00000000
,
00000010
00000000
00000001
00000000
,
00000001
00000100
00001000
00000100
,
00001000
00010000
00001000
00010000
,
00020000
00000000
00000000
00000000
,
00000000
00000000
00000000
00030000
,
00200000
00000000
00000000
00300000
,
20000000
00000000
00000000
30000000
,
02000000
00000000
00000000
00000000
,
00000000
00000000
00000000
03000000
,
00020000
00000000
00000000
00030000
,
00002000
00000000
00000000
00003000
,
00000100
00000000
00000100
00000000
,
00000001
00000000
00000001
00000000
,
00001000
00000000
00001000
00000000
,
00010000
00000000
00010000
00000000
,
00010000
01000000
10000000
00000000
,
00010000
00100000
10000000
00000000
,
01000000
00001000
00010000
00001000
,
00000010
00000010
00000100
00000000
,
00000001
00000100
00000001
00000100
,
00010000
00010000
00001000
00000000
,
00100000
10000000
00100000
10000000
,
01000000
01000000
00010000
00000000
,
00001000
00010000
00001000
00010000
,
00000010
00000010
00010000
00000000
,
00000100
00000000
00000001
00000000
,
00001001
00000000
00000000
00000000
;

//---------------dance-double - ----------------
#NOTES:
     dance-double:
     :
     Medium:
     7:
     0.375357,0.443391,0.092373,0.123164,0.020527,256.000000,247.000000,9.000000,12.000000,0.000000,0.000000,0.375357,0.443391,0.092373,0.123164,0.020527,256.000000,247.000000,9.000000,12.000000,0.000000,0.000000:
00000000
00000000
00000000
00000000
,
00000000
00000000
00000000
00000000
,
00000000
00000000
00000000
00000000
,
00000000
00000000
00000000
00000000
,
00000000
00000000
00000000
00000000
,
00010000
01000000
10000000
01000000
,
00100000
00000000
00001000
00000000
00010000
00001000
00010000
00000000
,
00001000
00000100
00000001
00000100
,
00000010
00000000
00010000
00000000
00001000
00010000
00001000
00000000
,
00100000
00100000
10000000
10000000
,
01000000
01000000
00010000
00010000
,
00000010
00000010
00000001
00000001
,
00000100
00000100
00001000
00001000
,
00010000
01000000
00100000
01000000
,
10000000
01000000
00010000
01000000
,
00001000
00000100
00000001
00000100
,
00000010
00001000
00000001
00001000
,
00000101
00000000
00000010
00010000
,
00001000
00000000
00100000
00000000
01000000
00100000
01000000
00000000
,
11000000
00000000
00100000
00001000
,
00010000
00000000
00000010
00000000
00000100
00000010
00000100
00000000
,
00001001
00000000
00000100
00000100
,
00010000
00000100
00010000
00000100
,
00001000
00100000
00001000
01000000
,
00100000
10000000
01000000
00100000
,
20000000
00000000
01000000
30000000
,
10000000
00010000
00001000
00000001
,
00000020
00000000
00000001
00000030
,
00002000
00000000
00000100
00003000
,
00000002
00000000
00000100
00000003
,
00000001
00001000
00010000
10000000
,
00200000
00000000
10000000
00300000
,
00020000
00000000
01000000
00030000
,
00100000
10000000
00100000
10000000
,
01000000
00010000
01000000
00010000
,
00000010
00001000
00000010
00001000
,
00000100
00000001
00000100
00000001
,
00001000
00010000
00001000
00000100
,
00001000
00010000
01000000
10000000
,
00100000
10000000
01000000
10000000
,
00010000
01000000
00001000
00010000
,
00011000
00000000
00000010
00000010
,
00000001
00000000
00001000
00000000
00000001
00000100
00001000
00000000
,
00011000
00000000
00100000
00100000
,
10000000
00000000
00010000
00000000
10000000
01000000
00010000
00000000
,
00011000
00000000
00000100
00000100
,
00000001
00000010
00000001
00000010
,
00001000
00100000
00001000
01000000
,
00100000
10000000
01000000
00100000
,
20000000
00000000
00100000
30000000
,
10000000
00010000
00001000
00000001
,
00000200
00000000
00000001
00000300
,
00002000
00000000
00000010
00003000
,
00000002
00000000
00000010
00000003
,
00000001
00001000
00010000
10000000
,
02000000
00000000
10000000
03000000
,
00020000
00000000
00100000
00030000
,
10000000
01000000
11000000
00000000
,
00100000
00001000
00000010
00000100
,
00000001
00000100
00000101
00000000
,
00000010
00010000
00100000
01000000
,
00010000
01000000
10000000
01000000
,
00010000
01000000
10000000
01000000
,
00010000
00001000
00000100
00000001
,
00000010
00000010
00000100
00000100
,
00010000
00000000
00010000
00000000
00001000
00000010
00001000
00000000
,
00010000
00010000
00100000
00100000
,
10000000
00000000
10000000
00000000
01000000
00010000
01000000
00000000
,
00100000
00010000
00001000
00010000
,
00001000
00000010
00001000
00010000
,
00001000
00000100
00000001
00000010
,
00000001
00000000
00000000
00000000
00000000
00000000
00000000
00000000
00000000
00000000
00000001
00000000
00000000
00000000
00000000
00000000
00000000
00000000
00000000
00000000
00000000
00000001
00000000
00000000
00000000
00000000
00000000
00000000
00000000
00000000
00000000
00000000
00001000
00000000
00000000
00000000
00000000
00000000
00000000
00000000
00000000
00000000
00000000
00001000
00000000
00000000
00000000
00000000
00000000
00000000
00000000
00000000
00000000
00000000
00001000
00000000
00000000
00000000
00000000
00000000
00000000
00000000
00000000
00000000
,
00001001
00000000
00000000
00000000
;

//---------------dance-double - ----------------
#NOTES:
     dance-double:
     :
     Hard:
     10:
     0.504386,0.591188,0.297647,0.153955,0.020527,344.000000,315.000000,29.000000,15.000000,0.000000,0.000000,0.504386,0.591188,0.297647,0.153955,0.020527,344.000000,315.000000,29.000000,15.000000,0.000000,0.000000:
00000000
00000000
00000000
00000000
,
00000000
00000000
00000000
00000000
,
00000000
00000000
00000000
00000000
,
00000000
00000000
00000000
00000000
,
00000000
00000000
00000000
00000000
,
00000001
00000001
00000100
00000000
00000010
00001000
00000100
00000000
,
00010000
00000000
00001000
00000100
00000000
00010000
01000000
00000000
,
00100000
00010000
10000000
00000000
10000000
01000000
00010000
00000000
,
00100000
00000000
00001000
00010000
00000000
00000010
00001000
00000000
,
00000001
00000000
00000001
00000000
00001000
00000100
00001000
00000000
,
00000010
00001000
00010000
00100000
,
01000000
00000000
01000000
00000000
00100000
00010000
00100000
00000000
,
01000000
00010000
00001000
00000100
,
00000010
00010000
00000100
00000000
00000010
00000000
00000100
00000000
,
00001000
00000010
00000100
00000000
00001000
00000000
00000001
00000000
,
00000010
00001100
00000001
00001010
,
00000100
00000001
00001000
00000100
00010000
00000000
00100000
00000000
,
11000000
00000000
00100000
01000000
,
00010000
00000000
10000000
01000000
00010000
00001000
00000010
00000000
,
00000101
00000000
00000010
00000100
,
00001000
00000000
00000001
00000100
00001000
00010000
00100000
00000000
,
11000000
00000000
10000000
01000000
,
00010000
00001000
00000100
00000000
00001000
00000010
00000001
00000000
,
00001000
00000010
00000001
00000100
,
00000001
00000010
00000100
00010000
00001000
00000000
01000000
00000000
,
00120000
10000000
01000000
00001000
,
01000000
10000000
01000000
10030000
,
00012000
00000010
00010000
00003010
,
00001200
00000010
00001000
00000301
,
00001002
00000010
00001000
00000100
,
00000010
00000100
00000010
00001003
,
00020100
00100000
00000100
00130000
,
02100000
00010000
00001000
03010000
,
10000000
01000000
10000000
00000000
00010000
01000000
00010000
00000000
,
00100000
00001000
00010000
00000010
00001000
00000000
00000001
00000000
,
00000010
00001000
00000010
00000000
00000100
00000001
00000100
00000000
,
00000001
00001000
00000100
00010000
00001000
00000000
00100000
00000000
,
10000000
00010000
01000000
00001000
,
00000010
00000100
00001000
00000001
,
00001100
00001100
01010000
01010000
,
10000000
01000000
00010000
01000000
10000000
00000000
00010000
00000000
,
00011000
00000000
00000010
00000100
,
00001000
00000000
00000001
00000100
00001000
00010000
00100000
00000000
,
10010000
00000000
00100000
01000000
,
00010000
00000000
10000000
01000000
00010000
00001000
00000010
00000000
,
00001001
00000000
00000001
00000100
,
00001000
00010000
01000000
00000000
00010000
00100000
10000000
00000000
,
00010000
00100000
10000000
01000000
,
10000000
00100000
01000000
00001000
00010000
00000000
00000100
00000000
,
00002010
00000001
00000100
00010000
,
00000100
00000001
00000100
00003001
,
00021000
00100000
00001000
00130000
,
02010000
00100000
00010000
13000000
,
20010000
00100000
00010000
01000000
,
00100000
01000000
00100000
30010000
,
01002000
00000010
01000000
00003010
,
00000210
00001000
00010000
00001300
,
00000102
00001000
00000010
00001000
,
00000100
00000000
00000010
00000000
00000100
00000100
00000103
00000000
,
00001200
00010000
00000010
00010300
,
00201000
00010000
01000000
00310000
,
00100000
00001000
01000000
00010000
,
00100000
00001000
01000000
00010000
,
00100000
10000000
01000000
00010000
00001000
00000000
00011000
00000000
,
00000010
00000100
00001000
00000000
00000010
00000000
00000100
00000000
,
00000001
00000000
00001000
00010000
00000000
00001000
00000001
00000000
,
00000010
00000001
00001000
00000000
00000100
00000000
00010000
00000000
,
00100000
00000000
01000000
10000000
00000000
01000000
00010000
00000000
,
00100000
00001000
01000000
00000000
00100000
10000000
01000000
00000000
,
00010000
00000000
00000100
00000010
00000000
00000010
00000001
00000000
,
00001000
00000100
00000001
00000000
00000001
00000100
00001000
00000000
,
00000001
00000000
00000000
00000000
00000000
00000000
00000000
00000000
00000000
00000000
00000100
00000000
00000000
00000000
00000000
00000000
00000000
00000000
00000000
00000000
00000000
00001000
00000000
00000000
00000000
00000000
00000000
00000000
00000000
00000000
00000000
00000000
00010000
00000000
00000000
00000000
00000000
00000000
00000000
00000000
00000000
00000000
00000000
01000000
00000000
00000000
00000000
00000000
00000000
00000000
00000000
00000000
00000000
00000000
10000000
00000000
00000000
00000000
00000000
00000000
00000000
00000000
00000000
00000000
,
10010000
00000000
00000000
00000000
;

//---------------dance-single - ----------------
#NOTES:
     dance-single:
     :
     Challenge:
     18:
     0.997043,1.223558,0.236064,0.225801,1.134136,680.000000,657.000000,23.000000,22.000000,136.000000,0.000000,0.997043,1.223558,0.236064,0.225801,1.134136,680.000000,657.000000,23.000000,22.000000,136.000000,0.000000:
// measure 0
0000
0000
0000
0000
,  // measure 1
0000
0000
0000
0000
,  // measure 2
0000
0000
0000
0000
,  // measure 3
0000
0000
0000
0000
,  // measure 4
0000
0000
0000
0000
,  // measure 5
0010
0001
0010
0000
0001
0100
0001
0000
1000
0010
1000
0000
0001
0100
0001
0000
,  // measure 6
1000
0100
1000
0000
0010
0001
0010
0000
1000
0100
0010
0001
0100
0010
1000
0001
,  // measure 7
0010
0001
0010
0000
0001
0100
0001
0000
0010
1000
0010
0100
0001
1000
0100
0010
,  // measure 8
0001
MMMM
0010
MMMM
0100
MMMM
1000
MMMM
,  // measure 9
1001
0000
MMMM
0000
0100
0000
0010
0000
1000
0100
0010
0100
1000
0000
0001
0100
,  // measure 10
0001
0100
0010
0000
1000
0100
1000
0000
0010
0001
0010
0000
0100
0001
0100
0001
,  // measure 11
1000
0000
MMMM
0000
1001
0000
0001
0000
0100
0010
0001
0010
0100
0000
1000
0100
,  // measure 12
0010
0100
1000
0000
0001
0100
0001
0000
1000
0100
1000
0000
0010
1000
0010
1000
,  // measure 13
0100
0000
MMMM
0000
0110
0000
0100
0000
0010
0001
0010
0001
0100
0000
0010
0100
,  // measure 14
1000
0100
0010
0000
1000
0100
1000
0100
0010
0000
0001
0010
0001
0000
0100
0010
,  // measure 15
1000
0000
MMMM
0000
1001
0000
0001
0000
1000
0100
0010
0001
0100
0000
0001
0010
,  // measure 16
0100
1000
0010
0000
0100
0010
0100
0000
0001
0010
0001
0010
0100
1000
0100
1000
,  // measure 17
0010
0000
MMMM
0000
0101
0000
1000
0000
0100
0010
1000
0010
0100
0000
0001
0010
,  // measure 18
0100
0010
0001
0000
1000
0100
0010
0000
0001
0010
0100
1000
0010
0000
1000
0010
,  // measure 19
0100
0000
MMMM
0000
1001
0000
0001
0000
0010
0100
0010
1000
0100
0000
0010
0100
,  // measure 20
0001
0100
0010
0000
1000
0100
0010
0000
0001
0010
0100
1000
0010
0000
0001
0100
,  // measure 21
0010
0000
MMMM
0000
1100
0000
1000
0000
0010
1000
0100
0010
0001
0000
0010
1000
,  // measure 22
0100
0010
0001
0000
0100
0010
1000
0010
0100
0000
0010
0001
0010
0000
0100
0001
,  // measure 23
1000
0000
MMMM
0000
0011
0000
0010
0000
0100
0010
1000
0010
0100
0000
0010
0001
,  // measure 24
0100
0001
0010
0000
1000
0100
0010
0000
0001
0010
0100
1000
0100
0010
0001
0100
,  // measure 25
0020
0000
1000
0000
0100
0000
1030
MMMM
,  // measure 26
0020
0000
0001
0000
0100
0000
0001
0001
,  // measure 27
0230
0000
0001
0000
1000
0000
0010
0010
,  // measure 28
0302
0000
0010
0000
0100
0000
1000
1000
,  // measure 29
2003
0000
0010
0000
0001
0000
3010
MMMM
,  // measure 30
2000
0000
0100
0000
0001
0000
0010
0010
,  // measure 31
3002
0000
0010
0000
1000
0000
0100
0100
,  // measure 32
0203
0000
0001
0000
0010
0000
1000
1000
,  // measure 33
1300
0000
MMMM
0000
0001
0100
0010
0000
1000
0010
0100
0001
0010
0000
0001
0010
,  // measure 34
0100
1000
0010
0000
0100
0001
1000
0000
0010
0100
0001
0100
0010
0000
1000
0100
,  // measure 35
0010
0100
1000
0000
0110
0000
0010
0000
0001
0100
0001
0010
1000
0000
0100
0010
,  // measure 36
1000
0010
0100
0000
0001
0010
0100
0010
1000
0000
0100
0001
1000
0001
0010
0000
,  // measure 37
0100
0000
MMMM
0000
0101
0000
0001
0000
1000
0010
0100
0001
1000
0000
0010
0001
,  // measure 38
0100
0010
1000
0000
0001
0010
0100
0000
0010
0100
1000
0000
0010
0000
0001
0100
,  // measure 39
0010
0000
MMMM
0000
1100
0000
1000
0000
0010
0100
0001
1000
0100
0000
0010
0001
,  // measure 40
0100
0010
1000
0000
0100
1000
0010
0000
0100
0010
0001
0000
1000
0000
0010
0100
,  // measure 41
0001
0000
0000
0000
MMMM
0000
0000
0000
0011
0000
0000
0000
0001
0000
0000
0000
0010
0001
0010
0000
0001
0000
0100
0000
0010
0000
1000
0000
0001
0000
0100
0000
,  // measure 42
0010
0000
0000
0000
MMMM
0000
0000
0000
1100
0000
0000
0000
0100
0000
0000
0000
1000
0100
1000
0000
0100
0000
0010
0000
0001
0000
0100
0000
0010
0000
1000
0000
,  // measure 43
0001
0000
0000
0000
MMMM
0000
0000
0000
1001
0000
0000
0000
0001
0000
0000
0000
1000
0001
1000
0000
0001
0000
0100
0000
0010
0000
1000
0000
0001
0000
0100
0000
,  // measure 44
0010
0000
0000
0000
MMMM
0000
0000
0000
0110
0000
0000
0000
0100
0000
0000
0000
0100
0010
0100
0000
0010
0000
0100
0000
0010
0000
1000
0000
0001
0000
0100
0000
,  // measure 45
0010
0000
0000
0000
MMMM
0000
0000
0000
1010
0000
0000
0000
1000
0000
0000
0000
0010
1000
0010
0000
1000
0000
0100
0000
0010
0000
0001
0000
0100
0000
0010
0000
,  // measure 46
MMMM
0000
1000
0101
0000
0000
0010
0101
0000
0000
1000
0011
0000
0000
0100
0001
,  // measure 47
0100
0000
0000
0000
MMMM
0000
0000
0000
1001
0000
0000
0000
0001
0000
0000
0000
0010
0001
0010
0000
0001
0000
0100
0000
0010
0000
1000
0000
0001
0000
0010
0000
,  // measure 48
0100
1000
0100
1000
0010
1000
0010
1000
0001
0010
0100
1000
0100
0010
0001
0010
,  // measure 49
0200
0000
0010
0000
1000
0000
0301
MMMM
,  // measure 50
0200
0000
0010
0000
0001
0000
1000
1000
,  // measure 51
0302
0000
0010
0000
1000
0000
0100
0100
,  // measure 52
2003
0000
0010
0000
0001
0000
0100
0100
,  // measure 53
3020
0000
1000
0000
0100
0000
0031
MMMM
,  // measure 54
0020
0000
0001
0000
0100
0000
1000
1030
,  // measure 55
0002
0000
1000
0000
0100
0000
0010
0010
,  // measure 56
2003
0000
0100
0000
0001
0000
0010
0010
,  // measure 57
3200
0000
0010
0000
1000
0000
0301
MMMM
,  // measure 58
0200
0000
0010
0000
0001
0000
1000
1000
,  // measure 59
0320
0000
1000
0000
0001
0000
0100
0100
,  // measure 60
2030
0000
0010
0000
0100
0000
0001
0001
,  // measure 61
3100
0010
0100
0000
0001
0010
0001
0000
0100
0010
0100
0000
1000
0010
1000
0000
,  // measure 62
0010
0100
0010
0000
0001
0100
0001
0000
0010
0100
0010
0100
1000
0100
1000
0100
,  // measure 63
0010
0001
0100
0010
1000
0100
0010
0001
0100
0010
1000
0001
0010
0100
1000
0100
,  // measure 64
0010
0001
0100
0010
1000
0001
0100
0010
1000
0100
0010
0001
0100
0010
1000
0001
,  // measure 65
0010
MMMM
1000
MMMM
0100
MMMM
1001
MMMM
,  // measure 66
0010
0001
0100
0010
1000
0001
0100
0010
1000
0100
0010
0001
0100
0010
1000
0100
,  // measure 67
0010
0000
MMMM
0000
0001
0000
MMMM
0000
0100
0000
MMMM
0000
1001
0001
1000
0001
,  // measure 68
1000
0010
0100
0001
1000
0100
0010
0001
0100
0010
1000
0001
0010
0100
1000
0010
,  // measure 69
0001
0100
0001
0000
0010
1000
0010
0000
0001
0100
0010
1000
0100
0010
0001
0100
,  // measure 70
0010
0001
0100
0010
1000
0100
0010
0001
0100
0010
1000
0001
0010
0100
1000
0010
,  // measure 71
0100
0000
0000
0000
0100
0001
0000
0000
0010
0001
0000
0000
1000
0010
0000
0000
1000
0001
0000
0000
1000
0100
0000
0000
,  // measure 72
2020
3030
0000
0000
;
