#TITLE:Swingin';
#SUBTITLE:;
#ARTIST:Bill Hamel & Naughty G.;
#TITLETRANSLIT:;
#SUBTITLETRANSLIT:;
#ARTISTTRANSLIT:;
#GENRE:;
#CREDIT:;
#BANNER:Swingin'.png;
#BACKGROUND:Swingin'-bg.png;
#LYRICSPATH:;
#CDTITLE:;
#MUSIC:Swingin'.ogg;
#OFFSET:0.000000;
#SAMPLESTART:29.700001;
#SAMPLELENGTH:15.000000;
#SELECTABLE:YES;
#DISPLAYBPM:105.000000;
#BPMS:0.000000=105.263000
,4.000000=104.992996
;
#STOPS:
;
#BGCHANGES:;
#KEYSOUNDS:;
#ATTACKS:;

//---------------dance-single - ----------------
#NOTES:
     dance-single:
     :
     Beginner:
     1:
     0.084312,0.123634,0.000000,0.000000,0.000000,58.000000,58.000000,0.000000,0.000000,0.000000,0.000000,0.084312,0.123634,0.000000,0.000000,0.000000,58.000000,58.000000,0.000000,0.000000,0.000000,0.000000:
0000
0000
0000
0000
,
0000
0000
0000
0000
,
0000
0000
0000
0000
,
0001
0000
0000
0000
,
1000
0000
0000
0000
,
0001
0000
0000
0000
,
1000
0000
0000
0000
,
0010
0000
0000
0000
,
0010
0000
0000
0000
,
1000
0000
0000
0000
,
0001
0000
0000
0000
,
0010
0000
0000
0000
,
0010
0000
0000
0000
,
0100
0100
0000
0000
,
1000
1000
0000
0000
,
0001
0001
0000
0000
,
0010
0000
0000
0000
,
0100
0100
0000
0000
,
0001
0001
0000
0000
,
1000
1000
0000
0000
,
0010
0000
0000
0000
,
0001
0000
0001
0000
,
1000
0000
0000
0000
,
1000
0000
1000
0000
,
0001
0000
0000
0000
,
0010
0000
0010
0000
,
0100
0000
0000
0000
,
0100
0000
0100
0000
,
0010
0000
0000
0000
,
1000
0000
0000
0000
,
0100
0000
0000
0000
,
0001
0000
0000
0000
,
0010
0000
0000
0000
,
0001
0000
0001
0000
,
1000
0000
1000
0000
,
0001
0000
1000
0000
,
0001
0001
0001
0000
,
1000
0000
1000
0000
,
0001
0000
0001
0000
,
1000
0000
0001
0000
,
1000
1000
1000
0000
,
0000
0000
0000
0000
;

//---------------dance-single - ----------------
#NOTES:
     dance-single:
     :
     Easy:
     5:
     0.165717,0.185165,0.000000,0.061054,0.050878,114.000000,114.000000,0.000000,6.000000,0.000000,0.000000,0.165717,0.185165,0.000000,0.061054,0.050878,114.000000,114.000000,0.000000,6.000000,0.000000,0.000000:
0000
0000
0000
0000
,
0000
0000
0000
0000
,
0000
0000
0000
0000
,
0000
0001
0000
1000
,
0001
0000
0000
0000
1000
0000
0000
1000
0000
0000
0000
0000
0000
0000
0000
0000
,
0010
0000
0100
0000
,
0010
1000
0100
0000
,
1000
0100
0001
0100
,
1000
0000
0000
0000
0001
0000
0000
0001
0000
0000
0000
0000
0000
0000
0000
0000
,
0010
0000
0100
0000
,
0010
0001
0100
0000
,
0010
1000
0100
0001
,
0010
0000
0000
0000
0100
0000
0000
0100
0000
0000
0000
0000
0000
0000
0000
0000
,
0001
1000
0100
0000
,
0001
1000
0010
0000
,
0001
0001
1000
1000
,
0100
0000
0000
0000
0001
0000
0000
0001
0000
0000
0000
0000
0000
0000
0000
0000
,
1000
2000
3010
0000
,
0001
0002
0013
0000
,
0100
0001
0010
1000
,
0100
0000
0000
0000
0010
0000
0000
0010
0000
0000
0000
0000
0000
0000
0000
0000
,
0020
0000
0130
0000
,
1000
0010
0100
1000
,
0100
0000
0100
0000
,
1000
0000
0000
0000
0001
0000
0000
0001
0000
0000
0000
0000
0000
0000
0000
0000
,
0020
0000
0130
0000
,
0001
0010
0100
0001
,
0100
0000
0100
0000
,
0001
0000
0000
0000
1000
0000
0000
1000
0000
0000
0000
0000
0000
0000
0000
0000
,
0001
0100
0001
0100
,
1000
0100
1000
0100
,
0001
0100
0001
0100
,
1000
0000
0000
0000
0100
0000
0000
0100
0000
0000
0000
0000
0000
0000
0000
0000
,
0200
0000
0310
0000
,
0001
0100
0010
0001
,
0010
0000
0010
0000
,
1000
0000
0000
0000
0001
0000
0000
0001
0000
0000
0000
0000
0000
0000
0000
0000
,
0200
0000
0310
0000
,
1000
0100
0010
1000
,
0010
0000
0010
0000
,
0001
0000
0000
0000
1000
0000
0000
1000
0000
0000
0000
0000
0000
0000
0000
0000
,
0000
0000
0000
0000
;

//---------------dance-single - ----------------
#NOTES:
     dance-single:
     :
     Medium:
     6:
     0.267474,0.288034,0.203513,0.020351,0.050878,184.000000,164.000000,20.000000,2.000000,0.000000,0.000000,0.267474,0.288034,0.203513,0.020351,0.050878,184.000000,164.000000,20.000000,2.000000,0.000000,0.000000:
0000
0000
0000
0000
,
0000
0000
0000
0000
,
0000
0000
0000
0000
,
0000
0001
0010
1000
,
0001
0000
0000
0000
1000
0000
0000
1001
0000
0000
0000
0000
0000
0000
0000
0000
,
0100
0001
0100
0000
0010
0000
1000
0000
,
0100
0001
0100
0000
1000
0000
0010
0000
,
1000
0100
0010
0000
0001
0100
0010
0000
,
1000
0000
0000
0000
0001
0000
0000
1001
0000
0000
0000
0000
0000
0000
0000
0000
,
1000
0010
0100
0000
0001
0000
0010
0000
,
1000
0010
0100
0000
0010
0000
0001
0000
,
0100
0001
0010
0000
0100
1000
0010
0000
,
0100
0000
0000
0000
0010
0000
0000
0110
0000
0000
0000
0000
0000
0000
0000
0000
,
0001
0100
1000
0000
0010
0000
0010
0000
,
0001
0100
1000
0000
0100
0000
0001
0000
,
0001
0100
1000
0000
1000
0100
0001
0000
,
0010
0000
0000
0000
0001
0000
0000
0011
0000
0000
0000
0000
0000
0000
0000
0000
,
1000
0100
1000
0000
0100
0000
0010
0000
,
0001
0100
0001
0000
0100
0000
0010
0000
,
0010
1000
0100
0000
0010
0001
0100
0000
,
0110
0000
0000
0000
1001
0000
0000
0110
0000
0000
0000
0000
0000
0000
0000
0000
,
0100
0100
0010
0010
,
1000
0000
0100
0000
0010
0100
1000
0000
,
0010
0101
0010
1100
,
1000
0000
0000
0000
0001
0000
0000
1001
0000
0000
0000
0000
0000
0000
0000
0000
,
0100
0100
0010
0010
,
0001
0000
0100
0000
0010
0100
0001
0000
,
0010
1100
0010
0101
,
0001
0000
0000
0000
1000
0000
0000
1001
0000
0000
0000
0000
0000
0000
0000
0000
,
0002
0010
1000
0103
,
2000
0010
0001
3100
,
0001
1000
1000
0001
1000
0001
0001
0000
,
0010
0000
0000
0000
0100
0000
0000
0110
0000
0000
0000
0000
0000
0000
0000
0000
,
0010
0010
0100
0100
,
0001
0000
0010
0000
0100
0010
0001
0000
,
0100
1010
0100
0011
,
1000
0000
0000
0000
0001
0000
0000
1001
0000
0000
0000
0000
0000
0000
0000
0000
,
0010
0010
0100
0100
,
1000
0000
0010
0000
0100
0010
1000
0000
,
0100
0011
0100
1010
,
0001
0000
0000
0000
1000
0000
0000
1001
0000
0000
0000
0000
0000
0000
0000
0000
,
0000
0000
0000
0000
;

//---------------dance-single - ----------------
#NOTES:
     dance-single:
     :
     Hard:
     10:
     0.407025,0.432051,0.356147,0.061054,0.132283,280.000000,245.000000,35.000000,6.000000,0.000000,0.000000,0.407025,0.432051,0.356147,0.061054,0.132283,280.000000,245.000000,35.000000,6.000000,0.000000,0.000000:
0000
0000
0000
0000
,
0000
0000
0000
0000
,
0000
0000
0000
0000
,
0000
1000
0100
0001
,
1010
0000
0000
0000
1001
0000
0000
0101
0000
0000
0000
0000
0000
0000
0000
0000
,
0010
1000
0010
1000
0100
0001
0100
1000
,
0010
1000
0010
1000
0100
0001
0100
1000
,
0001
0010
1000
0001
0100
1000
0010
0100
,
1001
0000
0000
0000
0101
0000
0000
1100
0000
0000
0000
0000
0000
0000
0000
0000
,
0001
0100
0010
0100
1000
0100
1000
0100
,
0001
0100
0010
0100
1000
0100
1000
0100
,
0010
1000
0100
0010
0001
0100
0010
1000
,
1010
0000
0000
0000
0110
0000
0000
0101
0000
0000
0000
0000
0000
0000
0000
0000
,
1000
0100
0001
0100
1000
0100
0001
0100
,
1000
0010
0001
0010
1000
0010
0001
0010
,
1000
0100
0001
0100
1000
0100
0001
0100
,
1100
0000
0000
0000
1001
0000
0000
0101
0000
0000
0000
0000
0000
0000
0000
0000
,
0002
0010
0023
0100
0230
1000
1300
0000
,
0020
0100
0230
0001
0302
0010
0013
0000
,
0100
0001
0010
1000
0100
0010
0001
1000
,
0110
0000
0000
0000
1001
0000
0000
0110
0000
0000
0000
0000
0000
0000
0000
0000
,
0010
0000
0010
0000
0100
0000
0100
0000
0001
0000
1000
0100
0000
0010
0100
0000
,
0010
0001
0100
1000
0010
1000
0100
0000
,
0001
0000
0001
0000
0100
0000
0100
0000
1000
0000
0010
1000
0000
0100
1000
0000
,
0011
0000
0000
0000
0110
0000
0000
1100
0000
0000
0000
0000
0000
0000
0000
0000
,
0010
0000
0010
0000
0100
0000
0100
0000
1000
0000
0001
0100
0000
0010
0100
0000
,
0010
1000
0100
0001
0010
0001
0100
0000
,
1000
0000
1000
0000
0100
0000
0100
0000
0001
0000
0010
0001
0000
0100
0001
0000
,
1010
0000
0000
0000
0110
0000
0000
0101
0000
0000
0000
0000
0000
0000
0000
0000
,
1000
0000
0100
0000
0001
0100
0101
0000
,
1000
0000
0010
0000
0001
0010
0011
0000
,
1000
0001
1001
1000
0001
1000
1001
1001
,
0110
0000
0000
0000
1010
0000
0000
0011
0000
0000
0000
0000
0000
0000
0000
0000
,
0100
0000
0100
0000
0010
0000
0010
0000
1000
0000
0001
0010
0000
0100
0010
0000
,
0100
1000
0010
0001
0100
0001
0010
0000
,
1000
0000
1000
0000
0010
0000
0010
0000
0001
0000
0100
0001
0000
0010
0001
0000
,
1010
0000
0000
0000
0101
0000
0000
1100
0000
0000
0000
0000
0000
0000
0000
0000
,
0100
0000
0100
0000
0010
0000
0010
0000
0001
0000
1000
0010
0000
0100
0010
0000
,
0100
0001
0010
1000
0100
1000
0010
0000
,
0001
0000
0001
0000
0010
0000
0010
0000
1000
0000
0100
1000
0000
0010
1000
0000
,
0011
0000
0000
0000
1100
0000
0000
0101
0000
0000
0000
0000
0000
0000
0000
0000
,
0000
0000
0000
0000
;

//---------------dance-double - ----------------
#NOTES:
     dance-double:
     :
     Easy:
     5:
     0.161356,0.164591,0.000000,0.101756,0.050878,111.000000,111.000000,0.000000,10.000000,0.000000,0.000000,0.161356,0.164591,0.000000,0.101756,0.050878,111.000000,111.000000,0.000000,10.000000,0.000000,0.000000:
00000000
00000000
00000000
00000000
,
00000000
00000000
00000000
00000000
,
00000000
00000000
00000000
00000000
,
00010000
00000000
00001000
00000000
,
00020000
00000000
00000000
00000000
00001000
00000000
00000000
00031000
00000000
00000000
00000000
00000000
00000000
00000000
00000000
00000000
,
00000100
00000000
00000001
00000000
,
00000010
00000000
00001000
00000000
,
00010000
00010000
00100000
00100000
,
02000000
00000000
00000000
00000000
00010000
00000000
00000000
03010000
00000000
00000000
00000000
00000000
00000000
00000000
00000000
00000000
,
01000000
00000000
10000000
00000000
,
00100000
00000000
00010000
00000000
,
00001000
00001000
00000010
00000010
,
00000200
00000000
00000000
00000000
00001000
00000000
00000000
00001300
00000000
00000000
00000000
00000000
00000000
00000000
00000000
00000000
,
00000010
00010000
00001000
00000000
,
00010000
00001000
01000000
00000000
,
00100000
01000000
10000000
00000000
,
00020000
00000000
00000000
00000000
01000000
00000000
00000000
01030000
00000000
00000000
00000000
00000000
00000000
00000000
00000000
00000000
,
00100000
00001000
00010000
00000000
,
00001000
00010000
00000100
00000000
,
00000010
00000100
00000001
00000000
,
00002000
00000000
00000000
00000000
00000100
00000000
00000000
00003100
00000000
00000000
00000000
00000000
00000000
00000000
00000000
00000000
,
00000001
00000000
00000001
00000000
,
00000100
00001000
00010000
01000000
,
10000000
00000000
10000000
00000000
,
00200000
00000000
00000000
00000000
01000000
00000000
00000000
01300000
00000000
00000000
00000000
00000000
00000000
00000000
00000000
00000000
,
10000000
00000000
10000000
00000000
,
00100000
00010000
00001000
00000010
,
00000001
00000000
00000001
00000000
,
00000200
00000000
00000000
00000000
00000010
00000000
00000000
00000310
00000000
00000000
00000000
00000000
00000000
00000000
00000000
00000000
,
00000001
00000100
00000001
00000000
,
00001000
00000100
00001000
00000000
,
00010000
00001000
00010000
00000000
,
02000000
00000000
00000000
00000000
00100000
00000000
00000000
03100000
00000000
00000000
00000000
00000000
00000000
00000000
00000000
00000000
,
10000000
00010000
10000000
00000000
,
01000000
00010000
00001000
00000100
,
00000001
00001000
00000001
00000000
,
00000020
00000000
00000000
00000000
00000100
00000000
00000000
00000130
00000000
00000000
00000000
00000000
00000000
00000000
00000000
00000000
,
00000001
00000100
00000001
00000000
,
00000010
00001000
00010000
00100000
,
10000000
01000000
10000000
00000000
,
02000000
00000000
00000000
00000000
00100000
00000000
00000000
03100000
00000000
00000000
00000000
00000000
00000000
00000000
00000000
00000000
,
00000000
00000000
00000000
00000000
;

//---------------dance-double - ----------------
#NOTES:
     dance-double:
     :
     Medium:
     6:
     0.263113,0.267460,0.193337,0.030527,0.050878,181.000000,162.000000,19.000000,3.000000,0.000000,0.000000,0.263113,0.267460,0.193337,0.030527,0.050878,181.000000,162.000000,19.000000,3.000000,0.000000,0.000000:
00000000
00000000
00000000
00000000
,
00000000
00000000
00000000
00000000
,
00000000
00000000
00000000
00000000
,
00000000
00000001
00000000
00001000
,
00000001
00000000
00000000
00000000
00000100
00000000
00000000
00001000
00000000
00000000
00000000
00000000
00000000
00000000
00000000
00000000
,
00010000
00000000
00100000
00000000
01000000
10000000
00010000
00000000
,
00100000
00010000
00001000
00000100
,
00000010
00000001
00000100
00000000
00000010
00001000
00000100
00000000
,
00001000
00000000
00000000
00000000
00010000
00000000
00000000
00011000
00000000
00000000
00000000
00000000
00000000
00000000
00000000
00000000
,
00010000
00000000
01000000
00000000
00100000
01000000
10000000
00000000
,
00010000
00001000
00000001
00000010
,
00000100
00001000
00000100
00000000
00000001
00000100
00000010
00000000
,
00010000
00000000
00000000
00000000
00001000
00000000
00000000
00011000
00000000
00000000
00000000
00000000
00000000
00000000
00000000
00000000
,
00000010
00001000
00000100
00000000
00010000
00000000
00001000
00000000
,
00100000
00010000
01000000
00000000
00001000
00000000
00010000
00000000
,
00000010
00001000
00000100
00000000
00010000
00001000
00010000
00000000
,
00100000
00000000
00000000
00000000
01000000
00000000
00000000
01100000
00000000
00000000
00000000
00000000
00000000
00000000
00000000
00000000
,
00100000
00001000
01000000
00000000
00010000
00000000
00001000
00000000
,
00000010
00010000
00000100
00000000
00001000
00000000
00010000
00000000
,
00100000
00001000
01000000
00000000
00010000
00001000
00000010
00000000
,
00000001
00000000
00000000
00000000
00001000
00000000
00000000
00001001
00000000
00000000
00000000
00000000
00000000
00000000
00000000
00000000
,
00000010
00000010
00000100
00000100
,
00001000
00010000
01000000
00000000
00010000
00001000
00100000
00000000
,
01000000
10010000
00100000
10010000
,
00001000
00000000
00000000
00000000
00000100
00000000
00000000
00001100
00000000
00000000
00000000
00000000
00000000
00000000
00000000
00000000
,
00000001
00000001
00001000
00001000
,
00000100
00010000
00001000
00000000
00010000
00100000
10000000
00000000
,
01000000
10010000
00100000
10010000
,
00001000
00000000
00000000
00000000
00010000
00000000
00000000
00011000
00000000
00000000
00000000
00000000
00000000
00000000
00000000
00000000
,
00002000
00000010
00000001
00003100
,
00020000
00100000
10000000
01030000
,
00002000
00000010
00010000
00003010
,
00000110
00000000
00000000
00000000
00001001
00000000
00000000
00000110
00000000
00000000
00000000
00000000
00000000
00000000
00000000
00000000
,
00000100
00000100
00000010
00000010
,
00001000
00010000
00100000
00000000
00010000
00001000
01000000
00000000
,
00100000
10010000
01000000
10010000
,
00001000
00000000
00000000
00000000
00000010
00000000
00000000
00001010
00000000
00000000
00000000
00000000
00000000
00000000
00000000
00000000
,
00000001
00000001
00001000
00001000
,
00000010
00010000
00001000
00000000
00010000
01000000
10000000
00000000
,
00100000
10010000
01000000
10010000
,
00001000
00000000
00000000
00000000
00010000
00000000
00000000
00011000
00000000
00000000
00000000
00000000
00000000
00000000
00000000
00000000
,
00000000
00000000
00000000
00000000
;

//---------------dance-double - ----------------
#NOTES:
     dance-double:
     :
     Hard:
     10:
     0.376498,0.373191,0.366323,0.203513,0.132283,259.000000,223.000000,36.000000,20.000000,0.000000,0.000000,0.376498,0.373191,0.366323,0.203513,0.132283,259.000000,223.000000,36.000000,20.000000,0.000000,0.000000:
00000000
00000000
00000000
00000000
,
00000000
00000000
00000000
00000000
,
00000000
00000000
00000000
00000000
,
00000000
10000000
01000000
00010000
,
00101000
00000000
00000000
00000000
00010100
00000000
00000000
00002020
00000000
00000000
00000000
00000000
00003030
00000000
00000000
00000000
,
00000010
00000001
00000010
00000001
00001000
00000100
00010000
00001000
,
00100000
00010000
00100000
00010000
10000000
00100000
01000000
00010000
,
00100000
01000000
00010000
00001000
00000100
00000001
00000010
00000000
,
00001001
00000000
00000000
00000000
00001100
00000000
00000000
00000202
00000000
00000000
00000000
00000000
00000303
00000000
00000000
00000000
,
00001000
00010000
00100000
00010000
00001000
00000010
00001000
00000010
,
00001000
00010000
01000000
00010000
00001000
00000100
00001000
00000100
,
00001000
01000000
00100000
10000000
00010000
00100000
01000000
00000000
,
10010000
00000000
00000000
00000000
00011000
00000000
00000000
00002002
00000000
00000000
00000000
00000000
00003003
00000000
00000000
00000000
,
00000010
00000100
00001000
00010000
00001000
00000010
00000001
00000100
,
00000010
00000100
00001000
00010000
00001000
00000010
00000001
00000100
,
00001000
00010000
01000000
10000000
10000000
01000000
00010000
00000000
,
11000000
00000000
00000000
00000000
10010000
00000000
00000000
02020000
00000000
00000000
00000000
00000000
03030000
00000000
00000000
00000000
,
00100000
10000000
01000000
00010000
00001000
00000100
00000010
00000001
,
00001000
00000100
00010000
01000000
00100000
10000000
01000000
00100000
,
00001000
00010000
00000010
00000100
00000001
00001000
00000100
00000000
,
00000110
00000000
00000000
00000000
00011000
00000000
00000000
02200000
00000000
00000000
00000000
00000000
03300000
00000000
00000000
00000000
,
00100000
00000000
00000000
00000000
00100000
00000000
00000000
00000000
10000000
00000000
01000000
10000000
00000000
01000000
10000000
00000000
,
00100000
00010000
00000010
00000001
00001000
00000010
00000100
00000000
,
00000001
00000000
00000000
00000000
00000001
00000000
00000000
00000000
00000100
00000000
00001000
00000100
00000000
00001000
00000100
00000000
,
00010100
00000000
00000000
00000000
00101000
00000000
00000000
22000000
00000000
00000000
00000000
00000000
33000000
00000000
00000000
00000000
,
00100000
00000000
00000000
00000000
00100000
00000000
00000000
00000000
10000000
00000000
00010000
10000000
00000000
00010000
10000000
00000000
,
01000000
00010000
00001000
00000001
00001000
00000010
00000100
00000000
,
00000010
00000000
00000000
00000000
00000010
00000000
00000000
00000000
00000100
00000000
00000001
00000100
00000000
00000001
00000100
00000000
,
00000110
00000000
00000000
00000000
00011000
00000000
00000000
02200000
00000000
00000000
00000000
00000000
03300000
00000000
00000000
00000000
,
10000000
00000000
01000000
00000000
01100000
10000000
00010000
00000000
,
00001000
00000000
00000010
00000000
00000011
00001000
00000010
00000000
,
00001010
00000101
00001100
00000011
,
00001001
00000000
00000000
00000000
00011000
00000000
00000000
20020000
00000000
00000000
00000000
00000000
30030000
00000000
00000000
00000000
,
01000000
00000000
00000000
00000000
01000000
00000000
00000000
00000000
10000000
00000000
00100000
10000000
00000000
00100000
10000000
00000000
,
01000000
00010000
00000100
00000001
00001000
00000100
00000010
00000000
,
00000001
00000000
00000000
00000000
00000001
00000000
00000000
00000000
00000010
00000000
00001000
00000010
00000000
00001000
00000010
00000000
,
00010010
00000000
00000000
00000000
01001000
00000000
00000000
20200000
00000000
00000000
00000000
00000000
30300000
00000000
00000000
00000000
,
01000000
00000000
00000000
00000000
01000000
00000000
00000000
00000000
10000000
00000000
00010000
10000000
00000000
00010000
10000000
00000000
,
00100000
00010000
00001000
00000001
00001000
00000100
00000010
00000000
,
00000100
00000000
00000000
00000000
00000100
00000000
00000000
00000000
00000010
00000000
00000001
00000010
00000000
00000001
00000010
00000000
,
00000110
00000000
00000000
00000000
00011000
00000000
00000000
02200000
00000000
00000000
00000000
00000000
03300000
00000000
00000000
00000000
,
00000000
00000000
00000000
00000000
;

//---------------dance-single - ----------------
#NOTES:
     dance-single:
     :
     Challenge:
     14:
     0.597455,0.696776,0.468079,0.234040,0.732645,411.000000,365.000000,46.000000,23.000000,164.000000,0.000000,0.597455,0.696776,0.468079,0.234040,0.732645,411.000000,365.000000,46.000000,23.000000,164.000000,0.000000:
// measure 0
0000
0000
0000
0000
,  // measure 1
0000
0000
0000
0000
,  // measure 2
0000
0000
0000
0000
,  // measure 3
1100
1000
0010
0000
0101
0000
MMMM
0000
0011
0001
1000
0000
1010
0000
MMMM
0000
,  // measure 4
0110
0000
1000
0010
1000
0000
0000
2002
0000
0000
0000
3003
MMMM
0000
0000
0000
,  // measure 5
0100
1000
MMMM
0000
0001
0100
MMMM
0000
0001
0010
MMMM
0000
1000
0100
MMMM
0000
,  // measure 6
0010
0001
0100
0000
0010
1000
0100
0000
0010
0001
1000
0001
0100
0010
1000
0000
,  // measure 7
0100
0001
MMMM
0000
1000
0100
1000
0000
0010
0001
1000
0000
0100
0010
1000
0001
,  // measure 8
0101
0000
1000
0010
1000
0000
0000
0220
0000
0000
0000
0330
MMMM
0000
0000
0000
,  // measure 9
1000
0010
MMMM
0000
0010
0001
MMMM
0000
0001
0100
MMMM
0000
0100
1000
MMMM
0000
,  // measure 10
1000
0100
1000
0000
0010
0001
0100
0010
1000
0100
1000
0000
0001
0100
MMMM
0000
,  // measure 11
1000
0010
1000
0000
0001
0010
0001
0000
0100
0010
MMMM
0000
1000
0001
0100
0010
,  // measure 12
1010
0000
0100
0010
0100
0000
0000
0022
0000
0000
0000
0033
MMMM
0000
0000
0000
,  // measure 13
0110
0000
0010
1000
0100
0000
0011
0000
1010
0000
1000
0100
MMMM
0200
0000
0300
,  // measure 14
0110
0000
0010
0001
0100
0000
1100
0000
0101
0000
0001
0010
MMMM
0020
0000
0030
,  // measure 15
0110
0000
1000
0100
0010
0000
0110
0000
0011
0000
0010
1000
MMMM
0000
0010
0100
,  // measure 16
0001
0000
0011
0000
0001
0010
0100
2200
0000
0000
0000
3300
MMMM
0000
0000
0000
,  // measure 17
1010
0000
0010
0100
0001
0000
1000
0100
0010
0000
0001
0010
MMMM
2000
0000
3000
,  // measure 18
1001
0000
0001
0100
0010
0000
1000
0100
0010
0000
0100
0001
MMMM
0020
0000
0030
,  // measure 19
0110
0000
1000
0001
0010
0000
0100
0001
1000
0000
0010
0100
MMMM
0000
0100
0010
,  // measure 20
1000
0000
0010
0100
0001
0000
0000
2020
0000
0000
0000
3030
MMMM
0000
0000
0000
,  // measure 21
1000
0100
1000
0100
0001
0000
0011
0000
0010
0000
0100
0010
MMMM
0100
0010
0000
,  // measure 22
1010
0000
0010
1000
0010
1000
0100
0000
0110
0000
0101
0000
0001
0010
0100
1000
,  // measure 23
0010
0100
0010
0100
1000
0000
1001
0000
0001
0000
0010
0100
MMMM
0010
0100
0000
,  // measure 24
0110
0000
0010
0001
0010
0000
0000
0202
0000
0000
0000
0303
MMMM
0000
0000
0000
,  // measure 25
1000
0100
0010
0100
1000
0100
0010
0100
1000
0000
0010
0100
MMMM
0010
0100
0000
,  // measure 26
0001
0010
0100
0010
0001
0010
0100
0010
0001
0000
0011
0000
MMMM
0000
0000
0000
,  // measure 27
1000
0001
0100
0001
0010
0001
0100
0001
1000
0000
0001
1000
MMMM
0100
0010
0000
,  // measure 28
0110
0000
1000
0001
0010
0000
0000
0220
0000
0000
0000
0330
MMMM
0000
0000
0100
,  // measure 29
0010
0000
0000
0000
1010
0000
0000
0100
0001
0000
0100
0000
0010
0000
0100
0001
,  // measure 30
0100
0001
1000
0001
1000
0001
0010
0001
0010
0001
0100
0001
0100
0001
1000
0001
,  // measure 31
1000
0100
1000
0100
0010
0100
0010
0100
1000
0100
1000
0100
0010
0100
0010
0100
,  // measure 32
1000
0000
0010
0100
0001
0000
0000
2002
0000
0000
0000
3003
MMMM
0000
0000
0000
,  // measure 33
0101
0000
0001
0010
0100
0000
1100
0000
1000
0000
0010
1000
MMMM
0001
0100
0000
,  // measure 34
0010
0000
0001
0100
0001
0100
0010
0000
0100
0000
0110
0000
MMMM
0000
0000
0000
,  // measure 35
1100
0000
1000
0010
0100
0000
0101
0000
0001
0000
0010
0001
MMMM
0001
0010
0000
,  // measure 36
1000
0000
0001
0010
1000
0000
0000
2200
0000
0000
0000
3300
MMMM
0000
0000
0000
,  // measure 37
1000
0100
0010
0001
0100
0010
1000
0001
0010
0000
0100
0010
MMMM
0010
0100
0000
,  // measure 38
0010
1000
0100
0010
0001
0100
0010
1000
0001
0000
0101
0000
MMMM
0000
0110
0000
,  // measure 39
0010
1000
0001
0100
0010
1000
0100
0010
0001
0000
1000
0001
MMMM
0001
1000
0000
,  // measure 40
0100
0010
1000
0001
0010
0100
1000
0010
0100
0000
1100
0000
MMMM
0000
0200
0000
,  // measure 41
0000
0000
0000
0300
MMMM
0000
0000
0000
;
