#VERSION:0.83;
#TITLE:Super Driver;
#SUBTITLE:;
#ARTIST:平野綾;
#TITLETRANSLIT:;
#SUBTITLETRANSLIT:;
#ARTISTTRANSLIT:Aya Hirano;
#GENRE:;
#ORIGIN:;
#CREDIT:;
#BANNER:Super Driver.png;
#BACKGROUND:Super Driver-bg.png;
#PREVIEWVID:;
#JACKET:Super Driver-jacket.png;
#CDIMAGE:;
#DISCIMAGE:;
#LYRICSPATH:;
#CDTITLE:;
#MUSIC:Super Driver.ogg;
#OFFSET:0.000000;
#SAMPLESTART:49.169998;
#SAMPLELENGTH:15.000000;
#SELECTABLE:YES;
#DISPLAYBPM:200.000000;
#BPMS:0.000=205.500,
4.000=200.000,
48.000=203.000,
52.000=200.000;
#STOPS:;
#DELAYS:;
#WARPS:;
#TIMESIGNATURES:0.000=4=4;
#TICKCOUNTS:0.000=4;
#COMBOS:0.000=1;
#SPEEDS:0.000=1.000=0.000=0;
#SCROLLS:0.000=1.000;
#FAKES:;
#LABELS:0.000=Song Start;
#BGCHANGES:0.000=Super Driver.avi=1.000=0=0=0=StretchNoLoop====,
99999=-nosongbg-=1.000=0=0=0 // don't automatically add -songbackground-
;
#KEYSOUNDS:;
#ATTACKS:
;

//---------------dance-single - ----------------
#NOTEDATA:;
#CHARTNAME:;
#STEPSTYPE:dance-single;
#DESCRIPTION:;
#CHARTSTYLE:;
#DIFFICULTY:Beginner;
#METER:2;
#RADARVALUES:0.127395,0.231908,0.009693,0.000000,0.000000,92.000000,91.000000,1.000000,0.000000,0.000000,0.000000,0.000000,0.000000,0.000000,0.127395,0.231908,0.009693,0.000000,0.000000,92.000000,91.000000,1.000000,0.000000,0.000000,0.000000,0.000000,0.000000,0.000000;
#CREDIT:;
#DISPLAYBPM:200.000000;
#NOTES:
0000
0000
0000
0000
,
0000
0000
0000
0000
,
0000
0000
0000
0000
,
0000
0000
0000
0000
,
0000
0000
0000
0000
,
0001
0000
0000
0000
,
0000
0000
0000
0000
,
1000
0000
0000
0000
,
0000
0000
0000
0000
,
0001
0000
0000
0000
,
0000
0000
0000
0000
,
1000
0000
0000
0000
,
0000
0000
0000
0000
,
0001
0000
0000
0000
,
0001
0000
0000
0000
,
0001
0000
0000
0000
,
1000
0000
0000
0000
,
0001
0000
0001
0000
,
0001
0000
0000
0000
,
0001
0000
0000
0000
,
0100
0000
0000
0000
,
1000
0000
0000
0000
,
1000
0000
0000
0000
,
1000
0000
0000
0000
,
0001
0000
0000
0000
,
1000
0000
1000
0000
,
1000
0000
0000
0000
,
1000
0000
0000
0000
,
0100
0000
0000
0000
,
0001
0000
0001
0000
,
0001
0000
0000
0000
,
1000
0000
1000
0000
,
1000
0000
0000
0000
,
0001
0000
0001
0000
,
0001
0000
0000
0000
,
0100
0000
0000
0000
,
0001
0000
0000
0000
,
1000
0000
0000
0000
,
0010
0000
0000
0000
,
0010
0000
0010
0000
,
0010
0000
0000
0000
,
1000
0000
1000
0000
,
1000
0000
0000
0000
,
0100
0000
0000
0000
,
0100
0000
0000
0000
,
0010
0000
0000
0000
,
0010
0000
0010
0000
,
0010
0000
0000
0000
,
0100
0000
0000
0000
,
0001
0000
0001
0000
,
0001
0000
0000
0000
,
0100
0000
0000
0000
,
0100
0000
0000
0000
,
0010
0000
0000
0000
,
0010
0000
0010
0000
,
0010
0000
0000
0000
,
0100
0000
0000
0000
,
0001
0000
0001
0000
,
0001
0000
0000
0000
,
1000
0000
1000
0000
,
1000
0000
0000
0000
,
0001
0000
0001
0000
,
0001
0000
0000
0000
,
1000
0000
1000
0000
,
1000
0000
0000
0000
,
0001
0000
0001
0000
,
1000
0000
1000
0000
,
0001
0000
0001
0000
,
1000
0000
0000
0000
,
0001
0000
0001
0000
,
1000
0000
1000
0000
,
1001
0000
0000
0000
,
0000
0000
0000
0000
,
0001
0000
0000
0000
,
0001
0000
0000
0000
,
1000
0000
0000
0000
,
1000
0000
0000
0000
,
0010
0000
0000
0000
,
0010
0000
0000
0000
,
0100
0000
0100
0100
,
0000
0000
0000
0000
;

//---------------dance-single - ----------------
#NOTEDATA:;
#CHARTNAME:;
#STEPSTYPE:dance-single;
#DESCRIPTION:;
#CHARTSTYLE:;
#DIFFICULTY:Easy;
#METER:5;
#RADARVALUES:0.261714,0.357676,0.048466,0.135704,0.000000,189.000000,184.000000,5.000000,14.000000,0.000000,0.000000,0.000000,0.000000,0.000000,0.261714,0.357676,0.048466,0.135704,0.000000,189.000000,184.000000,5.000000,14.000000,0.000000,0.000000,0.000000,0.000000,0.000000;
#CREDIT:;
#DISPLAYBPM:200.000000;
#NOTES:
0000
0000
0000
0000
,
0000
0000
0000
0000
,
0000
0000
0000
0000
,
0000
0000
0000
0000
,
0000
0000
0000
0000
,
0100
0000
0001
0000
,
0100
0000
0010
0000
,
1000
0000
0001
0000
,
1000
0000
0100
0000
,
0010
0000
0010
0000
,
0001
0000
1000
0000
,
0010
0000
0100
0200
,
0000
0000
0300
0000
,
0001
0000
1000
0000
,
0001
0001
0001
0000
,
0002
0000
0000
0003
,
0100
0000
0000
0000
,
0010
0010
0010
0000
,
0001
0001
0001
0000
,
0100
0100
0100
0000
,
0001
0000
0100
0000
,
0010
0000
0001
0000
,
1000
1000
1000
0000
,
2000
0000
0000
3000
,
0100
0000
0000
0000
,
0010
0010
0010
0000
,
1000
1000
1000
0000
,
0100
0100
0100
0000
,
0100
0000
0000
0000
,
1000
0000
0100
0000
,
0010
0010
0010
0000
,
0001
0000
0100
0000
,
0020
0000
0000
0030
,
0001
0000
0010
0000
,
0100
0100
0100
0000
,
1001
0000
0010
0000
,
1001
0000
0100
0000
,
0010
0000
0100
0000
,
0001
0000
1000
0000
,
0010
0010
0100
0100
,
2002
0000
0000
3003
,
1000
1000
1000
1000
,
0010
0010
0100
0000
,
0001
0001
0100
0010
,
0100
0000
0010
0000
,
0200
0000
0000
0300
,
0010
0000
1000
0000
,
0001
0000
1000
0000
,
0010
0010
0010
0000
,
0001
0001
0001
0001
,
0010
0010
0100
0000
,
1000
1000
0100
0010
,
0100
0000
0010
0000
,
0200
0000
0000
0300
,
0010
0000
0001
0000
,
1000
0000
0001
0000
,
0010
0010
0010
0000
,
1000
0000
0001
0000
,
1000
1000
1000
0000
,
1000
0000
0001
0000
,
1001
0000
0000
0000
,
2000
3000
0002
0003
,
1000
0001
1000
0000
,
2000
0000
3002
0000
,
1003
0001
1000
0000
,
1000
1000
0001
0001
,
1000
1000
0001
0001
,
0100
0100
0001
0001
,
1000
1000
0010
0010
,
0100
0100
0001
0001
,
0010
0010
0100
0100
,
0100
0000
0010
0000
,
0100
0000
0000
0000
,
0010
0000
0010
0010
,
0000
0001
0100
0100
,
0010
0000
1000
1000
,
0000
0100
1000
1000
,
0010
0000
0001
0001
,
0000
0100
0010
0010
,
0001
0000
1000
2002
,
0000
0000
0000
0000
,
0000
0000
0000
0000
,
3003
0000
0000
0000
,
0000
0000
0000
0000
;

//---------------dance-single - ----------------
#NOTEDATA:;
#CHARTNAME:;
#STEPSTYPE:dance-single;
#DESCRIPTION:;
#CHARTSTYLE:;
#DIFFICULTY:Medium;
#METER:9;
#RADARVALUES:0.459731,0.635868,0.387725,0.164783,0.000000,332.000000,292.000000,40.000000,17.000000,0.000000,0.000000,0.000000,0.000000,0.000000,0.459731,0.635868,0.387725,0.164783,0.000000,332.000000,292.000000,40.000000,17.000000,0.000000,0.000000,0.000000,0.000000,0.000000;
#CREDIT:;
#DISPLAYBPM:200.000000;
#NOTES:
0000
0000
0000
0000
,
0000
0000
0000
0000
,
0000
0000
0000
0000
,
0000
0000
0000
0000
,
0000
0000
0000
0000
,
1001
0000
0001
1000
,
0100
0100
0010
0100
,
1000
0000
0001
0010
,
0100
0100
1000
0001
,
0010
0000
0100
1000
,
0001
0100
0010
0100
,
0001
0010
0100
2002
,
0000
0000
3003
0000
,
0100
0010
1000
0001
,
0010
0100
1000
0010
,
0100
0000
1000
0010
,
0100
0000
0010
0100
,
0001
0001
1001
1001
,
0010
0010
0011
0011
,
1001
0010
0100
0010
,
1000
0000
0000
0000
0100
0010
0100
0000
,
0001
0001
1000
0100
,
0010
0100
0001
0010
,
0100
0000
0001
0100
,
0010
0000
0000
0000
0001
1000
0001
0000
,
0100
0100
0110
0110
,
1000
1000
1100
1100
,
0001
0010
0100
0010
,
0100
0000
0010
0010
,
1000
0100
1000
1001
,
0100
0010
0010
0010
,
0001
0100
1000
0010
,
0220
0000
0000
0330
,
0001
0100
0001
1001
,
0100
0010
0010
0010
,
1002
0000
0203
0310
,
2001
0000
3200
0310
,
1000
0100
0001
0010
,
0100
0000
0100
0000
0100
0010
0100
0000
,
1100
1100
0101
0101
,
1001
2002
0000
3003
,
0010
0000
0100
0000
0010
1000
0010
0000
,
0100
0001
0100
1000
,
0001
0000
0100
0000
0010
1000
0010
0000
,
0100
0001
1000
0100
,
0010
0110
0100
0110
,
0010
0110
0100
0110
,
0001
0010
0100
1000
,
1001
0000
0010
0200
0000
0000
0300
0000
,
0001
0000
1001
0000
1000
0010
1000
0000
,
0010
1000
0100
0001
,
0010
0000
1000
0000
0001
0100
0001
0000
,
0100
0001
0010
1000
,
0010
1010
1000
1001
,
0001
0101
0100
0110
,
0020
1000
1000
1030
,
1001
0000
0010
0200
0000
0000
0300
0000
,
1000
1000
0001
0001
,
1000
0001
1000
0000
,
1000
1000
0001
0001
,
1000
0001
1000
0001
,
1000
2000
3001
0002
,
1003
0001
1000
1001
,
1000
1001
0001
1001
,
1000
0001
1001
0010
,
0001
0010
0001
0000
0001
0010
0001
0000
,
0100
0010
1000
0100
,
1000
0100
1000
0000
1000
0100
1000
0000
,
0100
0010
0001
1000
,
0001
1000
0001
0000
0001
1000
0001
0000
,
0100
0000
0010
0000
0100
0010
0100
0000
,
0110
0000
0000
0000
1001
0000
0000
0100
,
0000
0010
0100
0010
0100
0000
0000
0000
,
0010
0010
1000
0001
,
0010
0010
0100
0010
,
0001
0001
1000
0100
,
0010
0000
0010
0000
0001
1000
0001
0000
,
0100
0100
0010
0001
,
1000
0010
0100
0010
,
0001
0010
0100
0000
1000
0000
2002
0000
,
0000
0000
0000
0000
,
0000
0000
0000
0000
,
3003
0000
0000
0000
,
0000
0000
0000
0000
;

//---------------dance-single - ----------------
#NOTEDATA:;
#CHARTNAME:;
#STEPSTYPE:dance-single;
#DESCRIPTION:;
#CHARTSTYLE:;
#DIFFICULTY:Hard;
#METER:12;
#RADARVALUES:0.605127,0.715352,0.630053,0.174476,0.000000,437.000000,372.000000,65.000000,18.000000,0.000000,0.000000,0.000000,0.000000,0.000000,0.605127,0.715352,0.630053,0.174476,0.000000,437.000000,372.000000,65.000000,18.000000,0.000000,0.000000,0.000000,0.000000,0.000000;
#CREDIT:;
#DISPLAYBPM:200.000000;
#NOTES:
0000
0000
0000
0000
,
0000
0000
0000
0000
,
0000
0000
0000
0000
,
0000
0000
0000
0000
,
0000
0000
0000
0000
,
0001
0000
1000
0000
0010
1000
0010
0000
,
0100
0002
1000
1003
,
0001
0000
1000
0000
0010
0001
0100
0000
,
0001
0100
0010
0100
,
1000
0000
0001
0000
0100
0010
0100
0000
,
0001
2000
0001
3001
,
0010
0010
0100
0000
0010
0100
0020
0000
,
0000
0000
0130
0010
,
1001
0000
0100
0000
0001
0100
0010
0000
,
1000
0100
0001
1000
,
0010
0000
0010
0000
0100
1000
0001
0000
,
1000
0000
0001
0000
0010
0001
1000
0000
,
1001
1100
1010
1001
,
0101
0011
0110
1100
,
1000
0000
0001
0000
1000
0001
1000
0000
,
0010
0000
0000
0000
0001
0010
0100
1000
,
0010
0000
0101
0000
1000
0100
0010
0000
,
0001
0100
1000
0010
,
0001
0000
1000
0000
0010
1000
0001
0000
,
0100
0000
0100
0000
0010
0100
0010
0000
,
1010
1001
1010
1001
,
0011
1001
0011
1001
,
0120
1000
0001
1030
,
0001
0010
1001
0000
,
0001
0010
0001
0000
1000
0100
1000
0000
,
0001
0010
0100
1000
0100
0000
0010
0000
,
0001
1000
1010
0101
,
0210
0001
0002
0303
,
1000
0010
1000
0000
0001
0100
0001
0000
,
1000
0010
0100
0001
0010
0000
0100
0000
,
1000
0000
1100
0000
0100
0010
0001
0000
,
0001
0000
0011
0000
0010
0100
1000
0000
,
1000
1010
0001
0011
,
1000
0100
0010
0000
0001
0100
0010
0000
,
1200
0301
0201
1300
,
1001
0000
0010
0100
0000
0001
1000
0100
,
0010
0000
1100
0000
0001
0010
0001
0100
,
0000
0100
0010
0000
1000
0100
0001
0000
,
0100
0000
0011
0000
1000
0010
1000
0100
,
0000
0100
0010
0000
0001
0100
1000
0000
,
0001
0101
1000
1010
,
0100
1100
0010
0011
,
1000
0000
0001
0000
1000
0100
0010
0000
,
0001
0010
0100
1000
0000
0010
0010
0000
,
0001
0000
1100
0000
0001
0100
0010
1000
,
0000
1000
0010
0000
0100
0000
1010
0000
,
0001
1000
0100
0000
0010
0001
0100
0010
,
0000
0010
0100
0000
0001
1000
0100
0000
,
0010
1100
0010
0101
,
0010
1100
0010
0101
,
1000
0000
0010
0000
0100
0010
0100
0000
,
0001
0010
0100
1000
0100
0000
0011
0000
,
2000
0010
3002
0010
,
1003
0001
1000
0001
,
2000
0100
3002
0100
,
1003
0001
1001
1001
,
2010
3100
0012
0103
,
1200
0001
1300
0010
,
1000
0100
1000
0000
0001
0100
0001
0000
,
1100
0101
0110
1001
,
0010
1000
0100
0010
0001
0100
0010
1000
,
0001
0100
0010
1000
0001
0010
0100
1000
,
0010
0100
0001
1000
0010
0100
0001
0100
,
0010
1001
0110
1001
,
0010
0001
0010
0100
1000
0010
1000
0001
,
0100
0010
0100
0001
0010
0100
0010
0000
,
0110
0000
0000
0000
0011
0000
0000
2100
,
0000
3001
0010
0100
1000
0000
1001
0000
,
0010
0000
0101
0000
0010
0001
1000
0100
,
0000
0100
2000
0000
3001
0000
0101
0000
,
0010
0000
1100
0000
0100
1000
0010
1000
,
0000
1000
0001
0000
0100
0100
0010
0000
,
1000
0000
0101
0000
0010
0100
0010
1000
,
0000
1000
0001
0000
0101
0000
1001
0000
,
0010
0100
0010
1000
0001
0100
0020
0000
,
0000
0000
0000
0000
,
0000
0000
0000
0000
,
0030
0000
0000
0000
,
0000
0000
0000
0000
;

//---------------dance-double - ----------------
#NOTEDATA:;
#CHARTNAME:;
#STEPSTYPE:dance-double;
#DESCRIPTION:;
#CHARTSTYLE:;
#DIFFICULTY:Easy;
#METER:6;
#RADARVALUES:0.283870,0.357676,0.058159,0.126011,0.000000,205.000000,199.000000,6.000000,13.000000,0.000000,0.000000,0.000000,0.000000,0.000000,0.283870,0.357676,0.058159,0.126011,0.000000,205.000000,199.000000,6.000000,13.000000,0.000000,0.000000,0.000000,0.000000,0.000000;
#CREDIT:;
#DISPLAYBPM:200.000000;
#NOTES:
00000000
00000000
00000000
00000000
,
00000000
00000000
00000000
00000000
,
00000000
00000000
00000000
00000000
,
00000000
00000000
00000000
00000000
,
00000000
00000000
00000000
00000000
,
00010000
00000000
00001000
00000000
,
00010000
00000000
00100000
00000000
,
00010000
00000000
00001000
00000000
,
00000010
00000000
00000010
00000000
,
00000100
00000000
00001000
00000000
,
00000001
00000000
00000100
00000000
,
00001000
00000000
00010000
00020000
,
00000000
00000000
00030000
00000000
,
00100000
00000000
01000000
00000000
,
00100000
00100000
00100000
00100000
,
10000000
00000000
01000000
00000000
,
00010000
00000000
00000000
00000000
,
00001000
00001000
00001000
00001000
,
00010000
00010000
00010000
00010000
,
00000010
00000010
00000010
00000010
,
00000100
00000000
00000001
00000000
,
00000100
00000000
00000010
00000000
,
00001000
00001000
00001000
00001000
,
00020000
00000000
00000000
00030000
,
00001000
00000000
00000000
00000000
,
00100000
00100000
00100000
00100000
,
00010000
00010000
00010000
00010000
,
10000000
10000000
10000000
10000000
,
01000000
00000000
00000000
00000000
,
10000000
00000000
01000000
00000000
,
00010000
00001000
00010000
00000000
,
00001000
00000000
00000010
00000000
,
00000200
00000000
00000000
00000300
,
00000001
00000000
00000100
00000000
,
00001000
00010000
00001000
00000000
,
00011000
00000000
00100000
00000000
,
00011000
00000000
00000100
00000000
,
00011000
00000000
00100000
00000000
,
02200000
00000000
00000000
03300000
,
00010000
10000000
00010000
10000000
,
00010000
10000000
20020000
30030000
,
00100000
00100000
00100000
00100000
,
00001000
00010000
00001000
00000000
,
00010000
00000000
00001000
00000000
,
00000010
00000000
00000100
00000000
,
00000020
00000001
00000000
00000031
,
00000200
00000001
00000000
00000301
,
00001000
00000000
00000001
00000000
,
00000100
00001000
00010000
00000000
,
00000010
00000010
00000010
00000010
,
00010000
00010000
00001000
00000000
,
00010000
00000000
01000000
00000000
,
00100000
00000000
01000000
00000000
,
00200000
10000000
00000000
10300000
,
02000000
10000000
00000000
13000000
,
00010000
00000000
10000000
00000000
,
01000000
00100000
01000000
00000000
,
10000000
00000000
00010000
00000000
,
10000000
00010000
10000000
00000000
,
00010000
00000000
00001000
00000000
,
00010000
00001000
00010000
00000000
,
00001000
00000000
00000001
00000000
,
00001000
00000001
00001000
00000000
,
00010000
00000000
00001000
00000000
,
00010000
00001000
00010000
00000000
,
00000010
00000010
00001000
00001000
,
00000100
00000100
00010000
00010000
,
00001000
00001000
00100000
00100000
,
00010000
00010000
10000000
10000000
,
01000000
01000000
00010000
00010000
,
00001000
00001000
00000010
00000010
,
00000001
00000000
00001000
00000000
,
00000010
00001000
00000100
00000000
,
00010000
00000000
00001000
00001000
,
00010000
00000000
00100000
00000000
,
01000000
00000000
00010000
00010000
,
10000000
00000000
00100000
01000000
,
00100000
00000000
00010000
00010000
,
01000000
00000000
00001000
00010000
,
00001000
00000000
00010000
00022000
,
00000000
00000000
00000000
00000000
,
00000000
00000000
00000000
00000000
,
00033000
00000000
00000000
00000000
,
00000000
00000000
00000000
00000000
;

//---------------dance-double - ----------------
#NOTEDATA:;
#CHARTNAME:;
#STEPSTYPE:dance-double;
#DESCRIPTION:;
#CHARTSTYLE:;
#DIFFICULTY:Medium;
#METER:9;
#RADARVALUES:0.462500,0.556385,0.436190,0.164783,0.000000,334.000000,289.000000,45.000000,17.000000,0.000000,0.000000,0.000000,0.000000,0.000000,0.462500,0.556385,0.436190,0.164783,0.000000,334.000000,289.000000,45.000000,17.000000,0.000000,0.000000,0.000000,0.000000,0.000000;
#CREDIT:;
#DISPLAYBPM:200.000000;
#NOTES:
00000000
00000000
00000000
00000000
,
00000000
00000000
00000000
00000000
,
00000000
00000000
00000000
00000000
,
00000000
00000000
00000000
00000000
,
00000000
00000000
00000000
00000000
,
00010100
00001000
00000001
00000100
,
00000010
00001000
00000100
00000100
,
00010100
00001000
00100000
00010000
,
01000000
00100000
10000000
10000000
,
11000000
00100000
00010000
01000000
,
00001000
00010000
00000010
00000010
,
00001010
00000100
00000010
00002002
,
00000000
00000000
00003003
00000000
,
00001001
00000000
00000001
00000100
,
00001000
00010000
00100000
01000000
,
01000000
00000000
00010000
00100000
,
01000000
00000000
00100000
00000000
,
01000000
01000000
11000000
11000000
,
00100000
00100000
00101000
00101000
,
00011000
00010000
00001000
00000100
,
00000010
00000000
00000100
00000000
00000001
00000100
00000001
00000000
,
00001001
00000000
00000001
00000010
,
00001000
00010000
00001000
00100000
,
00100000
00000000
01000000
10000000
,
00100000
00000000
00000000
00000000
10000000
01000000
10000000
00000000
,
00010000
00010000
01010000
01010000
,
00001000
00001000
00011000
00011000
,
00010000
00001000
00000100
00000010
,
00000200
00000000
00000010
00000310
,
00001000
00000001
00001000
00000000
00000001
00001000
00000001
00000000
,
00000010
00000100
00000110
00001000
,
00000001
00000010
00001000
00010000
,
00022000
00000000
00000000
00033000
,
00100000
01000000
00100000
00000000
01000000
00100000
01000000
00000000
,
00010000
10000000
10010000
00100000
,
00001000
00010000
01000000
10000000
,
01000000
00010000
00001000
00000100
,
00000001
00000001
00001000
00001000
,
00000010
00000000
00000010
00000000
00001000
00000100
00000010
00000000
,
00000011
00000011
00001100
00001100
,
00000010
00000000
00020000
00002000
00000000
00000000
00033000
00000000
,
00010000
00000000
00001000
00000000
00010000
01000000
00100000
00000000
,
00010000
01000000
00100000
10000000
,
01000000
00010000
01000000
10000000
,
00100000
10010000
00100000
00100000
,
00001000
00011000
00010000
00011000
,
00001000
00011000
00010000
00011000
,
00001000
00000100
00000010
00000001
,
00000010
00000000
00000100
00000200
00000000
00000000
00000300
00000000
,
00000001
00000000
00001000
00000000
00000100
00010000
00001000
00000000
,
00010000
00001000
00010000
01000000
,
00100000
00000000
00100000
00000000
00010000
00100000
00010000
00000000
,
01000000
00010000
00100000
01000000
,
10000000
10010000
00010000
00110000
,
00100000
00101000
00001000
00011000
,
00020200
00000000
00000000
00030300
,
00001100
00000000
00000010
00000020
00000000
00000000
00000030
00000000
,
00001000
00001000
00000001
00000001
,
00001000
00000001
00001000
00000100
,
00010000
00010000
00001000
00001000
,
00010000
00001000
00010000
01000000
,
20000000
00010000
30020000
10000000
,
10030000
00010000
10000000
00100000
,
00020000
00100000
00032000
00000010
,
00013000
00001000
00010000
00001000
,
00010000
00001000
00000100
00000001
,
00000010
00001000
00010000
01000000
,
10000000
00100000
00010000
00001000
,
00000100
00000101
00000010
00000110
,
00000001
00000100
00001000
00010000
,
00100000
00000000
10000000
00000000
01000000
00000000
00010000
00001000
,
00010000
00000000
00000000
00000000
00011000
00000000
00000000
00000010
,
00000000
00000010
00000100
00001000
00010000
00000000
00000000
00000000
,
00010010
00001000
00000001
00000010
,
00000100
00001000
00000010
00001100
,
00010010
00001000
01000000
00010000
,
00100000
01000000
10000000
01010000
,
10100000
01000000
00010000
00100000
,
00001000
00010000
00000100
00000011
,
00001100
00000010
00010000
00022000
,
00000000
00000000
00000000
00000000
,
00000000
00000000
00000000
00000000
,
00033000
00000000
00000000
00000000
,
00000000
00000000
00000000
00000000
;

//---------------dance-double - ----------------
#NOTEDATA:;
#CHARTNAME:;
#STEPSTYPE:dance-double;
#DESCRIPTION:;
#CHARTSTYLE:;
#DIFFICULTY:Hard;
#METER:13;
#RADARVALUES:0.584356,0.715352,0.513735,0.203555,0.000000,422.000000,369.000000,53.000000,21.000000,0.000000,0.000000,0.000000,0.000000,0.000000,0.584356,0.715352,0.513735,0.203555,0.000000,422.000000,369.000000,53.000000,21.000000,0.000000,0.000000,0.000000,0.000000,0.000000;
#CREDIT:;
#DISPLAYBPM:200.000000;
#NOTES:
00000000
00000000
00000000
00000000
,
00000000
00000000
00000000
00000000
,
00000000
00000000
00000000
00000000
,
00000000
00000000
00000000
00000000
,
00000000
00000000
00000000
00000000
,
00100000
00001000
00010000
00000000
01000000
10000000
01000000
00000000
,
00100000
00002000
00010000
00003010
,
00000100
00010000
00001000
00000000
00010000
00001000
00000100
00000000
,
00000020
00000001
00001030
00010100
,
00001000
00000100
00010000
00000000
00001000
00100000
00010000
00000000
,
02000000
00010000
03001000
00101000
,
00010000
00001000
00100000
00010000
00001000
00000000
00022000
00000000
,
00000000
00030000
00010000
00013000
,
00011000
00000000
00001000
00000001
,
00000010
00000100
00001000
00000010
,
00000100
00000000
00000100
00000000
00000010
00001000
00000100
00000000
,
00001000
00000010
00000100
00000100
,
00001001
00000011
00000110
00001100
,
00010100
00011000
00101000
00110000
,
10010000
00000000
00100000
00000000
00010000
01000000
00100000
00000000
,
10000000
00000000
00000000
00000000
00010000
01000000
10000000
01000000
,
00010000
00000000
00110000
00000000
10000000
01000000
00010000
00000000
,
00001000
00011000
00001000
00000100
,
00000100
00000000
00000001
00000000
00000010
00000001
00000100
00000000
,
00000010
00000000
00000100
00000000
00001000
00010000
00001000
00000000
,
00011000
00101000
01100000
01001000
,
00011000
00010010
00000110
00010100
,
00001000
00010000
01000000
10000000
,
00100000
01000000
01100000
00000000
,
11000000
00000000
10000000
01000000
00000000
01000000
00100000
00001000
,
00000000
00001000
00010000
00100000
01000000
00000000
00010000
00000000
,
00100000
00011000
00000010
00001000
,
00000200
00000010
00000010
00000310
,
00000001
00000100
00000010
00001000
00000000
00001000
00000010
00000100
,
00000000
00000100
00000010
00000000
00001001
00000000
00000010
00000000
,
00000001
00000000
00001000
00000000
00000001
00000100
00001000
00000000
,
00010000
00000000
00001000
00000000
00010000
00001000
00100000
00000000
,
10000000
00000000
00100000
00000000
00010000
01000000
00100000
00000000
,
10000000
01000000
00010000
00001000
,
00021000
01030000
00012000
00003100
,
00011000
00000000
00010000
00001000
00000000
00000010
00000001
00000100
,
00000010
00000000
00001100
00000000
00000010
00000001
00000100
00001000
,
00000000
00001000
00000100
00000000
00000010
00001000
00010000
00000000
,
01000000
00000000
01100000
00000000
00010000
00100000
01000000
10000000
,
00000000
10000000
01000000
00000000
00100000
00001000
00010000
00000000
,
00001000
00011000
00000010
00000110
,
00000001
00001001
00000100
00010100
,
00000010
00000001
00000100
00001000
,
00010000
00001000
00010000
01000000
00000000
00100000
00100000
00000000
,
01000000
00000000
00110000
00000000
01000000
10000000
00100000
00010000
,
00000000
00010000
00100000
00000000
01000000
00010000
10000000
00000000
,
01000000
00000000
00110000
00000000
00100000
00001000
00010000
00000100
,
00000000
00000100
00000010
00000000
00000001
00001000
00000100
00000000
,
00000010
00000101
00001000
00010010
,
00000100
00101000
00010000
11000000
,
00200000
00010000
00001000
01300000
,
00010000
00100000
01000000
10000000
01000000
00000000
10010000
00000000
,
20000000
00100000
30020000
00100000
,
10030000
00010000
10000000
00100000
,
00020000
00100000
00032000
00000010
,
00013000
00001000
00010000
00011000
,
00002000
00000010
00023000
00000010
,
00031000
00000010
00000001
00000100
,
00002000
00000010
00003002
00000010
,
00001003
00001001
00000110
00001001
,
00000100
00000001
00000010
00000100
00001000
00000010
00000100
00001000
,
00010000
00001000
00100000
00010000
01000000
00100000
10000000
01000000
,
00100000
00001000
00010000
00000100
00001000
00000010
00000100
00000001
,
00000010
00000100
00001000
00000010
00000100
00000001
00000010
00000100
,
00010000
00001000
01000000
00100000
10000000
01000000
00010000
00001000
,
00100000
00001000
00010000
00000100
00000010
00000001
00000100
00000000
,
00000110
00000000
00000000
00000000
00011000
00000000
00000000
00000110
,
00000000
00000001
00000010
00000100
00001000
00000000
00001001
00000000
,
00000100
00010000
00001000
00000000
00000010
00000001
00000010
00000000
,
00000100
00020000
00001000
01030000
,
00100000
00001000
00010000
00000000
00001000
00010000
00100000
00000000
,
02000000
10000000
03010000
00101000
,
00010000
00100000
00001000
00000000
00010000
00000100
00001000
00000000
,
00000020
00010000
00001030
00000101
,
00000010
00000001
00000100
00001000
00010000
01000000
00200000
00000000
,
00000000
00000000
00000000
00000000
,
00000000
00000000
00000000
00000000
,
00300000
00000000
00000000
00000000
,
00000000
00000000
00000000
00000000
;

//---------------dance-single - ----------------
#NOTEDATA:;
#CHARTNAME:;
#STEPSTYPE:dance-single;
#DESCRIPTION:;
#CHARTSTYLE:;
#DIFFICULTY:Challenge;
#METER:17;
#RADARVALUES:0.970696,1.351463,1.105015,0.213249,0.596127,701.000000,587.000000,114.000000,22.000000,0.000000,0.000000,0.000000,0.000000,0.000000,0.970696,1.351463,1.105015,0.213249,0.596127,701.000000,587.000000,114.000000,22.000000,0.000000,0.000000,0.000000,0.000000,0.000000;
#CREDIT:;
#DISPLAYBPM:200.000000;
#NOTES:
// measure 0
0000
0000
0000
0000
,  // measure 1
0000
0000
0000
0000
,  // measure 2
0000
0000
0000
0000
,  // measure 3
0000
0000
0000
0000
,  // measure 4
0000
0000
0000
0000
,  // measure 5
1010
0000
0100
0001
0000
0001
0010
0100
,  // measure 6
1100
0101
1100
0101
,  // measure 7
0011
0000
0001
0100
0000
0010
1000
0010
,  // measure 8
0110
1010
0110
0101
,  // measure 9
1001
0000
1000
0100
0000
0001
0100
0010
,  // measure 10
1010
0101
1100
0011
,  // measure 11
0001
0100
0010
1000
0000
0010
0200
0000
,  // measure 12
0000
0000
0010
0010
,  // measure 13
0310
0000
0001
0100
0010
0000
1000
0010
,  // measure 14
0110
1010
1100
0101
,  // measure 15
0001
0100
0010
1000
0000
0010
0001
0100
,  // measure 16
0210
1300
1001
0011
,  // measure 17
0110
0000
1100
0000
0110
0100
0101
0000
,  // measure 18
0110
0000
1010
0000
0110
0010
0011
0000
,  // measure 19
0110
0000
1000
1001
0000
0110
0000
1000
,  // measure 20
0001
0000
0100
0000
0010
0000
1000
0000
0100
1000
0100
0010
0001
0100
0010
0000
,  // measure 21
0100
1100
0010
1001
,  // measure 22
0011
0000
0000
0001
0100
0000
0000
0100
1000
0000
0000
1000
0010
0000
0000
0010
,  // measure 23
0100
0010
0001
0100
0000
0010
1000
0010
,  // measure 24
0120
0000
0031
0000
0101
0100
0010
1000
,  // measure 25
1100
0000
0101
0000
1100
0100
0101
0000
,  // measure 26
1010
0000
0011
0000
1010
0010
0011
0000
,  // measure 27
1001
0000
0010
0110
0000
1001
0000
0220
,  // measure 28
0000
0000
0000
0000
0000
0000
0330
0000
0100
0000
0010
0100
0010
0100
0010
0000
,  // measure 29
1000
0100
0010
0000
0001
0000
0010
0000
0001
0100
0001
0000
0100
0000
1000
0000
,  // measure 30
0001
0010
0100
0000
1000
0000
0010
0000
0001
1000
0001
0000
1000
0000
0010
0000
,  // measure 31
0100
0000
0110
0000
0010
0000
0001
0000
1000
0010
0100
0001
1000
0100
0010
0001
,  // measure 32
0020
0100
0100
0130
,  // measure 33
1000
0010
0100
0000
0010
0000
0001
0000
0000
0000
0001
0100
0010
0000
1000
0000
,  // measure 34
0000
0000
0001
0010
0100
0000
1000
0000
0010
0000
0100
0000
0001
0000
1000
0000
,  // measure 35
1001
0000
0110
0000
1001
0000
0010
0100
,  // measure 36
1001
0100
0010
0000
0110
0001
1000
0001
,  // measure 37
0110
0000
1010
0000
1100
0010
0001
0100
,  // measure 38
0011
0000
1010
0000
0011
0010
1000
0100
,  // measure 39
1200
0000
0301
0100
1200
0000
0310
0001
,  // measure 40
0201
0000
0000
0000
1300
0000
0100
0000
0010
0001
0100
0010
1000
0100
0010
0001
,  // measure 41
0100
0000
0010
0000
0110
0000
0010
0000
1000
0000
0010
0000
0100
0000
0001
0100
,  // measure 42
0001
0000
0100
1000
0100
0000
1000
0010
1000
0000
0010
0100
0001
0010
0100
1000
,  // measure 43
0010
0000
1000
0000
1010
0000
1000
0000
0010
0000
0100
0000
0001
0000
0010
1000
,  // measure 44
0010
0000
1000
0100
2000
0000
0000
0000
0100
0000
3100
0010
0100
0000
0010
0000
,  // measure 45
0011
1000
0101
0000
0110
0001
1100
0000
,  // measure 46
1010
0100
0011
0000
0101
0010
1100
0000
,  // measure 47
0011
1010
1100
0110
,  // measure 48
1000
0000
0010
0000
0100
0000
0002
0000
0000
0000
0013
0000
1000
0100
0010
0001
,  // measure 49
0100
0000
0001
0000
0101
0000
0100
0000
0010
0000
1000
0000
0100
0000
0010
1000
,  // measure 50
0010
0000
0100
0001
0100
0000
0001
0010
0001
0000
1000
0100
1000
0100
0010
0000
,  // measure 51
0001
0000
1000
0000
1001
0000
0001
0000
0010
0000
0100
0000
1000
0000
0010
1000
,  // measure 52
0010
0000
0001
0010
0002
0000
0000
0000
0100
0000
0103
0000
0001
0010
0100
0000
,  // measure 53
1010
0100
0011
0000
0101
0010
1100
0000
,  // measure 54
0110
0001
1010
0000
0101
1000
0011
0000
,  // measure 55
1010
0000
1100
0000
0011
0000
0101
0001
,  // measure 56
1000
0100
0010
0001
1000
0010
0200
0000
0000
0000
0301
0000
0010
0100
1000
0010
,  // measure 57
0100
0001
0010
0000
0001
0010
0100
0000
0010
1000
0100
0000
1000
0100
0010
0000
,  // measure 58
0001
0100
1000
0000
0001
0010
1000
0000
1000
0100
0001
0000
1000
0010
0001
0000
,  // measure 59
1000
0010
0001
0000
0001
0100
1000
0000
1000
0100
0010
0001
0100
0010
1000
0100
,  // measure 60
0020
0000
0001
0000
0100
0000
0031
0100
,  // measure 61
0001
0010
0100
0000
1000
0010
0100
0000
0001
0010
1000
0000
1000
0010
0001
0000
,  // measure 62
1000
0100
0001
0000
1000
0100
0001
0000
0001
0010
0100
0000
1000
0010
0001
0000
,  // measure 63
0100
0010
1000
0000
0001
0010
1000
0000
0100
0010
0001
0010
0100
1000
0010
0100
,  // measure 64
0002
0100
1000
0103
,  // measure 65
1000
0010
0100
0001
1000
0100
0010
0001
1000
0100
0010
0001
0100
1000
0010
0100
,  // measure 66
0001
0010
0100
1000
0001
0010
1000
0100
0010
0001
0100
0010
1000
0100
0010
0001
,  // measure 67
1000
0100
0010
0001
1000
0010
0100
0001
0010
0100
1000
0100
0010
0001
0100
0010
,  // measure 68
0200
0010
1000
0301
,  // measure 69
1000
0010
0100
0001
1000
0100
0010
0001
1000
0100
0010
0001
1000
0100
0010
0001
,  // measure 70
0010
0100
1000
0010
1000
0100
0010
0001
1000
0010
0100
0001
1000
0100
0001
0000
,  // measure 71
0101
0000
1010
0000
1000
0100
0010
0022
,  // measure 72
0033
0000
0001
0000
0010
0000
0100
0000
0010
0000
1000
0000
0100
0010
1000
0000
,  // measure 73
0110
0000
1000
0010
0000
0010
0001
0100
,  // measure 74
0101
1100
0101
1100
,  // measure 75
1010
0000
1000
0100
0000
0100
0001
0010
,  // measure 76
0110
1001
0110
1001
,  // measure 77
1010
0000
0010
0001
0000
0001
0010
1000
,  // measure 78
0110
0011
0110
1100
,  // measure 79
1000
0100
0010
0001
1000
0010
0100
0001
1000
0100
0010
0000
0220
0000
0000
0000
,  // measure 80
0000
0000
0000
0000
,  // measure 81
0000
0000
0000
0000
,  // measure 82
0300
0000
0000
0000
,  // measure 83
0000
0000
0000
0000
0000
0000
0000
0000
0000
0000
0000
0000
0130
0001
1000
0000
,  // measure 84
0000
1100
0000
0000
2020
0000
0000
0000
3030
0000
0000
0000
0000
0000
0000
0000
;
