#TITLE:スキ☆メロ;
#SUBTITLE:;
#ARTIST:小倉優子;
#TITLETRANSLIT:Suki Melo;
#SUBTITLETRANSLIT:;
#ARTISTTRANSLIT:Ogura Yuko;
#GENRE:;
#CREDIT:;
#BANNER:Suki Melo.png;
#BACKGROUND:Suki Melo-bg.png;
#LYRICSPATH:;
#CDTITLE:;
#MUSIC:Suki Melo.ogg;
#OFFSET:0.000000;
#SAMPLESTART:2.660000;
#SAMPLELENGTH:15.000000;
#SELECTABLE:YES;
#DISPLAYBPM:180.000000;
#BPMS:0.000000=180.000000
;
#STOPS:
;
#BGCHANGES:;
#KEYSOUNDS:;
#ATTACKS:;

//---------------dance-single - ----------------
#NOTES:
     dance-single:
     :
     Beginner:
     2:
     0.102266,0.178965,0.022726,0.000000,0.000000,63.000000,61.000000,2.000000,0.000000,0.000000,0.000000,0.102266,0.178965,0.022726,0.000000,0.000000,63.000000,61.000000,2.000000,0.000000,0.000000,0.000000:
0000
0000
0000
0000
,
0000
0000
0000
0000
,
0000
0000
0000
0000
,
0000
0000
0000
0000
,
0000
0000
0000
0000
,
0000
0000
0000
0000
,
0001
0000
0000
0000
,
0000
0000
0000
0000
,
1000
0000
0000
0000
,
0000
0000
0000
0000
,
0001
0000
0000
0000
,
0000
0000
0000
0000
,
0000
0000
0000
0000
,
0000
0000
0000
0000
,
0000
0000
0000
0000
,
1000
0000
0000
0000
,
1000
0000
0000
0000
,
0001
0000
0000
0000
,
0001
0000
0000
0000
,
1000
0000
0000
0000
,
0001
0000
0000
0000
,
1000
0000
0000
0000
,
0001
0000
0000
0000
,
1000
0000
1000
0000
,
1000
0000
0000
0000
,
0001
0000
0001
0000
,
0001
0000
0000
0000
,
1000
0000
0001
0000
,
1000
0000
0000
0000
,
0001
0000
1000
0000
,
0001
0000
0000
0000
,
0010
0000
0000
0000
,
0010
0000
0000
0000
,
0010
0000
0000
0000
,
0010
0000
0000
0000
,
0100
0000
0000
0000
,
0100
0000
0000
0000
,
0100
0000
0000
0000
,
0100
0000
0000
0000
,
0000
0000
0000
0000
,
0000
0000
0000
0000
,
0001
0000
0001
0000
,
1000
0000
1000
0000
,
0001
0000
1000
0000
,
0001
0000
1000
0000
,
0001
0000
0000
0000
,
1000
0000
0000
0000
,
0001
0000
0000
0000
,
1000
0000
0000
0000
,
0001
0000
0001
0000
,
1000
0000
1000
0000
,
0001
0000
1000
0000
,
0001
0000
1000
0000
,
0001
0000
0000
0000
,
1000
0000
0000
0000
,
0001
0000
0000
0000
,
1000
0000
0000
0000
,
0001
0000
0000
0000
,
0000
0000
0000
0000
,
0010
0000
0010
0000
,
0010
0000
0000
0000
,
0000
0000
0000
0000
,
1001
0000
0000
0000
,
1001
0000
0000
0000
,
0000
0000
0000
0000
;

//---------------dance-single - ----------------
#NOTES:
     dance-single:
     :
     Easy:
     6:
     0.266216,0.367873,0.079540,0.181806,0.000000,164.000000,157.000000,7.000000,16.000000,0.000000,0.000000,0.266216,0.367873,0.079540,0.181806,0.000000,164.000000,157.000000,7.000000,16.000000,0.000000,0.000000:
0000
0000
0000
0000
,
0000
0000
0000
0000
,
0000
0000
0000
0000
,
0000
0000
0000
0000
,
0000
0000
0000
0000
,
0000
0000
0000
0000
,
0001
0000
1000
0000
,
1000
0000
0001
0000
,
0001
0000
1000
0000
,
0001
0001
1000
1000
,
2002
0000
0000
3003
,
0000
0010
0000
0010
,
0000
1000
0100
1000
,
0000
0010
0000
0010
,
0000
0001
0100
0001
,
0010
0000
1000
0000
,
0001
0010
0100
1000
,
0010
0000
0001
0000
,
1000
0010
0100
0001
,
1000
1000
0100
0000
,
0001
0100
1000
0000
,
0002
0000
0013
0000
,
2000
0000
3010
0000
,
0010
0010
0001
0000
,
1000
0010
0100
0000
,
0010
0010
1000
0000
,
0001
0010
0100
0000
,
0001
0000
0100
0000
,
1000
0100
0001
0010
,
1000
0000
0100
0000
,
0001
0100
1000
0010
,
0002
0000
0103
0000
,
2000
0000
3100
0000
,
0002
0000
0013
0000
,
2000
0000
3010
0000
,
0002
0000
0103
0000
,
2000
0000
3100
0000
,
0002
0000
0013
0000
,
2000
0000
3010
0000
,
0000
0010
0000
0010
,
0000
0010
0010
0010
,
1000
1000
0100
0100
,
1000
0010
0001
0100
,
1000
1000
0100
0100
,
0001
0010
1000
0100
,
1000
0001
1001
0000
,
0010
0100
0110
0000
,
0001
0100
1000
0100
,
0001
1000
0001
0000
,
0001
0001
0100
0100
,
0001
0010
1000
0100
,
0001
0001
0100
0100
,
1000
0010
0001
0100
,
0001
1000
1001
0000
,
0010
0100
0110
0000
,
1000
0100
0001
0100
,
1000
0010
0001
0100
,
2000
0000
0000
3000
,
0002
0000
0000
0003
,
0010
0000
0010
0000
,
1000
0000
0100
0000
,
0001
0000
0100
0000
,
1001
0000
0000
0000
,
2002
0000
0000
0000
,
0000
0000
0000
3003
,
0000
0000
0000
0000
;

//---------------dance-single - ----------------
#NOTES:
     dance-single:
     :
     Medium:
     8:
     0.342509,0.441447,0.090903,0.227257,0.000000,211.000000,203.000000,8.000000,20.000000,0.000000,0.000000,0.342509,0.441447,0.090903,0.227257,0.000000,211.000000,203.000000,8.000000,20.000000,0.000000,0.000000:
0000
0000
0000
0000
,
0000
0000
0000
0000
,
0000
0000
0000
0000
,
0000
0000
0000
0000
,
0000
0000
0000
0000
,
0000
0000
0000
0000
,
0010
0001
1000
0000
0200
0000
0300
0000
,
0010
1000
0001
0000
0200
0000
0300
0000
,
0010
0001
0100
1000
,
0010
1000
0100
0001
,
2000
0002
0000
3003
,
0000
0010
0000
0100
,
0010
1000
0100
0100
,
0000
0010
0000
0100
,
0010
0001
0100
0100
,
0001
1000
0100
0010
,
0100
1000
0010
0000
0100
0000
0000
0000
,
1000
0001
0100
0010
,
0100
0001
0010
0000
0100
0000
0000
0000
,
1000
0010
0001
0100
,
1000
0100
0001
0010
,
1000
0000
0000
0100
1000
0000
0000
0000
,
0001
0000
0000
0100
0001
0000
0000
0000
,
0010
0001
0100
0001
,
0010
0100
1000
0000
0100
0000
0000
0000
,
0010
1000
0100
1000
,
0010
0100
0001
0000
0100
0000
0000
0000
,
0001
0100
1000
0100
,
0001
0010
1000
0010
,
0100
0100
0010
0010
,
0100
0010
0100
0110
,
0002
0000
0000
0013
0001
0000
0000
0000
,
2000
0000
0000
3010
1000
0000
0000
0000
,
0002
0000
0000
0103
0001
0000
0000
0000
,
2000
0000
0000
3100
1000
0000
0000
0000
,
0002
0000
0000
0013
0001
0000
0000
0000
,
2000
0000
0000
3010
1000
0000
0000
0000
,
0002
0000
0000
0103
0001
0000
0000
0000
,
2000
0000
0000
3100
1000
0000
0000
0000
,
0000
1001
0000
1001
,
0000
1001
0110
1001
,
0010
0010
0001
0100
,
0010
0000
0010
0000
1000
0100
1000
0000
,
0001
0100
1000
0100
,
0001
0000
0010
0000
1000
0010
1000
0000
,
0001
1000
0100
0000
0020
0000
0030
0000
,
1000
0001
0100
0000
0020
0000
0030
0000
,
0100
1000
0010
0001
,
0100
0001
0010
1000
,
0010
0010
1000
0100
,
0010
0000
0010
0000
0001
0100
0001
0000
,
1000
0100
0001
0100
,
1000
0000
0010
0000
0001
0010
0001
0000
,
1000
0001
0100
0000
0020
0000
0030
0000
,
0001
1000
0100
0000
0020
0000
0030
0000
,
0100
0001
0010
1000
,
0100
1000
0010
0001
,
2000
0002
0000
3003
,
0000
0000
0000
0000
,
0010
0010
0100
0010
,
1000
0000
0000
0100
0000
0000
0001
0000
,
0000
0100
0000
0000
1000
0000
0001
0000
,
0110
0000
0000
0000
,
2002
0000
0000
0000
,
0000
0000
0000
3003
,
0000
0000
0000
0000
;

//---------------dance-single - ----------------
#NOTES:
     dance-single:
     :
     Hard:
     9:
     0.462631,0.551809,0.443152,0.181806,0.000000,285.000000,246.000000,39.000000,16.000000,0.000000,0.000000,0.462631,0.551809,0.443152,0.181806,0.000000,285.000000,246.000000,39.000000,16.000000,0.000000,0.000000:
0000
0000
0000
0000
,
0000
0000
0000
0000
,
0000
0000
0000
0000
,
0000
0000
0000
0000
,
0000
0000
0000
0000
,
0000
0000
0000
0000
,
0010
1000
0001
0010
0200
0000
1300
0000
,
0010
0001
1000
0010
0200
0000
0301
0000
,
0010
1010
0100
0101
,
0010
0001
0100
1000
,
0002
2000
0000
3003
,
0000
0010
0000
0010
,
1000
0000
0001
0000
0100
0001
0100
0000
,
0000
0010
0000
0010
,
0001
0000
1000
0000
0100
1000
0100
0000
,
1000
0001
0100
0010
,
0100
0001
0010
0100
1000
0000
0000
0000
,
0001
1000
0100
0010
,
0100
1000
0010
0100
0001
0000
0000
0000
,
0001
0011
1000
1010
,
0001
0101
1000
1100
,
0001
0000
0000
0100
0100
0000
0000
0000
,
1000
1000
0000
0100
1000
0000
1001
0000
,
0010
1000
0100
1000
,
0010
1000
0001
1000
0100
0000
0000
0000
,
0010
0001
0100
0001
,
0010
0001
1000
0001
0100
0000
0000
0000
,
1000
1100
0001
0101
,
1000
1010
0001
0011
,
0100
0100
0010
1000
,
0100
0010
0100
0010
0100
0000
0110
0000
,
2000
0000
0000
0010
3010
0000
0100
0000
,
0002
0000
0000
0010
0013
0000
0100
0000
,
2000
0000
0000
0001
3001
0000
0100
0000
,
0002
0000
0000
1000
1003
0000
0100
0000
,
1010
0000
0000
0100
0001
0000
1100
0000
,
0011
0000
0000
0100
1000
0000
0101
0000
,
0110
0000
0000
0001
1000
0000
0110
0000
,
1001
0000
0000
0100
0010
0000
1001
0000
,
0000
1000
0000
0001
,
0000
1010
0101
1100
,
0010
0000
0010
0000
1000
0001
0100
0000
,
0010
0000
0010
0000
0001
1000
0100
0000
,
1000
0010
0000
0001
0010
0000
1000
0010
,
0000
0001
0010
0001
1000
0000
0110
0000
,
1000
0001
0100
0001
0020
0000
0130
0000
,
0001
1000
0100
1000
0020
0000
0130
0000
,
0001
0101
0010
0011
,
1000
1010
0100
1001
,
0010
0000
0010
0000
0001
1000
0100
0000
,
0010
0000
0010
0000
1000
0001
0100
0000
,
0001
0010
0000
1000
0010
0000
0001
0010
,
0000
1000
0010
1000
0001
0000
0110
0000
,
0001
0100
1000
0100
0002
0000
0103
0000
,
1000
0100
0001
0100
2000
0000
3100
0000
,
0010
0101
0010
1100
,
1001
0110
1001
0110
,
0002
2000
0000
3003
,
0000
0000
0000
0000
,
0010
0100
0010
0100
0010
0100
0010
0000
,
0001
0000
1000
0100
0000
0001
0100
0000
,
1000
0100
0000
0001
0101
0000
1100
0000
,
0110
0000
0000
0000
,
2002
0000
0000
0000
,
0000
0000
0000
3003
,
0000
0000
0000
0000
;

//---------------dance-double - ----------------
#NOTES:
     dance-double:
     :
     Easy:
     5:
     0.233750,0.367873,0.079540,0.113629,0.000000,144.000000,137.000000,7.000000,10.000000,0.000000,0.000000,0.233750,0.367873,0.079540,0.113629,0.000000,144.000000,137.000000,7.000000,10.000000,0.000000,0.000000:
00000000
00000000
00000000
00000000
,
00000000
00000000
00000000
00000000
,
00000000
00000000
00000000
00000000
,
00000000
00000000
00000000
00000000
,
00000000
00000000
00000000
00000000
,
00000000
00000000
00000000
00000000
,
00010000
00000000
00001000
00000000
,
00001000
00000000
00010000
00000000
,
00100000
00000000
10000000
00000000
,
10000000
01000000
00010000
01000000
,
10000000
00010000
00000000
00000000
,
10000000
00000000
00010000
00000000
,
00001000
00000000
00000000
00000000
,
00010000
00000000
00001000
00000000
,
00000001
00000000
00000000
00000000
,
00000010
00000000
00000010
00000000
,
00001000
00000100
00001000
00000000
,
00010000
00000000
00010000
00000000
,
00001000
00010000
00001000
00000000
,
00100000
00000000
10000000
00000000
,
00010000
01000000
00010000
00000000
,
00100000
00000000
00001000
00000000
,
00010000
00000000
00000010
00000000
,
00001000
00000000
00001000
00000000
,
00000001
00000100
00001000
00000000
,
00010000
00000000
00010000
00000000
,
00010000
01000000
10000000
00000000
,
00100000
00010000
01000000
00000000
,
00100000
10000000
01000000
00000000
,
00010000
00000000
00001000
00000000
,
00010000
00001000
00011000
00000000
,
00000020
00000000
00000030
00000000
,
00000002
00000000
00000003
00000000
,
00000200
00000000
00000300
00000000
,
00002000
00000000
00003000
00000000
,
00020000
00000000
00030000
00000000
,
00200000
00000000
00300000
00000000
,
20000000
00000000
30000000
00000000
,
02000000
00000000
03000000
00000000
,
00000000
00010000
00000000
00010000
,
00000000
00001000
00010000
00001000
,
00000010
00000010
00000001
00000000
,
00001000
00000100
00000001
00000100
,
00001000
00001000
00010000
00000000
,
00100000
00010000
00100000
10000000
,
00010000
10000000
10010000
00000000
,
00100000
01000000
01100000
00000000
,
00100000
10000000
00010000
01000000
,
00001000
00010000
00000100
00001000
,
00000010
00000010
00000001
00000000
,
00001000
00000100
00000001
00000100
,
00001000
00001000
00010000
00000000
,
00100000
00010000
00100000
10000000
,
00010000
10000000
10010000
00000000
,
00100000
01000000
01100000
00000000
,
00100000
10000000
00010000
01000000
,
00001000
00010000
00000100
00001000
,
00000001
00001000
00000000
00000000
,
00000000
00000000
00000000
00000000
,
00000000
00000010
00000000
00000010
,
00000001
00000000
00000100
00000000
,
00001000
00000000
00010000
00000000
,
00011000
00000000
00000000
00000000
,
00022000
00000000
00000000
00000000
,
00000000
00000000
00000000
00033000
,
00000000
00000000
00000000
00000000
;

//---------------dance-double - ----------------
#NOTES:
     dance-double:
     :
     Medium:
     8:
     0.347379,0.478234,0.193169,0.249983,0.000000,214.000000,197.000000,17.000000,22.000000,0.000000,0.000000,0.347379,0.478234,0.193169,0.249983,0.000000,214.000000,197.000000,17.000000,22.000000,0.000000,0.000000:
00000000
00000000
00000000
00000000
,
00000000
00000000
00000000
00000000
,
00000000
00000000
00000000
00000000
,
00000000
00000000
00000000
00000000
,
00000000
00000000
00000000
00000000
,
00000000
00000000
00000000
00000000
,
00020010
00030100
00011000
00000000
,
00102000
01003000
00011000
00000000
,
00100000
10000000
01000000
00010000
,
00001000
00000100
00000001
00000010
,
00000002
00002000
00000000
00003003
,
00000000
00000010
00000000
00000010
,
00000001
00001000
00010000
10000000
,
00000000
00100000
00000000
00100000
,
10000000
00010000
00001000
00000001
,
00000010
00000001
00000100
00000001
,
00001000
00000000
00000100
00010000
00001000
00000000
00000000
00000000
,
00000010
00010000
00000100
00010000
,
00001000
00000000
00100000
00010000
10000000
00000000
00000000
00000000
,
10000000
01000000
00010000
01000000
,
10000000
00100000
00010000
00001000
,
00000100
00000000
00000000
00000001
00000001
00000000
00000000
00000000
,
00000100
00000000
00000000
00001000
00001000
00000000
00000000
00000000
,
00000100
00000001
00000010
00000001
,
00001000
00000000
00000010
00010000
00001000
00000000
00000000
00000000
,
00000100
00010000
00000010
00010000
,
00001000
00000000
01000000
00010000
10000000
00000000
00000000
00000000
,
10000000
00100000
00010000
00100000
,
10000000
01000000
00010000
00001000
,
00000010
00000001
00000010
00001000
,
00000010
00000001
00000100
00001000
,
00002000
00000000
00000000
00013000
00100000
00000000
00000000
00000000
,
00020000
00000000
00000000
00031000
00000010
00000000
00000000
00000000
,
00002000
00000000
00000000
00013000
01000000
00000000
00000000
00000000
,
00020000
00000000
00000000
00031000
00000100
00000000
00000000
00000000
,
00002000
00000000
00000000
00013000
10000000
00000000
00000000
00000000
,
00020000
00000000
00000000
00031000
00000001
00000000
00000000
00000000
,
00002000
00000000
00000000
00013000
10000000
00000000
00000000
00000000
,
00020000
00000000
00000000
00031000
00000001
00000000
00000000
00000000
,
00000000
00001001
00000000
00001001
,
00000000
00001001
00000110
00001001
,
00000100
00000100
00001000
00000010
,
00010000
00000000
00001000
00000000
00100000
01000000
10000000
00000000
,
00010000
00100000
10000000
00100000
,
00010000
00000000
00001000
00000000
00000010
00000100
00000010
00000000
,
00000001
00000010
00002200
00003300
,
00001000
00000010
00000202
00000303
,
00000001
00000100
00001000
00010000
,
01000000
10000000
00100000
00010000
,
01000000
01000000
00010000
00100000
,
00001000
00000000
00010000
00000000
00000010
00000100
00000001
00000000
,
00001000
00000010
00000001
00000010
,
00001000
00000000
00000100
00000000
00000001
00000100
00001000
00000000
,
00020010
00030100
00011000
00000000
,
00102000
01003000
00011000
00000000
,
00100000
00010000
00001000
00000010
,
00001000
00010000
00100000
10000000
,
00020000
20000000
00000000
30030000
,
00000000
00000000
00000000
00000000
,
01000000
01000000
00100000
01000000
,
10000000
00000000
00000000
00010000
00000000
00000000
00001000
00000000
,
00000000
00000001
00000000
00000000
00001000
00000000
00000001
00000000
,
00000110
00000000
00000000
00000000
,
00002002
00000000
00000000
00000000
,
00000000
00000000
00000000
00003003
,
00000000
00000000
00000000
00000000
;

//---------------dance-double - ----------------
#NOTES:
     dance-double:
     :
     Hard:
     10:
     0.425296,0.625383,0.386337,0.272709,0.000000,262.000000,228.000000,34.000000,24.000000,0.000000,0.000000,0.425296,0.625383,0.386337,0.272709,0.000000,262.000000,228.000000,34.000000,24.000000,0.000000,0.000000:
00000000
00000000
00000000
00000000
,
00000000
00000000
00000000
00000000
,
00000000
00000000
00000000
00000000
,
00000000
00000000
00000000
00000000
,
00000000
00000000
00000000
00000000
,
00000000
00000000
00000000
00000000
,
00100000
00001000
00010000
00000010
00000200
00000000
00000300
00000000
,
00000010
00010000
00001000
00100000
02000000
00000000
03000000
00000000
,
00102000
01003000
00020010
00030100
,
00101000
00010100
00010010
01001000
,
00020000
20000000
00000000
30030000
,
00000000
01000000
00000000
01000000
,
10000000
00000000
00010000
00000000
00001000
00000001
00001000
00000000
,
00000000
00000100
00000000
00000100
,
00000001
00000000
00001000
00000000
00010000
10000000
00010000
00000000
,
00100000
10000000
01000000
00100000
,
00001000
00010000
00000010
00001000
00000100
00000000
00000000
00000000
,
00000010
00000001
00000100
00000010
,
00010000
00001000
00100000
00010000
01000000
00000000
00000000
00000000
,
10000000
01000000
00010000
01000000
,
10000000
00100000
00010000
00001000
,
00100000
00000000
00000000
01000000
00010000
00000000
00000000
00000000
,
00001000
00000000
00000000
00000100
00000001
00000000
00001001
00000000
,
00000010
00000001
00001000
00000001
,
00000100
00001000
00010000
00100000
01000000
00000000
00000000
00000000
,
00100000
10000000
00010000
10000000
,
01000000
00010000
00001000
00000010
00000100
00000000
00000000
00000000
,
00000001
00000100
00001000
00000100
,
00000001
00000010
00001000
00010000
,
00000010
00001000
00100000
00010000
,
10000000
00000000
00100000
10000000
01000000
00000000
10010000
00000000
,
20000000
00000000
00000000
30010000
00001000
00000000
00000000
00000000
,
00000002
00000000
00000000
00001003
00010000
00000000
00000000
00000000
,
20000000
00000000
00000000
30010000
00001000
00000000
00000000
00000000
,
00000002
00000000
00000000
00001003
00010000
00000000
00000000
00000000
,
00200000
00000000
00000000
01300000
00010000
00000000
00001000
00000000
,
00000020
00000000
00000000
00001030
00010000
00000000
00100000
00000000
,
02000000
00000000
00000000
03001000
00010000
00000000
00000010
00000000
,
00000200
00000000
00000000
00001300
00010000
00000000
01000000
00000000
,
00000000
10000000
00000000
00010000
,
00000000
10000000
00010000
10000000
,
10100000
10100000
01010000
10100000
,
00110000
00000000
00010100
00000000
00000010
00001000
00010000
00000000
,
00000010
00000001
00000000
00001000
00000010
00000000
00000100
00000001
,
00000000
00001000
00000100
00000000
00000011
00000000
00001100
00000000
,
00000010
00010000
00001000
00100000
02000000
00000000
03000000
00000000
,
00100000
00001000
00010000
00000010
00000200
00000000
00000300
00000000
,
00000001
00000010
00001000
01000000
,
00100000
01000000
00100000
10010000
,
11000000
11000000
01010000
11000000
,
00110000
00000000
00010010
00000000
00000100
00001000
00010000
00000000
,
00000100
00000001
00000000
00001000
00000100
00000000
00000010
00000001
,
00000000
00001000
00000010
00000000
00000101
00000000
00001100
00000000
,
00000010
00010000
00001000
00100000
02000000
00000000
03000000
00000000
,
00100000
00001000
00010000
00000010
00000200
00000000
00000300
00000000
,
00020010
00030100
00102000
01003000
,
00010010
01001000
00101000
00010100
,
00002000
00000002
00000000
00003003
,
00000000
00000000
00000000
00000000
,
00001000
00000100
00000001
00000100
,
00001000
00000000
00000000
00100000
00000000
00000000
10000000
00000000
,
00000000
00100000
00010000
10000000
00100000
00000000
01010000
00000000
,
00011000
00000100
00000001
00000010
,
00002002
00000000
00000000
00000000
,
00000000
00000000
00000000
00003003
,
00000000
00000000
00000000
00000000
;

//---------------dance-single - ----------------
#NOTES:
     dance-single:
     :
     Challenge:
     17:
     1.012918,1.213980,0.238620,0.295434,1.278322,624.000000,603.000000,21.000000,26.000000,112.000000,0.000000,1.012918,1.213980,0.238620,0.295434,1.278322,624.000000,603.000000,21.000000,26.000000,112.000000,0.000000:
// measure 0
0000
0000
0000
0000
,  // measure 1
0000
0000
0000
0000
,  // measure 2
0000
0000
0000
0000
,  // measure 3
0000
0000
0000
0000
,  // measure 4
0000
0000
0000
0000
,  // measure 5
0000
0000
0000
0000
,  // measure 6
0100
0010
1000
0100
0010
0001
0100
0010
1000
0000
0000
0000
MMMM
0000
0000
0000
,  // measure 7
0001
0010
0100
1000
0010
0100
0001
1000
0100
0000
0000
0000
MMMM
0000
0000
0000
,  // measure 8
0001
0100
0001
0000
0010
1000
0010
0000
0101
0000
1000
0100
1000
0000
0010
0001
,  // measure 9
0010
0000
0010
0000
0001
0000
0001
0000
0100
0000
0100
0000
0010
1000
0001
0010
,  // measure 10
0200
1000
2000
0000
3300
0000
MMMM
0000
,  // measure 11
1000
0010
1000
0000
0001
0100
0001
0000
MMMM
0000
1100
0000
0000
0000
0101
0000
,  // measure 12
MMMM
0110
1010
1001
0011
0000
MMMM
0000
,  // measure 13
0010
0100
0010
0000
0100
0010
0100
0010
1000
0000
1000
0000
0010
0000
1000
0001
,  // measure 14
1000
0001
1000
0001
1000
0001
1000
0001
1000
0001
1000
0001
1000
0001
1000
0001
,  // measure 15
2000
0000
0010
0000
0100
0000
3001
1000
,  // measure 16
MMMM
0010
0100
0001
2000
0000
3001
0000
,  // measure 17
0020
0000
0031
0020
0000
1030
0010
0100
,  // measure 18
0010
0000
0001
0010
0100
1000
0100
0000
0020
0000
0000
0000
0031
0010
0001
0010
,  // measure 19
0100
0000
1000
0100
1000
0000
0010
0100
0010
0000
0001
0010
0001
0000
0100
0010
,  // measure 20
0100
0000
1000
0100
1000
0000
0010
0001
0010
0000
0100
0010
0100
0010
0100
0010
,  // measure 21
0002
0000
0000
1000
1003
0000
MMMM
0000
,  // measure 22
0102
0013
MMMM
0012
0103
0000
MMMM
0000
,  // measure 23
1000
0100
1000
0000
0001
0100
0001
0000
0110
0000
1000
0010
1000
0010
0100
0010
,  // measure 24
0001
0000
0001
0100
0010
1000
0010
1000
0200
0000
0000
0000
1300
0000
MMMM
0000
,  // measure 25
1000
0100
1000
0000
0010
0100
0010
0100
0001
0000
0010
0001
0010
0001
0100
0000
,  // measure 26
1000
0000
0010
0100
0010
0100
1000
0000
1100
0000
1000
0000
1000
0100
0010
0100
,  // measure 27
1000
0000
MMMM
0000
0001
0010
0100
1000
0010
0000
MMMM
0000
0100
0010
1000
0001
,  // measure 28
0010
0000
MMMM
0000
0100
0001
1000
0100
0010
0000
MMMM
0000
0010
0100
0001
0100
,  // measure 29
0010
0000
1000
0100
1000
0000
0010
0001
0010
0000
0100
0001
0100
0001
0010
0000
,  // measure 30
0100
0010
0100
0010
1000
0100
1000
0000
0001
1000
0000
0000
MMMM
0000
0000
0000
,  // measure 31
1200
0000
0000
0000
0010
0000
0010
0000
0310
0001
1000
0100
0010
0001
0100
0001
,  // measure 32
0010
0101
1010
MMMM
,  // measure 33
0201
0000
0010
0010
0310
0000
1000
0010
,  // measure 34
MMMM
0000
0001
0010
0100
1000
0010
1000
0200
0000
0000
0000
0310
0000
0000
0000
,  // measure 35
0002
0010
0010
0013
0020
0100
0100
0130
,  // measure 36
2000
0100
3100
MMMM
,  // measure 37
1000
0010
1000
0000
0001
0010
0001
0000
1001
0000
1100
0000
1000
0010
0100
0001
,  // measure 38
0010
0000
0100
0010
0100
0010
1000
0010
0100
0010
0100
0010
1000
0010
0100
0010
,  // measure 39
0100
0010
0100
0020
0031
0010
0001
0010
0100
0010
0100
0020
0031
0010
0001
0010
,  // measure 40
0100
0010
0100
0020
1030
0001
1000
0001
0100
0010
0100
0010
0200
0300
0000
0000
,  // measure 41
1000
0100
0010
0001
0100
0000
0001
0010
0100
1000
0010
0000
0100
0001
1000
0100
,  // measure 42
0010
0000
0001
0010
0001
0010
0100
0010
1000
0000
0000
0000
MMMM
0000
0000
0000
,  // measure 43
1000
0010
0100
0001
1000
0000
0001
0010
0100
1000
0010
0000
0100
0001
1000
0100
,  // measure 44
0010
0000
0001
0100
0001
1000
0010
1000
0100
0000
0000
0000
MMMM
0000
0000
0000
,  // measure 45
1000
0100
0010
0001
0100
0010
1000
0001
0200
0000
0310
0000
MMMM
0000
0000
0000
,  // measure 46
0010
0100
0001
1000
0100
0010
0001
0010
0200
0000
1300
0000
MMMM
0000
0000
0000
,  // measure 47
1000
0010
1000
0000
0001
0100
0001
0000
1000
0100
1000
0000
0010
0001
0100
0010
,  // measure 48
1000
0100
1000
0100
1000
0100
1000
0100
1000
0010
1000
0010
1000
0010
1000
0010
,  // measure 49
1000
0010
0100
0001
0010
0000
0001
0010
0100
1000
0010
0000
0100
0001
1000
0100
,  // measure 50
0010
0000
0001
0010
0100
1000
0010
0100
0001
0000
0010
0000
MMMM
0000
0010
0000
,  // measure 51
1000
0010
0100
0001
0010
0000
0001
0010
0100
1000
0010
0000
0100
0001
1000
0100
,  // measure 52
0010
0000
0001
0010
0100
1000
0010
0100
1000
0000
0100
0000
MMMM
0000
0100
0000
,  // measure 53
1000
0010
0100
0001
1000
0100
0010
0001
0200
0000
0310
0000
MMMM
0000
0000
0000
,  // measure 54
0001
0010
0100
1000
0010
0100
0001
1000
0200
0000
0301
0000
MMMM
0000
0000
0000
,  // measure 55
0010
0100
0010
0000
0100
0010
0100
0000
1001
0000
0101
0000
0001
0010
0100
1000
,  // measure 56
0010
0100
0001
0100
0010
1000
0100
0010
0001
0100
0010
1000
0001
0010
0100
1000
,  // measure 57
0010
0100
0010
0100
0010
0100
0010
0100
0010
0100
0010
0100
0010
0100
0010
0100
,  // measure 58
1000
0001
1000
0001
1000
0001
1000
0001
1000
0001
1000
0001
1000
0001
1000
0001
,  // measure 59
0100
0010
0100
0010
0100
0010
0100
0010
0100
0010
0100
0010
0100
0010
0100
0010
,  // measure 60
1000
0100
0010
0100
1000
0000
0001
0010
0100
0010
0001
0000
1000
0100
0010
0001
,  // measure 61
0100
0000
0001
0010
0100
1000
0010
0000
0101
0000
MMMM
0000
0101
0000
0000
0000
,  // measure 62
0100
0000
0000
1000
0000
0000
0100
0000
0000
0001
0000
0000
0100
0000
0000
1000
0000
0000
0100
0000
0000
0001
0000
0000
0100
0000
0000
1000
0000
0000
0100
0000
0000
0001
0000
0000
0100
0000
0010
0000
1000
0000
0001
0000
0100
0000
0010
0000
,  // measure 63
0200
0000
0000
0000
,  // measure 64
0000
0000
0000
0300
;
