#TITLE:Starian;
#SUBTITLE:;
#ARTIST:DUKE;
#TITLETRANSLIT:;
#SUBTITLETRANSLIT:;
#ARTISTTRANSLIT:;
#GENRE:;
#CREDIT:;
#BANNER:Starian.png;
#BACKGROUND:Starian-bg.png;
#LYRICSPATH:;
#CDTITLE:;
#MUSIC:Starian.mp3;
#OFFSET:1.729000;
#SAMPLESTART:33.085999;
#SAMPLELENGTH:15.000000;
#LASTBEATHINT:1.646690;
#SELECTABLE:YES;
#BPMS:0.000000=135.529999
,76.000000=67.764999
,78.000000=135.529999
,126.000000=67.764999
,142.000000=135.529999
;
#STOPS:
;
#BGCHANGES:;
#KEYSOUNDS:;
#ATTACKS:;

//---------------dance-single - ----------------
#NOTES:
     dance-single:
     :
     Easy:
     7:
     0.346834,0.517040,0.539520,0.019982,0.000000,243.000000,189.000000,54.000000,2.000000,0.000000,0.000000,0.346834,0.517040,0.539520,0.019982,0.000000,243.000000,189.000000,54.000000,2.000000,0.000000,0.000000:
0000
0000
0000
0000
,
0000
0000
0000
0000
,
0000
0000
0000
0000
,
0000
0000
0000
0000
,
0000
0000
0000
0000
,
0001
0001
0001
0100
,
1000
1000
1000
0100
,
0001
0001
0100
1000
,
0010
0001
0001
0100
,
1001
0100
1001
0100
,
1001
1001
0100
1001
,
1000
0000
1000
0010
,
0001
0000
0001
0010
,
1000
0100
0001
0100
,
1001
1001
0100
1000
,
0001
0000
0001
0010
,
1000
0000
1000
0010
,
0001
0100
1000
0100
,
1001
1001
0100
0001
,
1000
1000
1000
1000
0110
0000
0001
0000
,
0110
1000
0001
0100
,
1000
0100
0110
1000
,
0110
0001
1000
0100
,
0001
0100
0010
0010
,
0100
0100
0010
1001
,
0100
1001
0110
0001
,
0110
1000
0001
0100
,
1000
0100
0001
0001
,
0001
1001
1000
1000
,
1000
1001
0001
1001
,
1000
1001
0110
1001
,
0110
0000
1001
0000
0001
0000
0001
0001
,
0100
1000
1001
1001
1000
0000
1000
1000
,
0100
0001
1001
1001
0001
0000
0001
0001
,
0100
1000
1001
1001
1000
0000
1000
1000
,
0100
0001
1001
1001
0010
0000
0000
0000
,
0100
1001
0010
0000
,
0100
1001
0100
0001
,
0100
1000
0110
1000
,
0110
0001
0010
0000
,
0100
1001
0010
0000
,
0100
1001
0100
0001
,
0100
1000
0110
1000
,
0110
0001
0110
1000
,
1000
1000
0110
0001
,
0001
0001
0110
1000
,
0110
0001
0110
1001
,
0110
1001
1000
0000
,
1000
0000
0001
0000
,
0001
0000
1000
1001
,
0001
1001
1000
1001
,
0001
1001
2002
3003
;

//---------------dance-single - ----------------
#NOTES:
     dance-single:
     :
     Medium:
     10:
     0.401072,0.542892,0.559502,0.019982,0.039964,281.000000,225.000000,56.000000,2.000000,0.000000,0.000000,0.401072,0.542892,0.559502,0.019982,0.039964,281.000000,225.000000,56.000000,2.000000,0.000000,0.000000:
0000
0000
0000
0000
,
0000
0000
0000
0000
,
0000
0000
0000
0000
,
0000
0000
0000
0000
,
0000
0000
0000
0000
,
0010
0000
0010
0001
0100
0000
0101
0000
,
0010
0010
1000
0100
,
0010
0000
0010
1000
0100
0000
1100
0000
,
0010
0010
0001
0100
,
1000
0100
1000
0000
1001
0000
1001
0000
,
0001
0100
0001
0000
1001
0000
1001
0000
,
1000
1000
1100
0001
,
0010
1100
0001
0101
,
0010
1000
0010
0001
,
0010
0010
0100
1001
,
0001
0001
0101
1000
,
0010
0101
1000
1100
,
0010
0001
0010
1000
,
0010
0010
0100
1001
,
0001
0001
0010
1000
0010
0000
1000
0000
,
1100
1001
0100
0001
,
0100
0001
0010
0001
,
0101
1001
0100
1000
,
0100
0000
1000
0000
0010
1000
0100
0000
,
0001
0000
0001
0000
0010
0001
0100
0000
,
1000
1000
1001
1001
,
0100
1001
1000
1100
,
0001
0101
0010
1001
,
0100
1001
1100
0001
,
1100
0001
0010
1001
,
0100
1001
0101
1100
,
1001
0000
0000
0000
1001
0000
0000
0000
0001
0100
1000
0000
0001
0000
0001
0000
,
1000
0100
0001
0000
1000
0000
1000
0000
0001
0100
1000
0000
0001
0000
0001
0000
,
1000
0100
0001
0000
1000
0000
1000
0000
0001
0100
0100
0000
1000
0000
1000
0000
,
1000
0100
0100
0000
0001
0000
0001
0000
0001
0100
0100
0000
1000
0000
1000
0000
,
1000
0100
0100
0000
0001
0000
0001
0000
0010
0000
0000
0000
0100
0000
0000
0000
,
1100
0101
0010
1000
,
0100
0001
0101
1010
,
0101
0101
1000
1000
,
0100
0001
0010
0100
,
0101
1100
0010
0001
,
0100
1000
1100
0011
,
1100
1100
0001
0001
,
0100
0000
1000
0000
0010
1000
0001
0000
,
0101
0000
1001
0000
0010
0001
1000
0000
,
1100
0000
1001
0000
0100
0001
1000
0000
,
0100
1000
0001
0000
0010
0001
1000
0000
,
0010
1000
0001
0000
0100
0000
0001
0000
,
1001
0100
1001
0100
,
0100
1001
0100
1000
,
1001
0100
1001
0100
,
0100
1001
2002
3003
;

//---------------dance-single - ----------------
#NOTES:
     dance-single:
     :
     Hard:
     13:
     0.488137,0.775560,0.449600,0.019982,0.079929,342.000000,297.000000,45.000000,2.000000,0.000000,0.000000,0.488137,0.775560,0.449600,0.019982,0.079929,342.000000,297.000000,45.000000,2.000000,0.000000,0.000000:
0000
0000
0000
0000
,
0000
0000
0000
0000
,
0000
0000
0000
0000
,
0000
0000
0000
0000
,
0000
0000
0000
0000
,
0001
0100
1000
0000
1000
0100
0001
0000
,
0001
1000
1001
0000
0001
0001
0001
0000
,
1000
0100
0001
0000
0001
0100
1000
0000
,
1000
0001
1001
0000
1000
1000
1000
0000
,
0001
0100
0010
0000
0001
1000
1000
0000
,
1000
0100
0010
0000
1000
0001
0001
0000
,
0010
0000
0100
0000
1001
0000
0010
0100
,
0001
0000
1000
0000
1100
0000
0010
0100
,
0010
0000
0001
0000
1000
0000
0010
0001
,
1000
0000
1001
0000
0110
0000
0001
1000
,
1000
0000
0010
0000
0101
0000
1000
0100
,
0001
0000
0110
0000
0001
0000
1000
0010
,
0100
0000
0101
0000
1100
0000
0010
0100
,
1000
0001
0110
0010
,
1000
1000
0001
0001
1000
0100
1000
0000
,
0001
0100
0001
0000
1000
0100
1000
0000
,
0001
0100
0001
0000
0010
1000
0100
0000
,
0010
0001
0100
0000
0010
1000
0100
0000
,
0010
0001
0100
0000
0010
0010
1000
1000
,
0100
0100
0010
0010
0001
0001
0100
0100
,
0010
0010
1000
1000
0001
0010
1000
0000
,
1000
0010
0001
0000
0001
0010
1000
0000
,
1000
0010
0001
0000
0010
0010
1000
1000
,
0100
0100
0001
0001
0010
0010
1001
1001
,
0100
0100
1001
1001
1100
1100
1001
1001
,
0101
0101
1001
1001
0010
0010
1000
1000
,
0001
0000
0001
0000
1001
0000
0000
0000
0110
0000
0001
0001
1000
0100
0100
0000
,
0011
0000
1000
1000
0100
0001
0001
0000
1100
0000
0010
0010
0001
0100
0100
0000
,
0101
0000
1000
1000
0100
0010
0010
0000
1001
0000
0010
0010
0100
0010
0010
0000
,
0110
0000
1000
1000
0001
0010
0010
0000
1100
0000
0010
0010
0100
0001
0001
0000
,
1010
0000
0100
0100
0001
0010
0010
0000
1000
0000
0000
0000
0100
0000
0000
0000
,
0001
0000
0010
0100
0010
0000
1001
0000
,
0100
0000
0001
0100
0001
0000
0010
0000
,
1000
0000
0001
1000
0100
0000
0001
0000
,
0100
0000
0010
1000
0001
0000
0101
0000
,
1001
0000
0010
0100
0001
0000
1100
0000
,
0101
0000
0010
1000
0100
0000
1001
0000
,
0110
0000
0001
0100
1000
0000
0110
0000
,
1001
0110
1000
0001
,
0010
0001
0100
0000
0110
0000
0101
0000
,
1000
0100
0001
0000
0010
0001
1000
0000
,
0100
1000
0001
0000
1000
1000
0100
0100
,
0001
0001
0001
0000
1000
0100
1000
0000
,
0001
0100
0001
0000
1000
0100
1000
0000
,
0001
0100
0001
0000
0010
1000
0100
0000
,
0010
0001
0100
0000
0010
1000
0100
0000
,
0010
0001
0100
0000
2002
0000
3003
0000
;

//---------------dance-double - ----------------
#NOTES:
     dance-double:
     :
     Easy:
     7:
     0.332561,0.517040,0.259769,0.009991,0.000000,233.000000,207.000000,26.000000,1.000000,0.000000,0.000000,0.332561,0.517040,0.259769,0.009991,0.000000,233.000000,207.000000,26.000000,1.000000,0.000000,0.000000:
00000000
00000000
00000000
00000000
,
00000000
00000000
00000000
00000000
,
00000000
00000000
00000000
00000000
,
00000000
00000000
00000000
00000000
,
00000000
00000000
00000000
00000000
,
10000000
10000000
01000000
00010000
,
01100000
10010000
00011000
00001001
,
00000010
00000010
00000001
00000001
,
00000100
00000100
00001000
00001000
,
00000110
00001000
00010000
01100000
,
00010000
00010000
10000000
10000000
,
00010000
00100000
00010000
00001000
,
00010000
01000000
10000000
10000000
,
00010000
01000000
10000000
01000000
,
01100000
00010000
00001000
00000110
,
00000001
00000001
00001000
00001000
,
00000001
00000100
00001000
00010000
,
00000100
00000001
00000010
00000010
,
00001000
00001000
00000100
00000100
,
00000001
00000001
00000001
00000001
00001001
00000000
00000100
00000000
,
00001001
00000100
00000010
00000110
,
00001000
00010000
00100000
00100000
,
00001000
00001000
00000010
00001000
,
00010000
01100000
10000000
00100000
,
00010000
00100000
01000000
01000000
,
00100000
01000000
10010000
01000000
,
10010000
01000000
01100000
00010000
,
00001000
00000110
00000001
00000010
,
00001000
00010000
00100000
00100000
,
10000000
10000000
10000000
01000000
,
00010000
00001000
00000100
00000100
,
00000001
00000000
00000001
00000000
00000010
00000001
00000010
00001000
,
00000010
00000100
00000010
00000100
00000010
00000010
00000001
00000100
,
00000110
00001000
00010000
01100000
00100000
10000000
00100000
00010000
,
00100000
01000000
00100000
01000000
00100000
00100000
10000000
01000000
,
01100000
00010000
00001000
00000110
00000001
00000000
00000001
00000000
,
00000100
00001000
00000110
00000001
,
00000110
00001000
00000001
00000010
,
00001000
00001000
00000110
00001000
,
00010000
01100000
10000000
10000000
,
00100000
00010000
01000000
01000000
,
10000000
00100000
01000000
01000000
,
00100000
01000000
10010000
01100000
,
00010000
00001000
00000010
00000010
,
00010000
00010000
01000000
01000000
,
00001000
00001000
00000010
00000010
,
00010000
00010000
01000000
00001000
,
00000100
00000001
00000001
00000001
,
00000010
00001000
00010000
00010000
,
00100000
10000000
10000000
10000000
,
01000000
00010000
00001000
00001000
,
00000100
00000001
00000010
00000001
00000020
00000000
00000030
00000000
;

//---------------dance-double - ----------------
#NOTES:
     dance-double:
     :
     Medium:
     10:
     0.399644,0.542892,0.509547,0.019982,0.034969,280.000000,229.000000,51.000000,2.000000,0.000000,0.000000,0.399644,0.542892,0.509547,0.019982,0.034969,280.000000,229.000000,51.000000,2.000000,0.000000,0.000000:
00000000
00000000
00000000
00000000
,
00000000
00000000
00000000
00000000
,
00000000
00000000
00000000
00000000
,
00000000
00000000
00000000
00000000
,
00000000
00000000
00000000
00000000
,
00010000
00000000
00100000
00000000
10000000
00000000
01000000
00010000
,
00001000
01100000
00010000
00001000
,
01000000
00000000
01100000
00000000
00010000
00000000
00001000
00010000
,
01000000
10000000
00110000
10000000
,
01100000
00000000
00010000
00000000
10000000
00000000
01000000
00010000
,
00001000
00000110
00001001
00000100
,
00000010
00001000
00000100
00001001
,
00000010
00000001
00000100
00000010
,
00001100
00000011
00001000
00000100
,
00001000
00010000
01100000
10010000
,
00100000
00010000
00100000
10000000
,
00011000
00001001
00000100
00001000
,
00010000
01100000
10000000
01100000
,
10000000
01000000
00010000
00001000
,
00000100
00000100
00001000
00010000
00000010
00001000
00010000
00000000
,
01000000
00010000
00001000
00000000
00010100
00000000
00011000
00000000
,
00010100
00000000
00011000
00000000
00100000
00010000
00001000
00000000
,
00000100
00001000
00010000
00000000
01001000
00000000
00011000
00000000
,
01001000
00000000
00011000
00000000
00001000
00010000
00000010
00000000
,
00000010
00010000
00001000
00000000
00101000
00000000
00011000
00000000
,
00100000
00000000
00011000
00000000
00000010
00001000
00010000
00000000
,
01000000
00010000
00001000
00000000
00010100
00000000
00011000
00000000
,
00010100
00011000
00010000
00010000
,
01000000
01000000
10000000
01100000
,
00010000
00001000
00001000
00001000
,
00000100
00000100
00000001
00000110
,
00001000
00000000
00000000
00000000
00010000
00000000
00000000
00000000
01000000
00000000
01000000
00000000
01000000
00000000
00010000
00001000
,
00000100
00000000
00000100
00000000
00000100
00000000
00001000
00010000
01000000
00000000
01000000
00000000
01000000
00000000
00010000
00001000
,
00000100
00000000
00000100
00000000
00000100
00000000
00001000
00010000
01000000
00000000
00100000
00000000
00100000
00000000
10000000
00010000
,
01000000
00000000
00100000
00000000
00100000
00000000
10000000
00100000
00010000
00000000
00100000
00000000
00100000
00000000
10000000
00100000
,
01000000
00100000
00100000
00100000
00010000
00000000
00100000
00000000
,
01000000
01000000
01001000
01010000
,
01001000
01010000
01000000
01000000
,
00100000
00100000
00101000
00110000
,
00101000
00110000
01100000
00010000
,
00001000
00000110
00000001
00000001
,
00001000
00001000
00000001
00001010
,
00000101
00000010
00001000
00001000
,
00000100
00000000
00000100
00000000
00000010
00000100
00001000
00000000
,
00010000
00000000
01100000
00000000
00100000
01000000
00010000
00000000
,
00001000
00000000
00000110
00000000
00000010
00000100
00001000
00000000
,
00010000
00000000
01100000
00000000
00100000
01000000
00010000
00000000
,
00001000
00000000
00000110
00000000
00001000
00000010
00000001
00000000
,
00000010
00001000
00000001
00000100
,
00000110
00001000
00010000
01100000
,
01000000
10000000
00010000
00100000
,
10000000
00100000
00010000
00000000
02200000
00000000
03300000
00000000
;

//---------------dance-double - ----------------
#NOTES:
     dance-double:
     :
     Hard:
     13:
     0.479573,0.749708,0.249778,0.019982,0.054951,336.000000,311.000000,25.000000,2.000000,0.000000,0.000000,0.479573,0.749708,0.249778,0.019982,0.054951,336.000000,311.000000,25.000000,2.000000,0.000000,0.000000:
00000000
00000000
00000000
00000000
,
00000000
00000000
00000000
00000000
,
00000000
00000000
00000000
00000000
,
00000000
00000000
00000000
00000000
,
00000000
00000000
00000000
00000000
,
10000000
01000000
10000000
00000000
00010000
01000000
00010000
00000000
,
01001000
00011000
00010100
00001100
,
00000001
00001000
00000010
00000000
00000010
00001000
00000001
00000000
,
00000001
00000100
00001000
00000000
00000001
00000100
00001000
00000000
,
00000001
00000001
00000010
00000010
00001000
00001000
00000100
00000000
,
00010100
00011000
01001000
01010000
,
00100000
10000000
01000000
00000000
00100000
00010000
01000000
00000000
,
01000000
00001000
00010000
00000000
00001000
00010000
00000100
00000000
,
00000100
00001000
00000010
00000000
00000100
00000001
00000010
00000000
,
00000010
00000010
00001000
00001000
00000100
00000100
00000001
00000000
,
00000001
00000010
00001000
00000000
00000001
00000100
00001000
00000000
,
00000010
00010000
00001000
00000000
00010000
00001000
00100000
00000000
,
00010000
01000000
10000000
00000000
00010000
00100000
10000000
00000000
,
00100000
00100000
00010000
00010000
01000000
01000000
10000000
00000000
,
10000000
00010000
10000000
10000000
00010000
00010000
00010000
00000000
10000000
00000000
01000000
00000000
00010000
00000000
00000000
00000000
,
00010000
01000000
00010000
00000000
01000000
00010000
00001000
00000000
,
00001000
00010000
00001000
00000000
00010000
00001000
00000100
00000000
,
00000100
00001000
00000100
00000000
00001000
00000100
00000001
00000000
,
00000001
00000100
00000001
00000000
00001001
00000000
00000101
00000000
,
00001001
00001100
00001001
00011000
,
10010000
00000000
01100000
00000000
00100000
01000000
00100000
00000000
,
00010000
10000000
10000000
00000000
00010000
00010000
01000000
01000000
,
10000000
10000000
01000000
00000000
10000000
00010000
01000000
00001000
,
00010000
00000100
00001000
00000001
00000001
00000100
00000100
00001000
,
00001000
00000010
00000010
00000000
00000001
00001000
00000100
00010000
,
00001000
01000000
00010000
10000000
10000000
01000000
01000000
00010000
,
00010000
00000000
00100000
00000000
00100000
00000000
00000000
00000000
11000000
00000000
00110000
00000000
10000000
01000000
00010000
00000000
,
01100000
00000000
00110000
00000000
00001000
00010000
00010000
00000000
00001100
00000000
00000011
00000000
00000100
00001000
00000001
00000000
,
00000011
00000000
00001001
00000000
00000001
00000010
00001000
00000000
00000001
00000100
00001000
00000000
00000100
00000000
00001000
00000000
,
00000100
00001000
00010000
00000000
00001000
00000000
00010000
00000000
00001000
00010000
01000000
00000000
00010000
00000000
01000000
00000000
,
00010000
01000000
10000000
00000000
01000000
00000000
10000000
00000000
00100000
00000000
00000000
00000000
10000000
00000000
00010000
00000000
,
01000000
00000000
00001000
01000000
00010000
00000000
00100000
00001000
,
00010000
00000000
00001000
00000100
00000001
00000000
00001000
00000010
,
00000100
00000000
00000001
00000010
00000100
00000000
00001000
00000010
,
00010000
00000000
00001000
00100000
00010000
00000000
01000000
00001000
,
00010000
00000000
00010000
01000000
10000000
00000000
10000000
00100000
,
00010000
00000000
00100000
01000000
00010000
00000000
00001000
00100000
,
00010000
00000000
00100000
00001000
00010000
00000000
00001000
00000100
,
00000001
00000000
00000010
00000000
00000001
00000100
00000010
00001000
,
00000100
00010000
00001000
00100000
00010000
01000000
00100000
10000000
,
01000000
00100000
00100000
00000000
10000000
10000000
00100000
00100000
,
01000000
01000000
00010000
00010000
00100000
00100000
00001000
00001000
,
00010000
00010000
00001000
00000000
00000010
00010000
00001000
00100000
,
00001000
00010000
00001000
00000000
01000000
00001000
00010000
00000100
,
00010000
00001000
00010000
00000000
00000010
00001000
00010000
00100000
,
00010000
00001000
00010000
00000000
00001000
00010000
01000000
10000000
,
01000000
00010000
01000000
00000000
02200000
00000000
03300000
00000000
;

//---------------dance-single - ----------------
#NOTES:
     dance-single:
     :
     Beginner:
     2:
     0.035683,0.051454,0.000000,0.000000,0.000000,25.000000,25.000000,0.000000,0.000000,0.000000,0.000000,0.035683,0.051454,0.000000,0.000000,0.000000,25.000000,25.000000,0.000000,0.000000,0.000000,0.000000:
0000
0000
0000
0000
,
0000
0000
0000
0000
,
0000
0000
0000
0000
,
0000
0000
0000
0000
,
0000
0000
0000
0000
,
0001
0000
0000
0000
,
0000
0000
0000
0000
,
0010
0000
0000
0000
,
0000
0000
0000
0000
,
0100
0000
0000
0000
,
0000
0000
0000
0000
,
1000
0000
0000
0000
,
0000
0000
0000
0000
,
0100
0000
0000
0000
,
0000
0000
0000
0000
,
0010
0000
0000
0000
,
0000
0000
0000
0000
,
0001
0000
0000
0000
,
0000
0000
0000
0000
,
0010
0000
0100
0000
,
0000
0000
0000
0000
,
0000
0000
1000
0000
,
0000
0000
0000
0000
,
0000
0000
0100
0000
,
0000
0000
0000
0000
,
0000
0000
0001
0000
,
0000
0000
0000
0000
,
0000
0000
0010
0000
,
0000
0000
0000
0000
,
0000
0000
0001
0000
,
0000
0000
0000
0000
,
0000
0000
1000
0000
,
0000
0000
0000
0000
,
0000
0000
0001
0000
,
0000
0000
0000
0000
,
0000
0000
0010
0000
,
0000
0000
0000
0000
,
0000
0000
0100
0000
,
0000
0000
0000
0000
,
0000
0000
0010
0000
,
0000
0000
0000
0000
,
0000
0000
0100
0000
,
0000
0000
0000
0000
,
0000
0000
1000
0000
,
0000
0000
0000
0000
,
0000
0000
0001
0000
,
0000
0000
0000
0000
,
0000
0000
1000
0000
,
0000
0000
0000
0000
,
0000
0000
0001
0000
,
0000
0000
0000
0000
,
0000
0000
0100
0000
;

//---------------dance-single - ----------------
#NOTES:
     dance-single:
     :
     Challenge:
     15:
     0.660840,0.855176,0.759324,0.069938,0.404640,463.000000,387.000000,76.000000,7.000000,0.000000,0.000000,0.660840,0.855176,0.759324,0.069938,0.404640,463.000000,387.000000,76.000000,7.000000,0.000000,0.000000:
// measure 0
0000
0000
0000
0000
,  // measure 1
0000
0000
0000
0000
,  // measure 2
0000
0000
0000
0000
,  // measure 3
0000
0000
0000
0000
,  // measure 4
0000
0000
0000
0000
,  // measure 5
1000
0010
0100
0001
1000
0001
0010
0001
,  // measure 6
0100
0010
0100
0001
1000
0100
0010
0001
,  // measure 7
1000
0100
1000
0010
1000
0100
1000
0010
,  // measure 8
0100
0001
0100
0010
0100
0001
0100
0010
,  // measure 9
1000
0001
0010
0001
1000
0001
0010
0001
,  // measure 10
0010
0100
0010
0001
0010
0100
0010
0001
,  // measure 11
0011
0000
0101
0000
1100
0000
1010
0110
,  // measure 12
0011
0000
0101
0000
1100
0000
1010
1001
,  // measure 13
0011
0101
1100
1010
,  // measure 14
0011
0000
0101
0000
1100
0000
1010
1100
,  // measure 15
0101
0000
1100
0000
1010
0000
0011
1001
,  // measure 16
0101
0000
1100
0000
1010
0000
0011
0110
,  // measure 17
0101
1100
1010
0011
,  // measure 18
0101
0000
1100
0000
1010
0000
0011
0110
,  // measure 19
0101
0000
0000
0000
0000
0000
0000
0000
0000
0000
0000
0000
0100
0010
0100
0010
0100
0000
0000
0000
0000
0000
0100
0000
0001
0000
0000
0000
0100
0000
0010
0000
,  // measure 20
0100
0000
0010
0000
0100
0000
0001
0000
1000
0000
0001
1000
0000
0001
1000
0000
,  // measure 21
0100
0000
1000
0000
0010
1000
0010
1000
0010
0000
0000
0010
0100
0000
0001
0010
,  // measure 22
0001
0000
0010
0000
0001
0000
0100
0000
0010
0000
1000
0100
0000
1000
0100
0000
,  // measure 23
0010
0000
0001
0000
1000
0000
0010
0000
0100
0001
0100
0000
0001
0000
1000
0000
,  // measure 24
0100
0000
0010
0000
0001
0000
1000
0000
0010
1000
0010
0000
1000
0000
0001
0000
,  // measure 25
0100
0000
0010
0000
1000
0100
1000
0100
1000
0000
0000
1000
0100
0000
1000
0010
,  // measure 26
1000
0000
0010
0000
0100
0000
0001
0000
1000
0000
0001
0010
0000
0001
0010
0000
,  // measure 27
0100
1000
0001
1000
0020
1000
1000
1000
,  // measure 28
1000
1000
1000
1000
1000
1000
1000
1000
,  // measure 29
1030
0000
0000
0000
2002
0000
3003
0000
0001
1000
0001
0000
0001
1000
0001
0000
,  // measure 30
0001
1000
0001
0000
0001
1000
0001
1000
0001
0000
0001
0000
1000
0000
1000
0000
,  // measure 31
0001
0000
1000
0001
1000
0001
1000
0001
1000
0100
1000
0100
1000
0010
1000
0010
,  // measure 32
0100
0001
0100
0001
0010
0001
0010
0001
1000
0001
1000
0001
0100
0001
0100
0001
,  // measure 33
0010
0001
0100
0010
1000
0001
0100
0000
0100
0010
0100
0010
0100
0001
1000
0000
,  // measure 34
0010
0100
0010
0100
0010
1000
0001
0000
1000
0001
1000
0100
1000
0010
1000
0000
,  // measure 35
0001
0010
0001
0100
0001
1000
1000
0001
0101
0000
0000
0000
1100
0000
0000
0000
,  // measure 36
1010
0011
0101
1100
,  // measure 37
1010
0011
0101
1100
,  // measure 38
1010
0011
0101
1100
,  // measure 39
1010
0000
0011
1010
1100
0000
0101
0000
,  // measure 40
0011
1010
1100
0101
,  // measure 41
0011
1010
1100
0101
,  // measure 42
0011
1010
1100
0101
,  // measure 43
0011
0000
0000
0000
0010
0100
0010
0100
0020
0000
0100
0000
0100
0000
0100
0000
,  // measure 44
0130
0000
0100
1000
0001
0000
0100
0000
0010
0000
1000
0010
0000
0100
0001
0000
,  // measure 45
1000
0000
0001
1000
0100
1000
0010
1000
0002
0000
1000
0000
1000
0000
1000
0000
,  // measure 46
1000
1000
1000
1000
1000
1000
1000
1000
,  // measure 47
1003
0000
0001
0000
1001
0000
1000
0010
0100
0000
0010
0100
0001
0000
0001
1000
,  // measure 48
0100
1000
0010
0000
1000
0000
1000
0010
0100
0000
0010
0100
0001
0000
0001
1000
,  // measure 49
0100
1000
0010
0000
0100
0000
0010
0001
0010
0000
0100
0010
0100
0000
0010
0001
,  // measure 50
0010
0100
0010
0000
0100
0000
0010
1000
0010
0000
0100
0010
0100
0000
1000
0100
,  // measure 51
0010
0100
1000
0000
1001
0000
0000
0000
0110
0000
2020
0000
0000
0000
3030
0000
;
