#VERSION:0.83;
#TITLE:Sound Of Freedom;
#SUBTITLE:;
#ARTIST:Bob Sinclar;
#TITLETRANSLIT:;
#SUBTITLETRANSLIT:;
#ARTISTTRANSLIT:;
#GENRE:;
#ORIGIN:;
#CREDIT:;
#BANNER:Sound Of Freedom.png;
#BACKGROUND:Sound Of Freedom-bg.png;
#PREVIEWVID:;
#JACKET:Sound Of Freedom-jacket.png;
#CDIMAGE:;
#DISCIMAGE:;
#LYRICSPATH:;
#CDTITLE:;
#MUSIC:Sound Of Freedom.ogg;
#OFFSET:0.000000;
#SAMPLESTART:11.229000;
#SAMPLELENGTH:15.000000;
#SELECTABLE:YES;
#DISPLAYBPM:129.000000;
#BPMS:0.000=128.114,
12.000=128.571,
16.000=127.660,
20.000=128.419,
32.000=128.388,
52.000=128.342,
68.000=128.571,
76.000=128.342,
92.000=128.571,
116.000=128.686,
132.000=128.848,
152.000=128.878,
164.000=129.264,
172.000=128.801,
180.000=129.032,
184.000=129.264,
192.000=129.032,
196.000=127.208;
#STOPS:;
#DELAYS:;
#WARPS:;
#TIMESIGNATURES:0.000=4=4;
#TICKCOUNTS:0.000=4;
#COMBOS:0.000=1;
#SPEEDS:0.000=1.000=0.000=0;
#SCROLLS:0.000=1.000;
#FAKES:;
#LABELS:0.000=Song Start;
#BGCHANGES:0.000=Sound Of Freedom.avi=1.000=0=0=0=StretchNoLoop====,
99999=-nosongbg-=1.000=0=0=0 // don't automatically add -songbackground-
;
#KEYSOUNDS:;
#ATTACKS:
;

//---------------dance-single - ----------------
#NOTEDATA:;
#CHARTNAME:;
#STEPSTYPE:dance-single;
#DESCRIPTION:;
#CHARTSTYLE:;
#DIFFICULTY:Beginner;
#METER:1;
#RADARVALUES:0.091761,0.148347,0.010196,0.000000,0.000000,63.000000,62.000000,1.000000,0.000000,0.000000,0.000000,0.000000,0.000000,0.000000,0.091761,0.148347,0.010196,0.000000,0.000000,63.000000,62.000000,1.000000,0.000000,0.000000,0.000000,0.000000,0.000000,0.000000;
#CREDIT:;
#DISPLAYBPM:129.000000;
#NOTES:
0000
0000
0000
0000
,
0000
0000
0000
0000
,
0000
0000
0000
0000
,
0000
0000
0000
0000
,
0000
0000
0000
0000
,
1000
0000
1000
0000
,
1000
0000
0000
0000
,
0001
0000
0001
0000
,
0001
0000
0000
0000
,
1000
0000
0001
0000
,
1000
0000
0000
0000
,
0001
0000
1000
0000
,
0001
0000
0000
0000
,
0010
0000
0000
0000
,
0100
0000
0000
0000
,
1000
0000
0000
0000
,
0001
0000
0000
0000
,
0100
0000
0000
0000
,
1000
0000
0000
0000
,
0010
0000
0000
0000
,
0001
0000
0000
0000
,
0100
0000
0100
0000
,
0100
0000
0000
0000
,
0010
0000
0010
0000
,
0010
0000
0000
0000
,
0100
0000
0010
0000
,
0100
0000
0000
0000
,
0010
0000
0100
0000
,
0010
0000
0000
0000
,
0001
0000
0000
0000
,
0100
0000
0000
0000
,
1000
0000
0000
0000
,
0010
0000
0010
0000
,
0001
0000
0000
0000
,
0010
0000
0000
0000
,
1000
0000
0000
0000
,
0100
0000
0100
0000
,
1000
0000
0000
0000
,
0000
0000
0000
0000
,
0000
0000
0000
0000
,
1001
0000
0000
0000
,
0001
0000
0001
0000
,
1000
0000
1000
0000
,
0001
0000
1000
0000
,
0001
0001
0001
0000
,
1000
0000
1000
0000
,
0001
0000
0001
0000
,
1000
0000
0001
0000
,
1000
1000
1000
0000
;

//---------------dance-single - ----------------
#NOTEDATA:;
#CHARTNAME:;
#STEPSTYPE:dance-single;
#DESCRIPTION:;
#CHARTSTYLE:;
#DIFFICULTY:Easy;
#METER:6;
#RADARVALUES:0.259261,0.249794,0.081565,0.081565,0.122348,178.000000,170.000000,8.000000,8.000000,0.000000,0.000000,0.000000,0.000000,0.000000,0.259261,0.249794,0.081565,0.081565,0.122348,178.000000,170.000000,8.000000,8.000000,0.000000,0.000000,0.000000,0.000000,0.000000;
#CREDIT:;
#DISPLAYBPM:129.000000;
#NOTES:
0000
0000
0000
0000
,
0000
0000
0000
0000
,
0000
0000
0000
0000
,
0001
0000
0100
0000
,
1000
0100
0010
0000
,
0010
0000
0000
0010
0000
0000
0000
0000
0100
0000
0000
0100
0000
0000
0000
0000
,
1000
0000
0000
1000
0000
0000
0000
0000
0100
0000
0000
0000
0000
0000
0000
0000
,
0100
0000
0000
0100
0000
0000
0000
0000
0010
0000
0000
0010
0000
0000
0000
0000
,
0001
0000
0000
0001
0000
0000
0000
0000
0010
0000
0000
0000
0000
0000
0000
0000
,
1000
0000
0000
1000
0000
0000
0000
0000
0001
0000
0000
0001
0000
0000
0000
0000
,
0100
0000
0000
0100
0000
0000
0000
0000
0001
0000
0000
0000
0000
0000
0000
0000
,
0100
0000
0000
0100
0000
0000
0000
0000
0001
0000
0000
0001
0000
0000
0000
0000
,
0010
0000
0000
0010
0000
0000
0000
0000
0100
0000
0000
0000
0000
0000
0000
0000
,
0010
1000
0100
0001
,
1000
0100
0010
0001
,
0100
1000
0010
0001
,
1000
0001
0010
1001
,
0100
0010
0001
0010
,
1000
0010
0001
0010
,
0100
0001
1000
0100
,
0010
0100
0010
1001
,
0010
0000
0000
0020
0000
0000
0000
0000
0130
0000
0000
0200
0000
0000
0000
0000
,
0301
0000
0000
0002
0000
0000
0000
0000
0013
0000
0000
0000
0100
0000
0000
0000
,
0001
0000
0000
0002
0000
0000
0000
0000
1003
0000
0000
2000
0000
0000
0000
0000
,
3001
0000
0000
0002
0000
0000
0000
0000
0013
0000
0000
0000
1000
0000
0000
0000
,
0001
0000
0000
0001
0000
0000
0000
0000
1000
0000
0000
1000
0000
0000
0000
0000
,
0010
0000
0000
0010
0000
0000
0000
0000
0100
0000
0000
0000
1000
0000
0000
0000
,
0010
0000
0000
0001
0000
0000
0000
0000
0010
0000
0000
1000
0000
0000
0000
0000
,
0010
0000
0000
0001
0000
0000
0000
0000
0010
0000
0000
0000
1001
0000
0000
0000
,
0100
0001
0010
1000
,
0001
0010
0100
1000
,
0010
0001
0100
1000
,
0001
1000
0100
1001
,
0010
0100
1000
0100
,
0001
0100
1000
0100
,
0010
1000
0001
0010
,
0100
0010
0100
1001
,
0100
0000
0100
0000
,
0010
0010
0010
0000
,
0001
0000
1000
0000
,
2002
0000
0000
3003
,
0010
0001
0100
1000
,
0001
0100
0010
1000
,
0100
0001
0010
1000
,
0001
1000
0010
1001
,
0100
0010
1000
0010
,
0001
0010
1000
0010
,
0100
1000
0001
0100
,
0010
0100
0010
0100
,
1001
0000
0000
0000
;

//---------------dance-single - ----------------
#NOTEDATA:;
#CHARTNAME:;
#STEPSTYPE:dance-single;
#DESCRIPTION:;
#CHARTSTYLE:;
#DIFFICULTY:Medium;
#METER:8;
#RADARVALUES:0.371413,0.474608,0.193717,0.081565,0.331359,255.000000,236.000000,19.000000,8.000000,0.000000,0.000000,0.000000,0.000000,0.000000,0.371413,0.474608,0.193717,0.081565,0.331359,255.000000,236.000000,19.000000,8.000000,0.000000,0.000000,0.000000,0.000000,0.000000;
#CREDIT:;
#DISPLAYBPM:129.000000;
#NOTES:
0000
0000
0000
0000
,
0000
0000
0000
0000
,
0000
0000
0000
0000
,
1000
1000
0100
0100
,
0001
0100
0010
1001
,
0010
0000
0000
0010
0000
0000
0001
0000
0100
0000
0000
0100
0000
0000
1000
0000
,
0001
0000
0000
0001
0000
0000
1000
0000
0100
0000
0000
0100
0000
0000
0000
0000
,
0100
0000
0000
0100
0000
0000
0001
0000
0010
0000
0000
0010
0000
0000
0001
0000
,
0100
0000
0000
0100
0000
0000
0001
0000
0010
0000
0000
0010
0000
0000
0000
0000
,
0011
0000
0000
0011
0000
0000
0100
0000
1010
0000
0000
1010
0000
0000
0100
0000
,
0110
0000
0000
0110
0000
0000
1000
0000
0100
0000
0000
0010
0000
0000
0000
0000
,
0101
0000
0000
0101
0000
0000
0010
0000
1100
0000
0000
1100
0000
0000
0010
0000
,
0100
1000
0010
0001
,
0010
0000
0000
0010
0001
0000
0000
0000
0100
0000
0000
0100
1000
0000
0000
0000
,
0001
0000
0000
0001
0100
0000
0000
0000
0010
0000
0000
0000
1000
0000
0000
0000
,
0100
0000
0000
0100
0001
0000
0000
0000
0010
0000
0000
0010
1000
0000
0000
0000
,
0001
0000
0000
0001
1000
0000
0000
0000
0010
0000
0000
0000
1001
0000
0000
0000
,
0100
0000
0000
0100
0010
0000
0000
0000
1000
0000
0000
1000
0010
0000
0000
0000
,
0001
0000
0000
0001
0010
0000
0000
0000
1000
0000
0000
1000
0010
0000
0000
0000
,
0100
0000
0000
0100
1000
0000
0000
0000
0001
0000
0000
0001
0100
0000
0000
0000
,
0010
0000
0000
0010
0100
0000
0000
0000
0010
0000
0000
0000
1001
0000
0000
0000
,
0010
0000
0000
0020
0000
0000
0000
0000
0130
0000
0000
0200
0000
0000
0000
0000
,
1300
0000
0000
2000
0000
0000
0000
0000
3010
0000
0000
0000
0100
0000
0000
0000
,
1000
0000
0000
2000
0000
0000
0000
0000
3001
0000
0000
0002
0000
0000
0000
0000
,
1003
0000
0000
2000
0000
0000
0000
0000
3010
0000
0000
0000
0001
0000
0000
0000
,
1000
0000
0000
1000
0000
0000
1000
0000
0001
0000
0000
0001
0000
0000
0001
0000
,
0010
0000
0000
0010
0000
0000
0010
0000
0100
0000
1000
0000
0001
0000
0000
0000
,
0010
0000
0000
1000
0000
0000
0100
0000
0010
0000
0000
0001
0000
0000
0100
0000
,
0010
0000
0000
1000
0000
0000
0100
0000
0010
0000
0000
0000
1001
0000
0000
0000
,
0100
0000
0000
0100
1000
0000
0000
0000
0010
0000
0000
0010
0001
0000
0000
0000
,
1000
0000
0000
1000
0010
0000
0000
0000
0100
0000
0000
0000
0001
0000
0000
0000
,
0010
0000
0000
0010
1000
0000
0000
0000
0100
0000
0000
0100
0001
0000
0000
0000
,
1000
0000
0000
1000
0001
0000
0000
0000
0100
0000
0000
0000
1001
0000
0000
0000
,
0010
0000
0000
0010
0100
0000
0000
0000
0001
0000
0000
0001
0100
0000
0000
0000
,
1000
0000
0000
1000
0100
0000
0000
0000
0001
0000
0000
0001
0100
0000
0000
0000
,
0010
0000
0000
0010
0001
0000
0000
0000
1000
0000
0000
1000
0010
0000
0000
0000
,
0100
0000
0000
0100
0010
0000
0000
0000
0100
0000
0000
0000
1001
0000
0000
0000
,
0100
0000
0100
0000
,
0010
0010
0010
0000
,
1000
1000
0001
0001
,
2002
0000
0000
3003
,
0010
0000
0000
0010
1000
0000
0000
0000
0100
0000
0000
0100
0001
0000
0000
0000
,
1000
0000
0000
1000
0100
0000
0000
0000
0010
0000
0000
0000
0001
0000
0000
0000
,
0100
0000
0000
0100
1000
0000
0000
0000
0010
0000
0000
0010
0001
0000
0000
0000
,
1000
0000
0000
1000
0001
0000
0000
0000
0010
0000
0000
0000
1001
0000
0000
0000
,
0100
0000
0000
0100
0010
0000
0000
0000
0001
0000
0000
0001
0010
0000
0000
0000
,
1000
0000
0000
1000
0010
0000
0000
0000
0001
0000
0000
0001
0010
0000
0000
0000
,
0100
0000
0000
0100
0001
0000
0000
0000
1000
0000
0000
1000
0100
0000
0000
0000
,
0010
0000
0000
0010
0100
0000
0000
0000
0010
0000
0000
0000
0100
0000
0000
0000
,
1001
0000
0000
0000
;

//---------------dance-single - ----------------
#NOTEDATA:;
#CHARTNAME:;
#STEPSTYPE:dance-single;
#DESCRIPTION:;
#CHARTSTYLE:;
#DIFFICULTY:Hard;
#METER:12;
#RADARVALUES:0.515609,0.524566,0.244696,0.081565,0.606641,354.000000,330.000000,24.000000,8.000000,0.000000,0.000000,0.000000,0.000000,0.000000,0.515609,0.524566,0.244696,0.081565,0.606641,354.000000,330.000000,24.000000,8.000000,0.000000,0.000000,0.000000,0.000000,0.000000;
#CREDIT:;
#DISPLAYBPM:129.000000;
#NOTES:
0000
0000
0000
0000
,
0000
0000
0000
0000
,
0000
0000
0000
0000
,
0001
0001
0100
0100
,
1000
0000
0000
0100
0000
0000
0010
0000
0100
0000
0000
0000
1001
0000
0000
0000
,
1010
0000
0000
0101
0000
0000
1000
0000
0110
0000
0000
1001
0000
0000
0100
0000
,
0011
0000
0000
1100
0000
0000
0001
0000
0100
0000
1000
0000
0100
0000
0001
0000
,
1100
0000
0000
0101
0000
0000
1000
0000
0101
0000
0000
1100
0000
0000
0010
0000
,
1001
0000
0000
0110
0000
0000
1000
0000
0010
0000
0001
0000
0100
0000
0000
0000
,
0010
0000
1000
0100
0000
1000
0100
0000
0010
0000
0001
0100
0000
0001
0100
0000
,
0010
0000
1000
0001
0000
1000
0001
0000
0100
0000
0001
0000
0010
0000
1000
0000
,
0100
0000
0001
0010
0000
0001
0010
0000
0100
0000
1000
0010
0000
1000
0010
0000
,
0100
0100
0001
0001
0010
1000
0100
0000
,
0110
0000
0000
0010
1000
0000
0000
1000
0100
0000
0000
0100
0001
0000
0000
0001
,
0100
0000
0000
0100
1000
0000
0000
1000
0010
0000
0000
0010
0001
0000
0000
0001
,
0100
0000
0000
0100
1000
0000
0000
1000
0010
0000
0000
0010
0001
0000
0000
0001
,
1000
0000
0000
1000
0001
0000
0000
0001
0010
0000
0001
0000
1001
0000
0000
0000
,
0100
0000
0000
1000
0010
0000
0000
0100
0001
0000
0000
0010
0001
0000
0000
1000
,
0100
0000
0000
1000
0010
0000
0000
0100
0001
0000
0000
0010
0001
0000
0000
1000
,
0100
0000
0000
0001
0100
0000
0000
1000
0100
0000
0000
0001
0100
0000
0000
1000
,
0010
0000
0000
0001
0010
0000
0000
1000
0010
0000
0100
0000
1001
0000
0000
0000
,
0010
0000
0000
0020
0000
0000
1030
0000
0100
0000
0000
0200
0000
0000
0310
0000
,
0001
0000
0000
0002
0000
0000
0103
0000
0010
0000
1000
0000
0100
0000
0010
0000
,
0001
0000
0000
0002
0000
0000
0103
0000
1000
0000
0000
2000
0000
0000
3100
0000
,
0001
0000
0000
0002
0000
0000
0103
0000
0010
0000
0100
0000
1000
0000
0000
0000
,
0001
0000
0010
0001
0000
0100
0001
0000
1000
0000
0010
1000
0000
0100
1000
0000
,
0010
0000
0001
0010
0000
1000
0010
0000
0100
0000
0001
0000
1000
0000
0100
0000
,
0010
0000
0100
0001
0000
0100
1000
0000
0010
0000
0001
1000
0000
0010
0100
0000
,
0001
0010
1000
0100
0010
0001
1001
0000
,
0110
0000
0000
0100
0001
0000
0000
0001
0010
0000
0000
0010
1000
0000
0000
1000
,
0010
0000
0000
0010
0001
0000
0000
0001
0100
0000
0000
0100
1000
0000
0000
1000
,
0010
0000
0000
0010
0001
0000
0000
0001
0100
0000
0000
0100
1000
0000
0000
1000
,
0001
0000
0000
0001
1000
0000
0000
1000
0100
0000
1000
0000
1001
0000
0000
0000
,
0010
0000
0000
0001
0100
0000
0000
0010
1000
0000
0000
0100
1000
0000
0000
0001
,
0010
0000
0000
0001
0100
0000
0000
0010
1000
0000
0000
0100
1000
0000
0000
0001
,
0010
0000
0000
1000
0010
0000
0000
0001
0010
0000
0000
1000
0010
0000
0000
0001
,
0100
0000
0000
1000
0100
0000
0000
0001
0100
0000
0000
1000
0100
0000
0010
0000
,
1001
0000
0100
0000
,
0010
0010
0010
0000
,
0001
0001
1000
1000
,
2002
0000
0000
3003
,
0110
0000
0000
0010
0001
0000
0000
0001
0100
0000
0000
0100
1000
0000
0000
1000
,
0100
0000
0000
0100
0001
0000
0000
0001
0010
0000
0000
0010
1000
0000
0000
1000
,
0100
0000
0000
0100
0001
0000
0000
0001
0010
0000
0000
0010
1000
0000
0000
1000
,
0001
0000
0000
0001
1000
0000
0000
1000
0010
0000
1000
0000
1001
0000
0000
0000
,
0100
0000
0000
0001
0010
0000
0000
0100
1000
0000
0000
0010
1000
0000
0000
0001
,
0100
0000
0000
0001
0010
0000
0000
0100
1000
0000
0000
0010
1000
0000
0000
0001
,
0100
0000
0000
1000
0100
0000
0000
0001
0100
0000
0000
1000
0100
0000
0000
0001
,
0010
0000
0000
1000
0010
0000
0000
0001
0010
0000
0000
1000
0010
0000
0100
0000
,
1001
0000
0000
0000
;

//---------------dance-double - ----------------
#NOTEDATA:;
#CHARTNAME:;
#STEPSTYPE:dance-double;
#DESCRIPTION:;
#CHARTSTYLE:;
#DIFFICULTY:Easy;
#METER:6;
#RADARVALUES:0.250522,0.249794,0.081565,0.203913,0.000000,172.000000,164.000000,8.000000,20.000000,0.000000,0.000000,0.000000,0.000000,0.000000,0.250522,0.249794,0.081565,0.203913,0.000000,172.000000,164.000000,8.000000,20.000000,0.000000,0.000000,0.000000,0.000000,0.000000;
#CREDIT:;
#DISPLAYBPM:129.000000;
#NOTES:
00000000
00000000
00000000
00000000
,
00000000
00000000
00000000
00000000
,
00000000
00000000
00000000
00000000
,
10000000
00000000
01000000
00000000
,
00010000
00000000
00001000
00000000
,
00000010
00000010
00000001
00000001
,
00000100
00000100
00001000
00000000
,
00100000
00100000
10000000
10000000
,
01000000
01000000
00010000
00000000
,
00000100
00000001
00000100
00000001
,
00000010
00001000
00010000
00000000
,
10000000
01000000
10000000
01000000
,
00010000
00001000
00010000
00011000
,
00000200
00001000
00000001
00001300
,
00000002
00000100
00000010
00000103
,
00002000
00010000
00000100
00013000
,
00100000
10000000
01000000
10010000
,
00200000
00010000
10000000
00310000
,
20000000
00100000
01000000
30100000
,
00020000
00001000
00100000
00031000
,
00000010
00000001
00000100
00001001
,
00000001
00000001
00001000
00001000
,
00000100
00000100
00010000
00001000
,
00100000
00100000
00010000
00010000
,
10000000
10000000
00100000
01000000
,
00020000
00000000
00032000
00000000
,
00003200
00000000
00000310
00000001
,
00002000
00000000
00003200
00000000
,
00020300
00000000
01030000
01000000
,
00010000
01000000
10000000
01000000
,
00100000
00001000
00010000
00000010
,
00001000
00000100
00000001
00000100
,
00000010
00001000
00000100
00001001
,
00001000
00000100
00000001
00000100
,
00000010
00010000
00001000
00100000
,
00010000
01000000
10000000
01000000
,
00100000
00010000
01000000
10010000
,
00100000
00000000
01000000
00000000
,
00100000
01000000
00100000
00000000
,
00010000
00000000
00001000
00000000
,
00022000
00000000
00000000
00033000
,
00000200
00001000
00000001
00001300
,
00000002
00000100
00000010
00000103
,
00002000
00010000
00000100
00013000
,
00100000
10000000
01000000
10010000
,
00200000
00010000
10000000
00310000
,
20000000
00100000
01000000
30100000
,
00020000
00001000
00100000
00031000
,
00000010
00000001
00000100
00000010
,
00001001
00000000
00000000
00000000
;

//---------------dance-double - ----------------
#NOTEDATA:;
#CHARTNAME:;
#STEPSTYPE:dance-double;
#DESCRIPTION:;
#CHARTSTYLE:;
#DIFFICULTY:Medium;
#METER:8;
#RADARVALUES:0.358304,0.399670,0.224304,0.081565,0.229402,246.000000,224.000000,22.000000,8.000000,0.000000,0.000000,0.000000,0.000000,0.000000,0.358304,0.399670,0.224304,0.081565,0.229402,246.000000,224.000000,22.000000,8.000000,0.000000,0.000000,0.000000,0.000000,0.000000;
#CREDIT:;
#DISPLAYBPM:129.000000;
#NOTES:
00000000
00000000
00000000
00000000
,
00000000
00000000
00000000
00000000
,
00000000
00000000
00000000
00000000
,
00010000
00010000
01000000
01000000
,
10000000
00100000
00010000
00011000
,
00000010
00000000
00000000
00000010
00000000
00000000
00000001
00000000
00000100
00000000
00000000
00000100
00000000
00000000
00010000
00000000
,
00001000
00000000
00000000
00001000
00000000
00000000
00000100
00000000
00000010
00000000
00000000
00000100
00000000
00000000
00000000
00000000
,
00010000
00000000
00000000
00010000
00000000
00000000
00100000
00000000
10000000
00000000
00000000
10000000
00000000
00000000
01000000
00000000
,
00100000
00000000
00000000
00100000
00000000
00000000
00001000
00000000
00010000
00000000
00000000
00010000
00000000
00000000
00000000
00000000
,
00001010
00000000
00000000
00001010
00000000
00000000
00000000
00000000
00000101
00000000
00000000
00000101
00000000
00000000
00000000
00000000
,
00000011
00000000
00000000
00000011
00000000
00000000
00000000
00000000
00001000
00000000
00000000
00010000
00000000
00000000
00000000
00000000
,
11000000
00000000
00000000
11000000
00000000
00000000
00000000
00000000
01010000
00000000
00000000
01010000
00000000
00000000
00000000
00000000
,
01100000
00000000
00000000
01100000
00000000
00000000
00000000
00000000
00100000
00000000
00000000
00000000
10000000
00000000
00000000
00000000
,
00010000
00000000
00000000
00010000
01000000
00000000
00000000
00000000
00001000
00000000
00000000
00001000
00000100
00000000
00000000
00000000
,
00000010
00000000
00000100
00000000
00000001
00001000
00000100
00000000
,
00000010
00000000
00000000
00000010
00000001
00000000
00000000
00000000
00001000
00000000
00000000
00001000
00000010
00000000
00000000
00000000
,
00010000
00000000
00100000
00000000
10000000
01000000
00100000
00000000
,
00001000
00000000
00000000
00001000
00020000
00000000
00000000
00000000
00100000
00000000
00000000
00000000
00031000
00000000
00000000
00000000
,
00000100
00000000
00000000
00000100
00000002
00000000
00000000
00000000
00001000
00000000
00000000
00000000
00000103
00000000
00000000
00000000
,
00000010
00000001
00000100
00000000
00000010
00001000
00000100
00000000
,
00010000
00001000
00010000
01000000
10000000
00000000
10010000
00000000
,
00100000
00000000
00000000
00010000
00000000
00000000
00000000
00000000
10000000
00000000
00000000
00100000
00000000
00000000
00000000
00000000
,
01000000
00000000
00000000
00010000
00000000
00000000
00000000
00000000
00001000
00000000
00000000
00000000
00010000
00000000
00000000
00000000
,
00000010
00000000
00000000
00001000
00000000
00000000
00000000
00000000
00000001
00000000
00000000
00000010
00000000
00000000
00000000
00000000
,
00000100
00000000
00000000
00001000
00000000
00000000
00000000
00000000
00000010
00000000
00000000
00000000
00000110
00000000
00000000
00000000
,
00000001
00000000
00000000
00000001
00000000
00000000
00000001
00000000
00001000
00000000
00000000
00001000
00000000
00000000
00001000
00000000
,
00010000
00000000
00000000
00010000
00000000
00000000
00010000
00000000
10000000
00000000
00000000
00000000
10000000
00000000
00000000
00000000
,
00100000
00000000
00000000
00110000
00000000
00000000
00000000
00000000
01000000
00000000
00000000
11000000
00000000
00000000
00000000
00000000
,
00010000
00000000
00000000
00110000
00000000
00000000
00000000
00000000
01000000
00000000
00000000
00000000
10010000
00000000
00000000
00000000
,
00010000
00000000
00000000
00010000
00100000
00000000
00000000
00000000
00001000
00000000
00000000
00001000
00000010
00000000
00000000
00000000
,
00000100
00000000
00000010
00000000
00000001
00001000
00000010
00000000
,
00000100
00000000
00000000
00000100
00000001
00000000
00000000
00000000
00001000
00000000
00000000
00001000
00000100
00000000
00000000
00000000
,
00010000
00000000
01000000
00000000
10000000
00100000
01000000
00000000
,
00001000
00000000
00000000
00001000
00020000
00000000
00000000
00000000
01000000
00000000
00000000
00000000
00031000
00000000
00000000
00000000
,
00000010
00000000
00000000
00000010
00000002
00000000
00000000
00000000
00001000
00000000
00000000
00000000
00000013
00000000
00000000
00000000
,
00000100
00000001
00000010
00000000
00000100
00001000
00000010
00000000
,
00010000
00001000
00010000
00100000
10000000
00000000
10010000
00000000
,
01000000
00000000
01000000
00000000
,
00100000
00001000
00010000
00000000
,
00000010
00000001
00000100
00001000
,
00002002
00000000
00000000
00003003
,
00001000
00000000
00000000
00001000
00000100
00000000
00000000
00000000
00010000
00000000
00000000
00010000
01000000
00000000
00000000
00000000
,
00100000
00000000
01000000
00000000
10000000
00010000
01000000
00000000
,
00100000
00000000
00000000
00100000
10000000
00000000
00000000
00000000
00010000
00000000
00000000
00010000
00100000
00000000
00000000
00000000
,
00001000
00000000
00000010
00000000
00000001
00000100
00000010
00000000
,
00010000
00000000
00000000
00010000
00002000
00000000
00000000
00000000
00000010
00000000
00000000
00000000
00013000
00000000
00000000
00000000
,
01000000
00000000
00000000
01000000
20000000
00000000
00000000
00000000
00010000
00000000
00000000
00000000
31000000
00000000
00000000
00000000
,
00100000
10000000
01000000
00000000
00100000
00010000
01000000
00000000
,
00001000
00010000
00001000
00000100
00000001
00000000
00000010
00000000
,
00001001
00000000
00000000
00000000
;

//---------------dance-double - ----------------
#NOTEDATA:;
#CHARTNAME:;
#STEPSTYPE:dance-double;
#DESCRIPTION:;
#CHARTSTYLE:;
#DIFFICULTY:Hard;
#METER:11;
#RADARVALUES:0.493761,0.499587,0.101957,0.081565,0.596446,339.000000,329.000000,10.000000,8.000000,0.000000,0.000000,0.000000,0.000000,0.000000,0.493761,0.499587,0.101957,0.081565,0.596446,339.000000,329.000000,10.000000,8.000000,0.000000,0.000000,0.000000,0.000000,0.000000;
#CREDIT:;
#DISPLAYBPM:129.000000;
#NOTES:
00000000
00000000
00000000
00000000
,
00000000
00000000
00000000
00000000
,
00000000
00000000
00000000
00000000
,
00000001
00000100
00001000
00000100
,
00000001
00000000
00000000
00000100
00000000
00000000
00001000
00000000
00010000
00000000
00000000
00000000
00011000
00000000
00000000
00000000
,
00100000
00000000
00000000
10000000
00000000
00000000
01000000
00000000
00100000
00000000
00000000
00010000
00000000
00000000
01000000
00000000
,
00100000
00000000
00000000
01000000
00000000
00000000
00100000
00000000
00010000
00000000
00001000
00000000
00000010
00000000
00000001
00000000
,
00001000
00000000
00000000
00000100
00000000
00000000
00000001
00000000
00000001
00000000
00000000
00000100
00000000
00000000
00001000
00000000
,
00001000
00000000
00000000
00000010
00000000
00000000
00010000
00000000
00100000
00000000
01000000
00000000
00010000
00000000
00000000
00000000
,
00100000
00000000
10000000
01000000
00000000
10000000
01000000
00000000
00100000
00000000
00010000
01000000
00000000
00010000
01000000
00000000
,
00001000
00000000
00010000
00001000
00000000
00010000
00001000
00000000
00000010
00000000
00000001
00000000
00001000
00000000
00000010
00000000
,
00000100
00000000
00000001
00000010
00000000
00000001
00000010
00000000
00000100
00000000
00001000
00000010
00000000
00001000
00000010
00000000
,
00001000
00000100
00010000
01000000
00100000
00010000
10010000
00000000
,
00100000
00000000
00000000
00100000
10000000
00000000
00000000
10000000
01000000
00000000
00000000
01000000
00010000
00000000
00000000
00010000
,
00000100
00000000
00000000
00000100
00001000
00000000
00000000
00001000
00000010
00000000
00000000
00000010
00000001
00000000
00000000
00000001
,
00000100
00000000
00000000
00000100
00010000
00000000
00000000
00010000
00000010
00000000
00000000
00000010
00001000
00000000
00000000
00001000
,
00100000
00000000
00000000
00100000
10000000
00000000
00000000
10000000
00010000
00000000
00100000
00000000
11000000
00000000
00000000
00000000
,
00010000
00000000
00000000
00010000
00001000
00000000
00000000
00001000
00000100
00000000
00000000
00000100
00000001
00000000
00000000
00000001
,
00001000
00000000
00000000
00001000
00010000
00000000
00000000
00010000
10000000
00000000
00000000
10000000
01000000
00000000
00000000
01000000
,
00100000
00000000
00000000
00100000
00001000
00000000
00000000
00001000
01000000
00000000
00000000
01000000
00100000
00000000
00000000
00100000
,
00010000
00000000
00000000
00010000
00000010
00000000
00000000
00000010
00001000
00000000
00000100
00000000
00000110
00000000
00000000
00000000
,
00002000
00000000
00000000
00010000
00000000
00000000
00003100
00000000
00020000
00000000
00000000
00001000
00000000
00000000
01030000
00000000
,
00002000
00000000
00000000
00010000
00000000
00000000
00003010
00000000
00010000
00000000
00001000
00000000
00000100
00000000
00000001
00000000
,
00002000
00000000
00000000
00000010
00000000
00000000
00003001
00000000
00000002
00000000
00000000
00000010
00000000
00000000
00001003
00000000
,
00002000
00000000
00000000
00000010
00000000
00000000
00003100
00000000
00010000
00000000
01000000
00000000
00100000
00000000
00000000
00000000
,
01000000
00000000
10000000
00100000
00000000
10000000
00100000
00000000
01000000
00000000
00010000
00100000
00000000
00010000
00100000
00000000
,
00001000
00000000
00010000
00001000
00000000
00010000
00001000
00000000
00000100
00000000
00000001
00000000
00001000
00000000
00000100
00000000
,
00000010
00000000
00000001
00000100
00000000
00000001
00000010
00000000
00000100
00000000
00001000
00000010
00000000
00001000
00000100
00000000
,
00001000
00000010
00010000
00100000
01000000
00010000
10010000
00000000
,
01000000
00000000
00000000
01000000
10000000
00000000
00000000
10000000
00100000
00000000
00000000
00100000
00010000
00000000
00000000
00010000
,
00000010
00000000
00000000
00000010
00001000
00000000
00000000
00001000
00000100
00000000
00000000
00000100
00000001
00000000
00000000
00000001
,
00000010
00000000
00000000
00000010
00010000
00000000
00000000
00010000
00000100
00000000
00000000
00000100
00001000
00000000
00000000
00001000
,
01000000
00000000
00000000
01000000
10000000
00000000
00000000
10000000
00010000
00000000
01000000
00000000
10100000
00000000
00000000
00000000
,
00010000
00000000
00000000
00010000
00001000
00000000
00000000
00001000
00000010
00000000
00000000
00000010
00000001
00000000
00000000
00000001
,
00001000
00000000
00000000
00001000
00010000
00000000
00000000
00010000
10000000
00000000
00000000
10000000
00100000
00000000
00000000
00100000
,
01000000
00000000
00000000
01000000
00001000
00000000
00000000
00001000
00100000
00000000
00000000
00100000
01000000
00000000
00000000
01000000
,
00010000
00000000
00000000
00010000
00000100
00000000
00000000
00000100
00001000
00000000
00000001
00000000
00000110
00000000
00000000
00000000
,
00001000
00000000
00000100
00000000
,
00000010
00000010
00000010
00000000
,
00000001
00000001
00001000
00001000
,
00002002
00000000
00000000
00003003
,
00000010
00000000
00000000
00000010
00000001
00000000
00000000
00000001
00000100
00000000
00000000
00000100
00001000
00000000
00000000
00001000
,
01000000
00000000
00000000
01000000
00010000
00000000
00000000
00010000
00100000
00000000
00000000
00100000
10000000
00000000
00000000
10000000
,
01000000
00000000
00000000
01000000
00001000
00000000
00000000
00001000
00100000
00000000
00000000
00100000
00010000
00000000
00000000
00010000
,
00000010
00000000
00000000
00000010
00000001
00000000
00000000
00000001
00001000
00000000
00000010
00000000
00000101
00000000
00000000
00000000
,
00001000
00000000
00000000
00001000
00010000
00000000
00000000
00010000
01000000
00000000
00000000
01000000
10000000
00000000
00000000
10000000
,
00010000
00000000
00000000
00010000
00001000
00000000
00000000
00001000
00000001
00000000
00000000
00000001
00000100
00000000
00000000
00000100
,
00000010
00000000
00000000
00000010
00010000
00000000
00000000
00010000
00000100
00000000
00000000
00000100
00000010
00000000
00000000
00000010
,
00001000
00000000
00000000
00001000
00010000
00000000
00000000
00010000
00100000
00000000
10000000
00000000
01000000
00000000
00100000
00000000
,
10010000
00000000
00000000
00000000
;

//---------------dance-single - ----------------
#NOTEDATA:;
#CHARTNAME:;
#STEPSTYPE:dance-single;
#DESCRIPTION:;
#CHARTSTYLE:;
#DIFFICULTY:Challenge;
#METER:16;
#RADARVALUES:0.735544,0.724401,0.387435,0.142739,0.978783,505.000000,467.000000,38.000000,14.000000,228.000000,0.000000,0.000000,0.000000,0.000000,0.735544,0.724401,0.387435,0.142739,0.978783,505.000000,467.000000,38.000000,14.000000,228.000000,0.000000,0.000000,0.000000,0.000000;
#CREDIT:;
#DISPLAYBPM:129.000000;
#NOTES:
// measure 0
0000
0000
0000
0000
,  // measure 1
0000
0000
0000
0000
,  // measure 2
0000
0000
0000
0000
,  // measure 3
0011
0000
0000
0000
0101
0000
0000
0000
1100
0000
1000
0001
1000
0000
0010
0100
,  // measure 4
0010
0000
0001
0100
0000
0010
1000
0000
1000
0100
0000
0000
1000
0010
0100
0001
,  // measure 5
0010
0000
MMMM
0000
1000
0100
0010
0001
0100
0000
0010
0100
MMMM
1000
0100
0000
,  // measure 6
0010
0000
MMMM
0000
0001
0010
0100
1000
0010
0000
0001
0100
MMMM
0001
0100
0000
,  // measure 7
0010
0000
MMMM
0000
1000
0010
0100
0001
0010
0000
0001
0010
MMMM
0100
1000
0000
,  // measure 8
0100
0000
MMMM
0000
0001
0100
0010
1000
0100
0000
0010
1000
MMMM
0001
0100
0000
,  // measure 9
1000
0000
MMMM
0000
0010
0100
0001
1000
0100
0000
0010
0100
MMMM
0001
1000
0000
,  // measure 10
0100
0000
1000
0010
0100
0000
MMMM
0000
0010
0000
0001
0100
0000
0010
1000
0000
,  // measure 11
0100
0000
MMMM
0000
1000
0010
0100
0001
0010
0000
0001
0010
MMMM
0100
1000
0000
,  // measure 12
0010
0100
0001
1000
0100
0010
0001
0100
0020
0000
1000
0000
0100
0000
0031
0000
,  // measure 13
0010
0000
0000
0010
0001
0000
0000
0001
0100
0000
0001
0010
0001
0000
0100
0010
,  // measure 14
1000
0000
0100
1000
MMMM
0001
0100
0000
0010
0000
0100
0010
0001
1000
0010
0100
,  // measure 15
0010
0000
0001
0010
0100
1000
0100
0000
MMMM
0000
1000
0100
1000
0000
0001
0100
,  // measure 16
0001
0000
0010
0001
MMMM
0100
0010
0000
1000
0100
0020
0000
1000
0000
0130
0000
,  // measure 17
0010
0000
0000
0010
1000
0000
0000
1000
0100
0000
1000
0100
1000
0000
0100
0010
,  // measure 18
0100
0000
0010
0001
MMMM
0001
0100
0000
0010
0000
0001
0010
0100
1000
0010
0100
,  // measure 19
0001
0000
0000
0000
0000
0000
MMMM
0000
0000
0000
0000
0000
0001
0000
0000
0000
0010
0000
0000
0000
0100
0000
0000
0000
1000
0000
0000
0000
0000
0000
0100
0000
0000
1000
0000
0000
0010
0000
0000
0000
0000
0000
0100
0000
0000
0001
0000
0000
,  // measure 20
0010
0000
1000
0100
MMMM
0010
0001
0000
1000
0001
0000
0000
0001
0010
0100
1000
,  // measure 21
0020
0000
0001
0031
0100
0010
1000
0100
0002
0000
0100
0103
0010
1000
0001
0010
,  // measure 22
0200
0000
0010
0310
1000
0001
0010
0100
2000
0000
0100
3100
0010
1000
0001
0100
,  // measure 23
0020
0000
1030
0100
MMMM
1000
0100
0000
0020
0000
0031
0100
0010
0001
0100
0000
,  // measure 24
2000
0000
3010
0100
MMMM
1000
0100
0000
0002
0000
0013
0100
1000
0001
0010
0000
,  // measure 25
1100
0000
1000
0001
0100
0010
0001
0010
0100
0000
0001
1010
0000
0000
0010
0100
,  // measure 26
0001
0000
1000
0100
0010
0000
0001
1000
0010
0000
MMMM
0100
0000
0000
0020
0000
,  // measure 27
1000
0000
1030
0001
0100
0000
0001
0010
0100
0000
1000
0011
0000
0000
0010
0001
,  // measure 28
0100
0000
0001
0100
0010
0000
1000
0100
0010
1000
0020
0000
0100
0000
0031
0000
,  // measure 29
1010
0000
0000
0100
0011
0000
0000
0001
1100
0000
1000
0010
0100
0000
0001
0100
,  // measure 30
0010
0000
1000
0100
MMMM
0010
0001
0000
0110
0000
0001
0010
0100
1000
0010
0000
,  // measure 31
0101
0000
0000
0010
1100
0000
0000
0010
1001
0000
0100
0010
0100
0000
1000
0100
,  // measure 32
1000
0000
0001
0010
MMMM
0100
0010
0000
1000
0100
0000
0000
0000
0000
1000
0001
,  // measure 33
0100
0000
0010
0001
0100
0000
0001
0100
0010
0000
1000
0100
0010
0000
0001
0100
,  // measure 34
0010
0000
1000
0100
0010
0000
0001
0010
0100
0000
1000
0010
0001
0000
0100
0010
,  // measure 35
1000
0000
0010
0100
0001
0000
1000
0100
0010
0000
0001
1000
0010
0000
0100
0001
,  // measure 36
1000
0000
0100
0010
0001
0000
1000
0010
0100
0000
0001
0010
0100
1000
0010
0100
,  // measure 37
0001
MMMM
1000
0000
0001
MMMM
1000
0000
,  // measure 38
1001
0000
0000
0110
0000
0000
1100
0000
0000
0101
0000
0000
0011
0000
1010
0000
,  // measure 39
1001
0000
0001
0010
0100
0000
1000
0100
0010
0001
0100
0010
1000
0001
0010
0100
,  // measure 40
1000
MMMM
MMMM
MMMM
MMMM
MMMM
MMMM
MMMM
MMMM
MMMM
MMMM
MMMM
MMMM
MMMM
MMMM
MMMM
,  // measure 41
1001
0000
0000
0010
0101
0000
0000
1000
0011
0000
0000
0001
1010
0000
0000
0100
,  // measure 42
1001
0000
0000
0010
0101
0000
0000
1000
0110
0000
0000
0001
1010
0000
0000
0001
,  // measure 43
1100
0000
1000
0100
0010
0000
1000
0010
0100
0000
0001
0010
0100
0000
0001
0100
,  // measure 44
0010
0000
1000
0010
0100
0001
0010
0100
1000
0100
0020
0000
0100
0000
1030
0000
,  // measure 45
0101
0000
0000
1010
0101
0000
0000
0011
1100
0000
0000
0110
1001
0000
0100
1000
,  // measure 46
0010
0000
0100
0001
MMMM
1000
0100
0000
0010
0000
0001
0010
1000
0100
0010
0001
,  // measure 47
1000
0000
0001
0010
0100
0000
1000
0010
0100
0001
0020
0000
0100
0000
0031
0000
,  // measure 48
1001
MMMM
MMMM
MMMM
MMMM
MMMM
MMMM
MMMM
MMMM
MMMM
MMMM
MMMM
MMMM
MMMM
MMMM
MMMM
,  // measure 49
0110
0000
0000
0000
;
