#TITLE:Sky Is The Limit;
#SUBTITLE:;
#ARTIST:Sota F. feat. Anna;
#TITLETRANSLIT:;
#SUBTITLETRANSLIT:;
#ARTISTTRANSLIT:;
#GENRE:;
#CREDIT:;
#BANNER:Sky Is The Limit.png;
#BACKGROUND:Sky Is The Limit-bg.png;
#LYRICSPATH:;
#CDTITLE:;
#MUSIC:Sky Is The Limit.ogg;
#OFFSET:0.000000;
#SAMPLESTART:65.629997;
#SAMPLELENGTH:15.000000;
#SELECTABLE:YES;
#BPMS:0.000000=150.000000
;
#STOPS:
;
#BGCHANGES:0.000=Sky Is The Limit.avi=1.000=0=0=0=StretchNoLoop====,
99999=-nosongbg-=1.000=0=0=0 // don't automatically add -songbackground-
;
#KEYSOUNDS:;
#ATTACKS:;

//---------------dance-single - ----------------
#NOTES:
     dance-single:
     :
     Beginner:
     2:
     0.107422,0.175781,0.058594,0.000000,0.000000,77.000000,71.000000,6.000000,0.000000,0.000000,0.000000,0.107422,0.175781,0.058594,0.000000,0.000000,77.000000,71.000000,6.000000,0.000000,0.000000,0.000000:
0000
0000
0000
0000
,
0000
0000
0000
0000
,
0000
0000
0000
0000
,
0000
0000
0000
0000
,
0000
0000
0000
0000
,
0010
0000
0000
0000
,
0001
0000
0000
0000
,
1000
0000
0000
0000
,
0100
0000
0000
0000
,
0010
0000
0000
0000
,
0001
0000
0000
0000
,
0100
0000
0000
0000
,
0010
0000
0000
0000
,
1000
0000
0000
0000
,
0001
0000
0000
0000
,
0100
0000
0000
0000
,
1001
0000
0000
0000
,
0000
0010
0000
0000
,
0000
0010
0000
0000
,
0000
0100
0000
0000
,
0000
0100
0000
0000
,
0000
0001
0000
0000
,
0000
0001
0000
0000
,
0000
1000
0000
0000
,
0000
1000
0000
0000
,
0010
0010
0000
0000
,
0010
0010
0000
0000
,
0010
0010
0000
0000
,
0010
0010
0000
0000
,
0100
0100
0000
0000
,
0100
0100
0000
0000
,
0100
0100
0000
0000
,
0100
0100
0000
0000
,
1000
0000
0000
0000
,
0000
0000
0000
0000
,
0001
0000
0000
0000
,
0000
0000
0000
0000
,
1000
0000
0000
0000
,
0000
0000
0000
0000
,
0001
0000
0000
0000
,
1001
0000
0000
0000
,
0010
0000
0010
0000
,
0100
0000
0100
0000
,
0001
0000
0000
0000
,
1000
0000
0000
0000
,
0001
0000
0001
0000
,
1000
0000
1000
0000
,
0010
0000
0000
0000
,
0100
0000
0000
0000
,
0010
0000
0010
0000
,
0100
0100
0100
0000
,
0010
0000
0000
0000
,
0100
0000
0000
0000
,
0001
0000
0001
0000
,
1000
1000
1000
0000
,
0001
0000
0000
0000
,
1000
0000
0000
0000
,
1001
0000
0000
0000
,
1001
0000
0000
0000
,
1001
0000
0000
0000
,
1001
0000
0000
0000
,
0000
0000
0000
0000
;

//---------------dance-single - ----------------
#NOTES:
     dance-single:
     :
     Easy:
     5:
     0.253906,0.296631,0.117188,0.117188,0.000000,182.000000,170.000000,12.000000,12.000000,0.000000,0.000000,0.253906,0.296631,0.117188,0.117188,0.000000,182.000000,170.000000,12.000000,12.000000,0.000000,0.000000:
0000
0000
0000
0000
,
0000
0000
0000
0000
,
0000
0000
0000
0000
,
0000
0000
0000
0000
,
0000
0000
0000
0000
,
0020
0000
0230
0000
,
0302
0000
2003
0000
,
3001
0000
1001
0000
,
0010
0100
0010
0100
,
0000
0001
0001
1000
,
1000
0001
1000
1000
,
0000
0010
0100
0010
,
0100
0100
0010
0010
,
0000
1000
1000
0001
,
0001
1000
0001
1000
,
0000
0010
0100
0010
,
0200
0300
0000
1001
,
0000
1000
0100
1000
,
0100
0100
0200
0300
,
0000
0001
0010
0001
,
0010
0010
0020
0030
,
0000
0100
0001
0100
,
0001
0001
0002
0003
,
0000
0010
1000
0010
,
1001
1001
1001
0000
,
0010
0000
0100
0000
,
0010
0100
0010
0100
,
0001
0000
1000
0000
,
0001
1000
0001
1000
,
0020
0030
0200
0300
,
0010
0100
0010
0100
,
0002
0003
2000
3000
,
0001
1000
0001
1000
,
1001
0000
0000
0000
,
0010
0000
0000
0000
,
0100
0000
0000
0000
,
0010
0000
0000
0000
,
0010
0000
0100
0000
,
0010
0000
0100
0000
,
0001
0000
1000
0000
,
0001
1000
0001
1001
,
0010
0000
0010
0000
,
0001
1000
0001
0100
,
0010
1000
0010
1000
,
0100
1000
0100
0000
,
0010
0000
0010
1000
,
0001
1000
0100
0010
,
0001
0010
0001
0100
,
0001
0100
0110
0000
,
0001
0010
0100
1000
,
0010
0100
1001
0000
,
1000
1000
0001
0001
,
0010
0100
0010
0000
,
1000
0010
0100
0001
,
0010
0100
1001
0000
,
0001
0001
1000
1000
,
0010
0100
0010
0110
,
1000
1000
0010
0010
,
0001
0001
0100
0100
,
1000
0010
0001
0100
,
0001
0010
1000
0110
,
0000
0000
0000
0000
;

//---------------dance-single - ----------------
#NOTES:
     dance-single:
     :
     Medium:
     9:
     0.438058,0.475586,0.371094,0.234375,0.029297,314.000000,276.000000,38.000000,24.000000,0.000000,0.000000,0.438058,0.475586,0.371094,0.234375,0.029297,314.000000,276.000000,38.000000,24.000000,0.000000,0.000000:
0000
0000
0000
0000
,
0000
0000
0000
0000
,
0000
0000
0000
0000
,
0000
0000
0000
0000
,
0000
0000
0000
0000
,
2000
3100
0002
0103
,
2000
3010
0002
0013
,
2100
3001
0102
1003
,
0010
0100
1001
0110
,
1000
0000
0010
0000
1000
0100
1000
0000
,
0001
0000
0100
0000
0001
0010
0001
0000
,
0010
0000
0001
0000
1000
0100
1000
0001
,
0000
0100
0000
0010
0100
0000
1001
0000
,
0001
0000
0100
0000
0001
0010
0001
0000
,
1000
0000
0010
0000
1000
0100
1000
0000
,
0100
0000
1000
0000
0001
0010
0001
1000
,
0000
0010
0000
0100
0010
0000
1001
0000
,
1000
0000
1100
0000
0001
1000
0100
0000
,
0001
0000
0101
0000
1000
0001
0100
0000
,
1000
0000
1010
0000
0001
1000
0010
0000
,
0001
0000
0011
0000
1000
0001
0010
0000
,
0001
0000
0011
0000
1000
0001
0010
0000
,
1000
0000
1010
0000
0001
1000
0010
0000
,
0001
0000
0101
0000
1000
0001
0100
0010
,
0000
0110
0000
2002
0000
0000
3003
0000
,
1000
0000
1000
0000
1000
0100
1000
0010
,
0100
0000
0100
0000
0100
0010
1000
0100
,
0010
0000
0010
0000
0010
0100
1000
0010
,
0100
0001
0010
0000
1000
0000
1001
0000
,
0001
0000
0001
0000
0001
0010
0001
0100
,
0010
0000
0010
0000
0010
0100
0001
0010
,
0100
0000
0100
0000
0100
0010
0001
0100
,
0010
1000
0100
1000
0001
0010
1001
0000
,
0210
0000
0010
0000
,
0320
0000
0100
0000
,
2030
3100
0002
0013
,
2000
3010
0002
0103
,
2000
3200
0302
0203
,
2300
3200
0320
0032
,
1003
0010
1000
0000
0001
0010
0001
0000
,
0001
0100
0010
1000
0010
1000
0110
0000
,
1001
0000
0100
0010
1000
0000
0100
0010
,
0001
0000
0100
0010
1000
0000
0100
0010
,
0001
1100
0010
0101
,
0010
1100
0010
0101
,
1001
0000
0010
0100
0001
0000
0010
0100
,
1000
0000
0010
0100
0001
0000
0010
0100
,
1000
0011
0100
1010
,
0100
0011
0100
1010
,
0001
0000
0000
0001
0000
0000
0001
0000
0100
0000
0000
0100
0000
0000
0100
0000
,
0010
0000
0000
0010
0000
0000
0010
0000
1000
0000
0000
0000
1000
0000
0100
0000
,
0010
1100
0010
0101
,
0010
1100
0010
0101
,
1000
0000
0000
1000
0000
0000
1000
0000
0100
0000
0000
0100
0000
0000
0100
0000
,
0010
0000
0000
0010
0000
0000
0010
0000
0001
0000
0000
0000
0001
0000
0100
0000
,
0010
0101
0010
1100
,
2002
0000
0000
0000
0003
3001
0100
0010
,
1000
0000
0001
0000
1000
1000
0100
0000
,
0001
0000
1000
0000
0001
0001
0100
0000
,
0010
0000
0100
0000
0010
0010
0100
0000
,
0110
0000
1001
0000
0100
1000
0010
0100
,
0000
0000
0000
0000
;

//---------------dance-single - ----------------
#NOTES:
     dance-single:
     :
     Hard:
     12:
     0.460379,0.476074,0.351563,0.361328,0.195313,330.000000,294.000000,36.000000,37.000000,0.000000,0.000000,0.460379,0.476074,0.351563,0.361328,0.195313,330.000000,294.000000,36.000000,37.000000,0.000000,0.000000:
0000
0000
0000
0000
,
0000
0000
0000
0000
,
0000
0000
0000
0000
,
0000
0000
0000
0000
,
0000
0000
0000
0000
,
0020
0000
0032
2003
,
0002
0000
0000
3003
1001
0000
1000
0100
,
0020
0000
0032
0103
,
0110
1001
0101
1100
,
0010
0000
0101
0000
0001
0010
0100
1000
,
0000
0010
0000
0100
0000
0001
0001
0000
,
0010
0000
1100
0000
1000
0100
0010
0001
,
0000
0100
0000
0010
0000
1000
1000
0001
,
0100
0000
0011
0000
0010
0100
1000
0010
,
0000
1000
0000
0002
0000
1000
1003
0000
,
0010
0000
0101
0000
0010
0100
0001
0010
,
0000
0001
0000
2000
0000
3001
1001
0000
,
0100
0000
1001
0000
1000
0010
0001
0010
,
0000
0100
0000
0010
0100
0000
0110
0000
,
0100
0000
1001
0000
0001
0010
1000
0010
,
0000
0100
0000
0010
0100
0000
1001
0000
,
0100
0000
0110
0000
0010
1000
0100
0001
,
0000
0100
0000
0010
0000
0001
1000
0000
,
0100
0000
1001
0000
0010
0001
0100
1100
,
0000
0101
0000
2002
0000
0000
3003
0000
,
0010
0000
0000
0010
0000
0000
1000
0000
0000
0100
0000
0000
0010
0000
0001
0000
,
0000
0100
0000
0000
0100
0000
0000
0010
0000
0000
1000
0000
0000
0001
1000
0000
,
0100
0000
0000
0100
0000
0000
1000
0000
0000
0010
0000
0000
0100
0000
0001
0000
,
0000
0010
0100
0000
0010
0000
0100
0010
0000
0000
0001
0000
0000
1000
0001
0000
,
0010
0000
0000
0010
0000
0000
0001
0000
0000
0100
0000
0000
0010
0000
1000
0000
,
0000
0000
0100
0000
0000
0100
0000
0010
0000
0000
0001
0000
0000
1000
0001
0000
,
0000
0100
0000
0000
0010
0000
0000
1000
0000
0000
0001
0000
0000
1000
0000
0001
,
0000
1000
0100
0000
1000
0000
0100
0010
0000
0000
0001
0000
0000
1000
0001
0000
,
2001
0001
0001
0001
,
3200
0010
0010
0010
,
0320
0100
0100
0100
,
0032
1000
1000
1000
,
0203
0000
0010
0000
0000
0010
0000
0000
0010
0000
0000
0010
0000
0000
0010
0000
,
0320
0000
1000
0000
0000
1000
0000
0000
1000
0000
0000
1000
0000
0000
1000
0000
,
2030
0000
0100
0000
0000
0100
0000
0000
0100
0000
0000
0100
0000
0000
0100
0000
,
3100
0000
0010
0000
0001
0000
0100
0000
0000
0000
2002
0000
0000
3003
0000
0000
,
0020
0000
1030
0100
0020
0000
0031
0100
,
0020
0000
1030
0001
1001
0000
1000
0001
,
0200
0000
0000
0000
0000
0000
0310
0000
1000
0000
0000
0001
0000
0000
1000
0000
,
0200
0000
0000
0310
0100
0000
1001
0000
,
0200
0000
0301
0010
0200
0000
1300
0010
,
0200
0000
0301
1000
1001
0000
0001
1000
,
0020
0000
0000
0000
0000
0000
0130
0000
0001
0000
0000
1000
0000
0000
0001
0000
,
0020
0000
0000
0130
0010
0000
1001
0000
,
2010
0000
0000
0000
3001
0000
0100
0000
0010
0000
0000
1000
0000
0000
0100
0000
,
0001
0000
0000
0100
0000
0000
1000
0000
1100
0000
0000
0000
0101
0000
0100
0000
,
2000
0000
0000
0000
0000
0000
3001
0000
0010
0000
0000
1000
0000
0000
0010
0000
,
0002
0000
0000
1003
1100
0000
0000
0000
,
0102
0000
0000
0000
1003
0000
0010
0000
0100
0000
0000
0001
0000
0000
0010
0000
,
1000
0000
0000
0010
0000
0000
0001
0000
0011
0000
0000
0000
1010
0000
0010
0000
,
0002
0000
0000
0000
0000
0000
1003
0000
0100
0000
0000
0001
0000
0000
0100
0000
,
2000
0000
0000
3000
0110
1000
0001
0100
,
0010
0000
1100
0000
0010
0001
0010
0100
,
1000
0000
0101
0000
0100
1000
0010
0100
,
0001
0000
0110
0000
0001
0100
1000
0100
,
0002
0000
0000
0000
1003
0010
1000
0200
0000
0000
0000
0000
1300
0001
0000
0100
,
0000
0000
0000
0000
;

//---------------dance-double - ----------------
#NOTES:
     dance-double:
     :
     Easy:
     5:
     0.262277,0.296631,0.078125,0.107422,0.000000,188.000000,180.000000,8.000000,11.000000,0.000000,0.000000,0.262277,0.296631,0.078125,0.107422,0.000000,188.000000,180.000000,8.000000,11.000000,0.000000,0.000000:
00000000
00000000
00000000
00000000
,
00000000
00000000
00000000
00000000
,
00000000
00000000
00000000
00000000
,
00000000
00000000
00000000
00000000
,
00000000
00000000
00000000
00000000
,
00002000
00000000
00023000
00000000
,
00032000
00000000
00023000
00000000
,
00031000
00000000
00011000
00000000
,
00001000
00010000
00001000
00010000
,
00000000
00001000
00001000
00000100
,
00000100
00000010
00001000
00010000
,
00000000
00010000
00010000
01000000
,
01000000
00100000
00010000
00001000
,
00000000
00001000
00010000
00001000
,
00100000
00010000
00001000
00010000
,
00000000
00010000
00001000
00010000
,
00000010
00001000
00000100
00001001
,
00000000
00000001
00001000
00000010
,
00010000
00001000
00020000
00030000
,
00000000
00001000
00100000
00010000
,
01000000
00001000
00020000
00030000
,
00001000
00010000
01000000
10000000
,
00100000
00010000
00002000
00003000
,
00000000
00000010
00000001
00000100
,
00000110
00000100
00011000
00000000
,
00100000
00000000
00001000
00000000
,
00100000
00001000
00100000
00001000
,
00010000
00000000
00000010
00000000
,
00010000
00000010
00010000
00000010
,
00100000
00001000
00100000
00001000
,
00200000
00301000
00200000
00301000
,
00010000
00000010
00010000
00000010
,
00020000
00030010
00020000
00030010
,
00011000
00000000
00000000
00000000
,
00100000
00000000
00000000
00000000
,
00001000
00000000
00000000
00000000
,
00000001
00000000
00000000
00000000
,
00000010
00000000
00001000
00000000
,
00000001
00000000
00000100
00000000
,
00001000
00000000
00010000
00000000
,
01000000
00001000
00010000
00011000
,
00000010
00001000
00000010
00001000
,
00000001
00000100
00000010
00001000
,
00010000
01000000
00100000
10000000
,
01000000
00100000
00010000
00000000
,
01000000
00010000
01000000
00010000
,
10000000
00100000
01000000
00010000
,
00001000
00000010
00000100
00000001
,
00000010
00000100
00001000
00000000
,
00000010
00000010
00001000
00001000
,
00010000
00010000
00100000
00000000
,
00100000
00001000
00010000
00000100
,
00001000
01000000
00100000
00000000
,
01000000
01000000
00010000
00010000
,
00001000
00001000
00000100
00000000
,
00000100
00010000
00001000
00100000
,
00010000
00000010
00000100
00001001
,
00000100
00000001
00000010
00001000
,
00010000
00001000
00010000
00000010
,
00010000
00001000
01000000
00010000
,
00100000
01000000
10000000
01100000
,
00000000
00000000
00000000
00000000
;

//---------------dance-double - ----------------
#NOTES:
     dance-double:
     :
     Medium:
     9:
     0.390625,0.475586,0.390625,0.263672,0.000000,280.000000,240.000000,40.000000,27.000000,0.000000,0.000000,0.390625,0.475586,0.390625,0.263672,0.000000,280.000000,240.000000,40.000000,27.000000,0.000000,0.000000:
00000000
00000000
00000000
00000000
,
00000000
00000000
00000000
00000000
,
00000000
00000000
00000000
00000000
,
00000000
00000000
00000000
00000000
,
00000000
00000000
00000000
00000000
,
02000000
00000000
03200000
00320000
,
02030000
00000000
03000000
00000000
00011000
00000000
00001000
00000100
,
00000020
00000000
00002030
00003200
,
00020300
00031000
01000000
00100000
,
00000000
11000000
00100000
01100000
,
00010000
00001000
00000100
00000011
,
00000000
00000101
00000010
00000110
,
00001000
00010000
01000000
10100000
,
00000000
00000000
10100000
00000000
01000000
00010000
01000000
00000000
,
00010000
00000100
00000010
00001001
,
00000000
00000000
00000011
00000000
00000100
00001000
00000100
00000000
,
00010000
01000000
10010000
01100000
,
00000000
00000000
02000000
00000000
03100000
10000000
01000000
00000000
,
00100000
00010000
00001000
00011000
,
00000000
00000000
00000200
00000000
00000310
00000001
00000100
00000000
,
00000010
00001000
00010000
00011000
,
00000000
00000000
00010000
00000000
00010000
01000000
10000000
00000000
,
00100000
00010000
00001000
00000100
,
00000000
00000000
00001000
00000000
00010000
00001000
00010000
00000100
,
00000000
00010000
00000000
00022000
00000000
00000000
00033000
00000000
,
00010000
01000000
10000000
00000000
10000000
01000000
00010000
00000000
,
10000000
00100000
01000000
00000000
00100000
00000000
00011000
00000000
,
00001000
00000100
00000001
00000000
00000001
00000100
00001000
00000000
,
00000001
00000010
00000100
00000000
00000010
00000000
00011000
00000000
,
00010000
00001000
00010000
00000100
00000010
00000000
00000011
00000000
,
00000001
00000100
00000010
00001000
00000100
00000000
00011000
00000000
,
00001000
00010000
00001000
01000000
00100000
00000000
10100000
00000000
,
10000000
01000000
00100000
00010000
01000000
00001000
00010000
00000000
,
00021000
00000000
02030000
00000000
,
03020000
00000000
00032000
00000000
,
00003200
00000000
00000320
00000000
,
00001030
00000010
00000100
00011000
,
00012000
00000000
00003020
00000000
,
00002030
00000000
00023000
00000000
,
00230000
00000000
02300000
00000000
,
03100000
01000000
00100000
01100000
,
00100000
00000000
00010000
10000000
10010000
00000000
10000000
00010000
,
10010000
00000000
01000000
00000000
00010000
00000000
00010000
01000000
,
00001000
00011000
00000010
00000011
,
00000100
00000010
00000200
00000300
,
00000100
00000000
00001000
00000001
00001001
00000000
00000001
00001000
,
00001001
00000000
00000010
00000000
00001000
00000000
00001000
00000010
,
00010000
00011000
01000000
11000000
,
00100000
01000000
00200000
00300000
,
10000000
01000000
10000000
01000000
00100000
00010000
00100000
00000000
,
00001000
00010000
00001000
00000000
00011000
00000000
00000010
00000000
,
00001100
00000000
00000010
00001000
00000100
00000000
00000010
00000000
,
00000001
00000010
00000011
00000000
,
00000001
00000010
00000001
00000010
00000100
00001000
00000100
00000000
,
00010000
00001000
00010000
00000000
00011000
00000000
01000000
00000000
,
00110000
00000000
01000000
00010000
00100000
00000000
01000000
00000000
,
20000000
00000000
00000000
00000000
00000000
30010000
01000000
00100000
,
10000000
00000000
10010000
00000000
00100000
01000000
00010000
00000000
,
01000000
00000000
00011000
00000000
00010000
00001000
00100000
00000000
,
00010000
00000000
00011000
00000000
00000010
00000100
00001000
00000000
,
00000001
00000000
00001000
00000000
00000001
00000100
00001000
00010000
,
00000000
00000000
00000000
00000000
;

//---------------dance-double - ----------------
#NOTES:
     dance-double:
     :
     Hard:
     11:
     0.457589,0.505829,0.263672,0.263672,0.180664,328.000000,301.000000,27.000000,27.000000,0.000000,0.000000,0.457589,0.505829,0.263672,0.263672,0.180664,328.000000,301.000000,27.000000,27.000000,0.000000,0.000000:
00000000
00000000
00000000
00000000
,
00000000
00000000
00000000
00000000
,
00000000
00000000
00000000
00000000
,
00000000
00000000
00000000
00000000
,
00000000
00000000
00000000
00000000
,
00020000
00000000
00032000
00003020
,
00002030
00000000
00003000
00000000
00011000
00000000
00100000
00001000
,
00010000
11000000
00100000
01010000
,
00001000
00000010
00000100
00001001
,
00000000
00000000
00000002
00000000
00000103
00000010
00001000
00000100
,
00000000
00011000
00000000
00110000
00000000
01000000
10000000
00000000
,
00000000
00000000
20000000
00000000
31000000
00100000
00010000
01000000
,
00000000
00011000
00000000
00001010
00000000
00000100
00000001
00000000
,
00000000
00000000
00000002
00000000
00000013
00000100
00001000
00000010
,
00000000
00000001
00000000
00000110
00000000
00000100
00001000
00000000
,
00011000
00000000
00020000
00000000
01030000
10000000
00100000
01000000
,
00000000
01100000
00000000
00022000
00000000
00000000
00033000
00000000
,
00010000
00000000
11000000
00000000
00100000
10000000
01000000
00010000
,
00000000
00001000
00000100
00000002
00000000
00000000
00000013
00000000
,
00001000
00000000
00000101
00000000
00000010
00000001
00000100
00001000
,
00000000
00010000
01000000
20000000
00000000
00000000
30100000
00000000
,
01000000
00000000
00110000
00000000
00100000
00010000
01000000
00001000
,
00000000
00010000
00001000
00000100
00000000
00000010
00000100
00000000
,
00000100
00000000
00000011
00000000
00000010
00001000
00000100
00010000
,
00000000
00000100
00000000
00002002
00000000
00000000
00003003
00000000
,
00000100
00000000
00000000
00001000
00000000
00000000
00010000
00000000
00000000
01000000
00000000
00000000
10000000
00000000
01000000
00000000
,
10000000
00000000
00010000
00000000
10000000
00100000
10000000
00000000
,
01000000
00000000
00000000
00010000
00000000
00000000
00001000
00000000
00000000
00000100
00000000
00000000
00000001
00000000
00000100
00000000
,
00000001
00000000
00001000
00000000
00000001
00000010
00000001
00000000
,
00000100
00000000
00000000
00001000
00000000
00000000
00010000
00000000
00000000
00100000
00000000
00000000
10000000
00000000
01000000
00000000
,
00000000
00000000
10000000
00000000
00000000
01000000
00000000
00100000
00000000
00000000
00010000
00000000
00000000
10000000
01000000
00000000
,
00000000
01000000
00000000
00000000
00010000
00000000
00000000
00001000
00000000
00000000
00000010
00000000
00000000
00000001
00000000
00000100
,
00000000
00000001
00000100
00000000
00000010
00000000
00001000
00000100
00000000
00000000
00010000
00000000
00000000
00001000
00010000
00000000
,
00012000
01000000
00010000
01000000
,
00023000
00000100
00001000
00000100
,
00031000
00000000
00000100
00000000
00000000
00000001
00000000
00000000
00000010
00000000
00000000
00001000
00000000
00000000
00001000
00000000
,
00010000
00000000
01000000
00000000
00000000
10000000
00000000
00000000
00100000
00000000
00000000
00010000
00000000
00000000
00001000
00000000
,
00010000
00000000
01000000
00000000
00000000
10000000
00000000
00000000
00100000
00000000
01000000
00010000
00000000
00010000
00100000
00000000
,
00001000
00000000
00000100
00000000
00000000
00000001
00000000
00000000
00000010
00000000
00000100
00001000
00000000
00001000
00000100
00000000
,
00010000
00000000
00001000
00000000
00000000
00000010
00000000
00000000
00001000
00000000
00000000
00100000
00000000
00000000
00010000
00000000
,
00001000
00000100
00000010
00000001
00000000
00000110
00000000
00000000
,
00001002
00000000
00000013
00000100
00001000
00000000
00000100
00010000
,
00001000
00000000
00100000
00010000
10010000
00000000
00010000
10000000
,
00020000
00000000
00000000
00000000
00000000
00000000
00130000
00000000
10000000
00000000
00000000
00010000
00000000
00000000
01000000
00000000
,
20000000
00000000
00000000
30010000
02000000
00000000
03000000
00000000
,
20010000
00000000
31000000
00100000
00010000
00000000
00100000
00001000
,
00010000
00000000
00000100
00001000
00001001
00000000
00001000
00000001
,
00002000
00000000
00000000
00000000
00000000
00000000
00003100
00000000
00000001
00000000
00000000
00001000
00000000
00000000
00000010
00000000
,
00000002
00000000
00000000
00001003
00000020
00000000
00000030
00000000
,
00000001
00000010
00000001
00000100
00001000
00010000
00001000
00100000
,
10000000
00100000
00010000
01000000
10000000
00000000
10000000
01000000
,
00100000
00000000
00000000
10000000
00000000
00000000
00100000
00000000
00010000
00000000
00000000
00000000
00001000
00000000
00000100
00000000
,
00001000
00000000
00100000
00010000
10000000
00000000
00000000
00000000
,
10000000
01000000
10000000
00100000
00010000
00001000
00010000
00000100
,
00000001
00000100
00001000
00000010
00000001
00000000
00000001
00000010
,
00000100
00000000
00000000
00000001
00000000
00000000
00000100
00000000
00001000
00000000
00000000
00010000
00000000
00000000
00100000
00000000
,
00020000
00000000
00000000
00000000
00031000
00011000
00000010
00001000
,
00000100
00000000
00001100
00000000
00000001
00000010
00001000
00010000
,
00001000
00000000
00011000
00000000
00010000
01000000
10000000
00100000
,
00010000
00000000
01100000
00000000
00100000
00010000
00001000
00000100
,
00002000
00000000
00000000
00000000
00013000
00001000
00010000
00000020
00000000
00000000
00000000
00000000
00010030
00001000
00000000
01000000
,
00000000
00000000
00000000
00000000
;

//---------------dance-single - ----------------
#NOTES:
     dance-single:
     :
     Challenge:
     16:
     0.915179,1.101298,0.527344,0.859375,1.240234,656.000000,602.000000,54.000000,88.000000,0.000000,0.000000,0.915179,1.101298,0.527344,0.859375,1.240234,656.000000,602.000000,54.000000,88.000000,0.000000,0.000000:
// measure 0
0000
0000
0000
0000
,  // measure 1
0000
0000
0000
0000
,  // measure 2
0000
0000
0000
0000
,  // measure 3
0000
0000
0000
0000
,  // measure 4
0000
0000
0000
0000
,  // measure 5
0200
0000
0001
1300
,  // measure 6
0020
0000
0000
0000
1000
0000
0031
1000
,  // measure 7
2002
0000
0000
0000
0000
0000
3003
0000
0000
0001
0010
0100
2000
0000
0000
0000
0000
0000
3000
0000
0000
1000
0100
0010
,  // measure 8
0002
0000
0000
0000
0000
0000
0000
0000
0000
0000
0000
0000
0103
0000
0000
0000
0000
0000
0000
0000
0000
0000
0000
0000
0010
0000
0000
0001
0000
0000
0000
0000
0000
1000
0000
0000
0010
0000
0000
0000
0000
0000
0001
0000
0010
0000
0100
0000
,  // measure 9
1000
0100
0010
0000
0201
0000
0000
0000
1300
0000
0100
0010
0001
0000
0101
0000
,  // measure 10
0000
0000
1100
0000
0000
0000
1010
0000
0000
0001
0010
0001
0000
0010
0100
0010
,  // measure 11
1000
0100
0010
0000
0021
0000
0000
0000
0130
0000
0001
0010
0100
0000
1100
0000
,  // measure 12
0000
0000
1010
0000
0000
0000
0011
0000
0001
0010
0100
1000
0020
0000
0000
0000
,  // measure 13
1030
0010
0100
0000
2100
0000
0000
0000
3010
0000
1000
0100
0010
0000
0011
0000
,  // measure 14
0000
0000
0101
0000
0000
0000
0110
0000
0000
0010
1000
0010
0000
1000
0100
0010
,  // measure 15
0001
0010
1000
0000
1002
0000
0000
0000
0013
0000
0001
0100
0010
0000
1010
0000
,  // measure 16
0000
0000
1001
0000
0000
0000
1100
0000
1000
0100
0010
0001
0200
0000
0000
0000
,  // measure 17
0301
0100
1000
0000
1100
0000
1000
0100
0001
0000
0101
0000
0001
0000
1000
0100
,  // measure 18
0001
0000
1000
0010
0001
0000
1000
0100
0002
0000
0100
0000
1003
0000
0000
0000
,  // measure 19
0001
0010
0100
0000
1100
0000
1000
0010
0100
0000
0101
0000
0001
0000
0010
0001
,  // measure 20
1000
0000
0100
1000
0010
0000
0010
0001
1000
0100
0010
0001
0200
0000
0000
0000
,  // measure 21
0310
0001
1000
0000
1001
0000
0100
1000
0001
0000
1001
0000
0001
0000
0100
0010
,  // measure 22
1000
0000
0010
0100
0001
0000
0100
0010
2000
0000
0100
0000
3001
0000
0000
0000
,  // measure 23
0010
0100
0001
0000
1001
0000
0100
0010
1000
0000
1001
0000
1000
0000
0100
0010
,  // measure 24
0001
0000
1000
0100
0010
0000
0100
0010
0001
0010
0100
1000
0020
0000
0000
0000
,  // measure 25
0230
0000
0000
0302
0000
0000
0023
0000
0000
2030
0000
0000
3001
0000
2002
0000
,  // measure 26
3003
1000
0020
0000
0130
0002
0000
2003
0000
0000
3200
0001
0000
0320
0000
0130
,  // measure 27
0022
0000
0033
0202
0000
0303
2200
0000
3300
2020
0000
3030
0110
0000
0022
0000
,  // measure 28
0033
0000
0000
0001
0000
0000
2020
0000
0000
3030
0000
0000
0101
0000
0000
0001
0000
0000
1000
0000
0100
0000
0010
0000
0001
0000
0000
0000
0000
0000
0220
0000
0000
0000
0000
0000
0330
0000
0000
2002
0000
0000
0000
0000
0000
3003
0000
0000
,  // measure 29
0210
0000
0000
0001
0000
0000
0010
0000
0000
0001
0000
0000
0310
1000
0001
0010
,  // measure 30
0120
0000
1000
0100
0000
0100
0000
1000
0000
1000
0000
0130
0000
0010
0001
1000
,  // measure 31
2010
0000
0000
0100
0000
0000
0001
0000
0000
0100
0000
0000
3001
1000
0010
0100
,  // measure 32
0102
0103
1000
0100
0102
0013
0100
1000
0102
1003
0100
0010
0102
0013
1000
0100
,  // measure 33
1000
0100
1000
0100
0010
0001
0010
0001
1000
0010
1000
0010
0100
0001
0100
0001
,  // measure 34
1000
0100
1000
0100
0010
0001
0010
0001
0100
0010
0100
0010
1000
0001
1000
0001
,  // measure 35
0100
0001
0100
0001
1000
0010
1000
0010
0100
0001
0100
0001
1000
0100
1000
0100
,  // measure 36
0010
0001
0010
0001
0100
0010
0100
0010
1000
0100
1000
0100
1000
0001
1000
0001
,  // measure 37
2000
0000
0010
0000
0000
0100
0000
0000
0010
0000
0000
0100
0000
0000
3010
0000
,  // measure 38
0200
0000
1000
0000
0000
0001
0000
0000
1000
0000
0000
0001
0000
0000
1300
0000
,  // measure 39
0020
0000
0001
0000
0000
0100
0000
0000
1000
0000
0000
0100
0000
0000
0031
0000
,  // measure 40
0001
0000
0000
0010
0000
0000
0100
0000
0000
1000
0000
0000
0001
0000
0000
0010
0000
0000
0100
0000
0000
1000
0000
0000
0001
0000
0010
0000
0100
0000
1000
0000
0100
0000
0010
0000
0002
0000
0000
0000
0000
0000
0000
0000
0000
0000
0000
0000
,  // measure 41
0103
0001
1000
0100
0010
0000
0010
0001
1000
0010
0100
0000
0001
0100
0010
1000
,  // measure 42
0100
0001
0100
1000
0010
0100
0001
1000
0200
0000
0010
0000
0301
0010
0100
0000
,  // measure 43
1000
0010
0100
0001
1000
0100
0010
0001
0020
0000
0000
1000
0000
0000
0031
0000
,  // measure 44
0202
0000
0000
0000
0303
0000
0001
0010
2200
0000
0000
0000
3300
0000
0000
0000
,  // measure 45
1000
0010
0100
0001
1000
0000
0100
1000
0001
0100
0010
0000
1000
0010
0001
0010
,  // measure 46
0100
0010
0001
1000
0010
0100
0001
0010
2000
0000
0010
0000
3001
0010
0100
1000
,  // measure 47
0010
0100
0010
0001
1000
0010
0100
0001
1000
0000
0000
0101
0000
0000
1100
0000
,  // measure 48
0100
0010
1000
0001
0010
0100
0001
1000
0100
0010
0001
0010
2000
0000
0000
0000
,  // measure 49
3001
0010
0100
1000
0010
0000
1000
0100
0010
0001
0100
0000
0010
0100
0001
1000
,  // measure 50
0100
0010
1000
0001
0010
0100
0001
1000
0200
0000
0010
0000
0301
0010
1000
0000
,  // measure 51
0001
0010
0100
1000
0100
0000
0001
1000
0010
1000
0001
0000
0010
0001
0010
0001
,  // measure 52
1000
0010
0100
0001
1000
0100
0010
0001
0020
0000
0000
0000
0130
1000
0001
0000
,  // measure 53
1000
0100
0010
0001
1000
0000
0100
0001
1000
0100
0010
0000
0001
0010
0100
1000
,  // measure 54
0010
0100
0010
0001
1000
0100
0010
0100
0002
0000
1000
0000
0013
0001
0100
0010
,  // measure 55
1000
0100
0010
0100
1000
0001
0100
0001
1000
0000
0000
2020
0000
3030
0202
0303
,  // measure 56
2100
3010
0100
0001
2100
3100
0010
0001
2100
3010
0001
0100
2100
3010
0100
0001
,  // measure 57
0010
0002
0000
0023
1000
0030
1000
0200
0000
0302
0100
1003
0100
0001
0100
0010
,  // measure 58
1000
0020
0000
0230
0001
0000
1300
0020
0000
2030
0001
3100
0010
1000
0001
0100
,  // measure 59
0010
0002
0000
0023
0100
0030
1000
0200
0000
0320
0001
2030
0010
3100
0001
1000
,  // measure 60
0100
0000
0000
0010
0000
0000
0100
0000
0000
0001
0000
0000
1000
0000
0100
0000
0010
0000
0001
0000
0000
0202
0000
0000
0303
0000
0000
0001
0000
0000
0010
0000
0000
0100
0000
0000
1000
0000
0000
0010
0000
0000
0100
0000
0010
0000
1000
0000
;
