#TITLE:Shivers (Radio Edit);
#SUBTITLE:;
#ARTIST:Armin van Buuren;
#TITLETRANSLIT:;
#SUBTITLETRANSLIT:;
#ARTISTTRANSLIT:;
#GENRE:;
#CREDIT:;
#BANNER:Shivers (Radio Edit).png;
#BACKGROUND:Shivers (Radio Edit)-bg.png;
#LYRICSPATH:;
#CDTITLE:;
#MUSIC:Shivers (Radio Edit).ogg;
#OFFSET:0.000000;
#SAMPLESTART:30.115000;
#SAMPLELENGTH:15.000000;
#SELECTABLE:YES;
#BPMS:0.000000=135.000000
;
#STOPS:
;
#BGCHANGES:;
#KEYSOUNDS:;
#ATTACKS:;

//---------------dance-single - ----------------
#NOTES:
     dance-single:
     :
     Easy:
     3:
     0.157352,0.268306,0.047071,0.273013,0.000000,117.000000,112.000000,5.000000,29.000000,0.000000,0.000000,0.157352,0.268306,0.047071,0.273013,0.000000,117.000000,112.000000,5.000000,29.000000,0.000000,0.000000:
0000
0000
0000
0000
,
0000
0000
0000
0000
,
0000
0000
0000
0000
,
1000
0000
1000
0000
,
1000
0000
0010
0000
,
0001
0000
0001
0000
,
0001
0000
0100
0000
,
1000
0000
1000
0000
,
1000
0000
0000
0000
,
0001
0000
0100
0000
,
0001
0100
0001
0000
,
1000
0000
0100
0000
,
1000
0100
1000
0000
,
0001
0000
1000
0001
,
2000
3000
0200
0300
,
2000
3000
0002
0003
,
0200
0300
0020
0030
,
0110
0000
0000
0000
,
1000
0000
0001
0000
,
0010
0010
0100
0100
,
1000
0000
0001
0000
,
1001
0000
0000
0000
,
0010
0000
0100
0000
,
0001
0001
1000
1000
,
0100
0000
0010
0000
,
0002
0000
0000
0000
,
0000
0000
0000
0003
,
2000
0000
0000
0000
,
0000
0000
0000
3000
,
0020
0000
0000
0000
,
0000
0000
0000
0030
,
0200
0000
0000
0000
,
0000
0000
0000
0300
,
1002
0000
0010
0000
,
0013
0000
0100
0000
,
2000
0000
0010
0000
,
3010
0000
0100
0000
,
0002
0000
1000
0000
,
1003
0000
0100
0000
,
0010
0010
0010
0010
,
0001
0001
1000
1000
,
1002
0000
0010
0000
,
0013
0000
0100
0100
,
2000
0000
0010
0000
,
3010
0000
0100
0100
,
0002
0000
1000
0000
,
1003
0000
0100
0000
,
0020
0000
0001
0000
,
0031
0000
1000
0001
,
1000
0020
0030
0200
,
0300
0020
0030
1000
,
0100
0020
0030
0200
,
0300
0020
0030
0001
,
1000
0002
0003
2000
,
3000
0002
0003
1000
,
0010
0200
0300
0020
,
0030
0200
0300
0001
,
1001
0000
0000
0000
;

//---------------dance-single - ----------------
#NOTES:
     dance-single:
     :
     Medium:
     8:
     0.320084,0.408637,0.329499,0.517784,0.000000,238.000000,203.000000,35.000000,55.000000,0.000000,0.000000,0.320084,0.408637,0.329499,0.517784,0.000000,238.000000,203.000000,35.000000,55.000000,0.000000,0.000000:
0000
0000
0000
0000
,
0000
0000
0000
0000
,
0000
0000
0000
0000
,
1000
0010
0100
0001
,
0200
0000
0310
2000
0000
3001
0020
0000
,
0031
0010
0100
1000
,
0200
0000
1300
2000
0000
0100
3200
0000
,
0320
0000
0031
2000
,
0010
0001
0100
3001
,
0100
0101
0001
0101
,
0200
0000
0301
0020
0000
0130
2000
0000
,
3100
1100
1000
1100
,
0200
0000
0310
0002
0000
1003
0020
0000
,
0130
1000
0100
0001
,
2000
0000
0100
3200
0000
0010
0320
0000
,
0032
0000
1000
1003
,
1000
0000
0010
0000
0100
0000
0001
1000
,
2001
0000
0000
3200
0000
0000
0310
0000
,
0001
1000
0001
0100
,
0020
0000
2030
0000
3200
0000
0310
0100
,
0000
0010
0001
1000
,
1002
0000
0000
0203
0000
0000
0310
0000
,
1000
0100
0001
0100
,
1000
1100
0001
0101
,
0010
0100
0001
1000
,
0220
0000
0000
0000
,
0000
0030
1000
0300
,
2002
0000
0000
0000
,
0000
0003
0010
3000
,
2020
0000
0000
0000
,
0000
3000
0100
0030
,
0202
0000
0000
0000
,
0000
0000
0003
0000
0001
0000
0300
0001
,
1002
1003
2001
3001
,
1002
1003
0100
0010
,
0011
0011
0100
1000
,
1010
1010
1000
0001
,
2002
3003
0202
0303
,
0022
0033
2200
3300
,
2002
3003
0220
0330
,
2002
0000
0000
3003
,
0010
1000
0010
0100
,
0001
0010
0001
0000
1000
0010
1000
0000
,
0100
1000
0100
0010
,
0001
0100
0001
0000
1000
0100
1000
0000
,
0100
0010
0001
0100
,
0001
0000
1000
0001
0100
0001
1000
0002
,
0000
0203
0000
0300
0010
0000
1000
0000
,
0001
0100
0001
0000
1000
0100
1000
0000
,
0100
1100
0001
0101
,
0100
0110
0010
1010
,
0101
0101
0010
1000
,
1100
1100
0010
0100
,
1000
0010
1000
0000
0001
0010
0001
0000
,
1000
0000
0010
0100
0001
0100
0010
0200
,
0000
0302
0000
0003
0010
0000
0100
0000
,
1000
0010
1000
0000
0001
0010
0001
0000
,
1001
0000
0100
0020
0000
0000
0000
0030
;

//---------------dance-single - ----------------
#NOTES:
     dance-single:
     :
     Hard:
     11:
     0.411537,0.518725,0.207113,0.508369,0.221235,306.000000,284.000000,22.000000,54.000000,0.000000,0.000000,0.411537,0.518725,0.207113,0.508369,0.221235,306.000000,284.000000,22.000000,54.000000,0.000000,0.000000:
0000
0000
0000
0000
,
0000
0000
0000
0000
,
0000
0000
0000
0000
,
2100
0000
0010
0000
0100
0000
3010
2000
,
0100
0000
0010
0000
0100
0000
3010
0200
,
1000
0000
0001
0000
1000
0000
0301
0200
,
1000
0000
0001
0000
1000
0000
0301
0100
,
0020
0000
1030
0100
0020
0000
0031
1000
,
2002
0000
0000
3003
,
0010
1010
0001
1001
,
0100
0000
1100
0001
0010
0001
1000
0001
,
0100
0101
1000
1001
,
0010
0000
0011
1000
0100
1000
0001
1000
,
0010
0000
1010
0000
0001
0100
0001
0010
,
0200
0000
1300
0002
0000
0103
0010
0100
,
0002
0000
1003
1001
,
0001
0100
0010
1000
0010
0100
0001
0010
,
0200
0000
0301
0200
0000
1300
0002
0000
,
0103
0001
1000
0010
0100
0001
2000
0000
,
3010
0000
0110
0000
0200
0000
0301
2000
,
0000
3100
0010
0001
1000
0000
0100
0000
,
0020
0000
1030
0020
0000
0031
2000
0000
,
3100
1000
0001
0010
0100
1000
0001
0000
,
0210
0301
1200
0310
,
0002
0000
1003
0100
0010
0100
1000
0001
,
2002
0000
0000
0000
,
0000
0003
0020
3000
,
0200
0000
0000
0000
,
0000
0030
2000
0300
,
0200
0000
0000
3000
,
0000
0000
0000
0001
0300
0000
0001
0000
0002
0000
0000
1000
0000
0000
1000
0000
,
2000
0000
0000
0000
,
0000
3003
0000
0210
0000
0000
0301
1000
,
1002
0000
0000
1000
0000
0000
1000
0000
0100
0000
0000
0100
0003
0000
0100
0000
,
0020
0000
0000
1000
0000
0000
1000
0000
0100
0000
0000
0100
0030
0000
0100
0000
,
0002
0000
0000
0010
0000
0000
0010
0000
1000
0000
0000
1000
0003
0000
1000
0000
,
2000
0000
0000
0010
0000
0000
0010
0000
0001
0000
0000
0001
3000
0000
0001
0000
,
0002
0000
0000
0100
0000
0000
0100
0000
1000
0000
0000
1000
0003
0000
1000
0000
,
0020
0000
0000
0001
0000
0000
0001
0000
0100
0000
0000
0100
0030
0000
1000
0000
,
2002
0000
0000
0000
,
0000
0000
0000
3003
,
0210
0000
0000
0010
0000
0000
0320
0000
1000
0000
0000
1000
0000
0000
2030
0000
,
0010
0000
0000
3010
0000
0000
1000
0000
0100
0000
0000
0010
0000
0000
0002
0000
,
0100
0000
0000
0100
0000
0000
0203
0000
0001
0000
0000
0001
0000
0000
0302
0000
,
0100
0000
0000
0103
0000
0000
0001
0000
0010
0000
0000
0100
0000
0000
2000
0000
,
0001
0000
0000
0001
0000
0000
3002
0000
1000
0000
0000
1000
0000
0000
1003
0000
,
0001
0000
0000
0100
0000
0000
0010
0000
0100
0000
0000
0001
0000
0000
0020
0000
,
0100
0000
0000
0100
0000
0000
0230
0000
0010
0000
0000
0010
0000
0000
0320
0000
,
0100
0000
0000
0130
0000
0000
1000
0000
1001
0000
0000
0000
0110
0000
0000
0000
,
1001
0000
0100
1000
0000
0000
0001
0000
1000
0000
0100
1000
0000
0000
0010
0000
,
0100
0000
0001
0100
0000
0000
0010
0000
0100
0000
0001
0100
0000
0010
1000
0000
,
0001
0000
0010
0100
0000
0000
0010
0000
0001
0000
0010
0100
0000
0000
1000
0000
,
0100
0000
0010
0100
0000
0000
1000
0000
0100
0000
0010
0100
0000
1000
0001
0000
,
1000
0000
0010
0100
0000
0000
0010
0000
1000
0000
0010
0100
0000
0000
0001
0000
,
0100
0000
0010
0100
0000
0000
0001
0000
0100
0000
0010
0100
0000
0001
1000
0000
,
0100
0000
0010
0001
0000
0000
0010
0000
0100
0000
0010
0001
0000
0000
1000
0000
,
0001
0000
0100
0010
0100
0000
0001
0000
2000
0000
0000
0000
3001
0000
0000
0000
,
1001
0000
0020
0200
0000
0000
0000
0000
,
0330
0000
0000
0000
;

//---------------dance-single - ----------------
#NOTES:
     dance-single:
     :
     Beginner:
     1:
     0.107591,0.160984,0.028243,0.000000,0.000000,80.000000,77.000000,3.000000,0.000000,0.000000,0.000000,0.107591,0.160984,0.028243,0.000000,0.000000,80.000000,77.000000,3.000000,0.000000,0.000000,0.000000:
0000
0000
0000
0000
,
0000
0000
0000
0000
,
0000
0000
0000
0000
,
1000
0000
0000
0000
,
1000
0000
0000
0000
,
0001
0000
0001
0000
,
1000
0000
1000
0000
,
0001
0000
0001
0000
,
1000
0000
0000
0000
,
0010
0000
0000
0000
,
0100
0000
0000
0000
,
0010
0000
0000
0000
,
0100
0000
0000
0000
,
0010
0000
0010
0000
,
0100
0000
0100
0000
,
0001
0000
0001
0000
,
1000
0000
1000
0000
,
1001
0000
0000
0000
,
0100
0000
0010
0000
,
0100
0000
0010
0000
,
0100
0000
0000
0000
,
1001
0000
0000
0000
,
0010
0000
0100
0000
,
0010
0000
0100
0000
,
0010
0000
0000
0000
,
0001
0000
0000
0000
,
0000
0000
0000
0000
,
1000
0000
0000
0000
,
0000
0000
0000
0000
,
0010
0000
0000
0000
,
0000
0000
0000
0000
,
0100
0000
0000
0000
,
0000
0000
0000
0000
,
0000
0001
0000
0001
,
0000
0001
0000
0000
,
0000
1000
0000
1000
,
0000
1000
0000
0000
,
0100
0000
0000
0000
,
0010
0000
0000
0000
,
0001
0000
1000
0000
,
0001
0000
0000
0000
,
1000
0000
1000
0000
,
0010
0000
0100
0000
,
0001
0000
0001
0000
,
0010
0000
0100
0000
,
1000
0000
1000
0000
,
0100
0000
0010
0000
,
0001
0000
0001
0000
,
0100
0000
0010
0000
,
1000
0000
0000
0000
,
1000
0000
0100
0000
,
0010
0000
0000
0000
,
0001
0000
0100
0000
,
0010
0000
0000
0000
,
1000
0000
0001
0000
,
1000
0000
0000
0000
,
0001
0000
1000
0000
,
1001
0000
0000
0000
;

//---------------dance-double - ----------------
#NOTES:
     dance-double:
     :
     Easy:
     2:
     0.158697,0.268306,0.047071,0.273013,0.000000,118.000000,113.000000,5.000000,29.000000,0.000000,0.000000,0.158697,0.268306,0.047071,0.273013,0.000000,118.000000,113.000000,5.000000,29.000000,0.000000,0.000000:
00000000
00000000
00000000
00000000
,
00000000
00000000
00000000
00000000
,
00000000
00000000
00000000
00000000
,
00000001
00000000
00000001
00000000
,
00000001
00000000
00000100
00000000
,
00001000
00000000
00001000
00000000
,
00001000
00000000
00010000
00000000
,
01000000
00000000
01000000
00000000
,
01000000
00000000
00000000
00000000
,
10000000
00000000
00010000
00000000
,
01000000
00100000
01000000
00000000
,
00010000
00000000
00100000
00000000
,
00001000
00010000
00001000
00000000
,
00010000
00000000
00000100
00001000
,
00000002
00000003
00002000
00003000
,
00000002
00000003
00000200
00000300
,
00002000
00003000
00020000
00030000
,
00011000
00000000
00000000
00000000
,
00100000
00000000
10000000
00000000
,
00010000
00010000
10000000
10000000
,
01000000
00000000
00100000
00000000
,
01100000
00000000
00000000
00000000
,
00010000
00000000
00100000
00000000
,
00001000
00001000
00010000
00010000
,
00000100
00000000
00001000
00000000
,
00000002
00000000
00000000
00000000
,
00000000
00000000
00000000
00000003
,
00002000
00000000
00000000
00000000
,
00000000
00000000
00000000
00003000
,
00000200
00000000
00000000
00000000
,
00000000
00000000
00000000
00000300
,
00020000
00000000
00000000
00000000
,
00000000
00000000
00000000
00030000
,
00012000
00000000
00010000
00000000
,
00013000
00000000
01000000
00000000
,
20000000
00000000
00010000
00000000
,
30010000
00000000
01000000
00000000
,
00200000
00000000
01000000
00000000
,
01300000
00000000
00010000
00000000
,
10000000
10000000
10000000
10000000
,
01000000
01000000
00010000
00010000
,
00021000
00000000
00001000
00000000
,
00031000
00000000
00001000
00001000
,
00000200
00000000
00000001
00000000
,
00000301
00000000
00000100
00000100
,
00002000
00000000
00010000
00000000
,
00013000
00000000
01000000
01000000
,
20000000
00000000
00010000
00000000
,
30010000
00000000
01000000
00100000
,
01000000
00200000
00300000
02000000
,
03000000
00200000
00300000
00010000
,
00001000
00020000
00030000
00002000
,
00003000
00020000
00030000
00001000
,
00000100
00000020
00000030
00000200
,
00000300
00000020
00000030
00000100
,
00001000
00020000
00030000
00002000
,
00003000
00020000
00030000
00001000
,
00011000
00000000
00000000
00000000
;

//---------------dance-double - ----------------
#NOTES:
     dance-double:
     :
     Medium:
     5:
     0.274358,0.382218,0.197699,0.225942,0.000000,204.000000,183.000000,21.000000,24.000000,0.000000,0.000000,0.274358,0.382218,0.197699,0.225942,0.000000,204.000000,183.000000,21.000000,24.000000,0.000000,0.000000:
00000000
00000000
00000000
00000000
,
00000000
00000000
00000000
00000000
,
00000000
00000000
00000000
00000000
,
10000000
01000000
00010000
00001000
,
00000200
00000000
00000000
00000302
00000000
00000000
00000103
00000000
,
00001000
00010000
01000000
10000000
,
02000000
00000000
00000000
03200000
00000000
00000000
00310000
00000000
,
02000000
00000000
03100000
00020000
,
00000000
00001000
00001000
00031000
,
00010000
00010100
00000100
00010100
,
00020000
00000000
00000000
00032000
00000000
00000000
00013000
00000000
,
00001000
01001000
01000000
01001000
,
00002000
00000000
00000000
00023000
00000000
00000000
00031000
00000000
,
00000100
00000010
00000100
00000001
,
00000020
00000000
00000000
00000230
00000000
00000000
00001300
00000000
,
00000002
00000000
00000100
00000103
,
00001000
00000001
00000010
00001000
,
00012000
00000000
00000000
00023000
00000000
00000000
00031000
00000000
,
00010000
00100000
00010000
00001000
,
00000100
00000000
00001000
00000000
00010000
00000000
01000000
10000000
,
00000000
00100000
01000000
00001000
,
00021000
00000000
00000000
00032000
00000000
00000000
00013000
00000000
,
00001000
00000010
00001000
00010000
,
01000000
00010000
00001000
00000010
,
00000001
00001000
00000001
00001000
,
00000020
00000000
00000000
00000000
,
00000000
00000000
00000100
00000030
,
00000200
00000000
00000000
00000000
,
00000000
00000000
00001000
00000300
,
00002000
00000000
00000000
00000000
,
00000000
00000000
00010000
00003000
,
00020000
00000000
00000000
00000000
,
00000000
00000000
00000000
00000000
00001000
00000000
00030000
00001000
,
00010000
00001000
00100000
00010000
,
10000000
00100000
10000000
01000000
,
11000000
11000000
10000000
00010000
,
00110000
00110000
00100000
00001000
,
00011000
00000000
00001100
00000000
,
00000101
00000000
00000011
00000000
,
00000110
00000000
00001100
00000000
,
00022000
00000000
00000000
00033000
,
00001000
00010000
00001000
00010000
,
01000000
01000000
00100000
00100000
,
00010000
10000000
00010000
10000000
,
00100000
00100000
01000000
01000000
,
00001000
00010000
00001000
00010000
,
00001000
00000000
00000100
00000010
00000100
00000001
00000100
00000010
,
00000000
00001000
00000000
00000000
00000100
00000000
00001000
00000000
,
00000010
00000000
00000100
00000000
00001000
00000000
00010000
00001000
,
00010000
00001000
00010000
00001000
,
00100000
00100000
01000000
01000000
,
11000000
10100000
00100000
01000000
,
01010000
00110000
00010000
01000000
,
00001000
00010000
00001000
00010000
,
00001000
00000000
00000100
00000010
00001000
00000010
00000100
00000010
,
00000000
00001000
00000000
00000000
00000010
00000000
00001000
00000000
,
00000100
00000000
00010000
00000000
00001000
00000000
00010000
00001000
,
00010000
00000000
00100000
02000000
00000000
00000000
00000000
00000000
,
03000000
00000000
00000000
00000000
;

//---------------dance-double - ----------------
#NOTES:
     dance-double:
     :
     Hard:
     8:
     0.404813,0.464122,0.254185,0.338913,0.075314,301.000000,274.000000,27.000000,36.000000,0.000000,0.000000,0.404813,0.464122,0.254185,0.338913,0.075314,301.000000,274.000000,27.000000,36.000000,0.000000,0.000000:
00000000
00000000
00000000
00000000
,
00000000
00000000
00000000
00000000
,
00000000
00000000
00000000
00000000
,
00000100
00001000
00011000
00101000
,
00110000
00000000
00010000
20000000
00000000
30010000
02000000
00000000
,
03100000
00010000
00011000
00010100
,
00001100
00000000
00001000
00000002
00000000
00001003
00000020
00000000
,
00000130
00000000
00001000
00010000
00000000
01000000
10000000
00000000
,
20020000
00000000
00000000
30030000
,
00010000
01000000
10100000
01010000
,
00110000
00000000
00010000
01000000
00001000
00000000
00010000
00000100
,
00001000
00000001
00001000
00000011
,
00001100
00000000
00001000
00000100
00010000
00000000
00001000
01000000
,
00010000
00100000
01100000
11000000
,
01010000
00000000
00100000
20000000
00000000
00000000
30010000
00100000
,
00002000
00013000
00011000
00010100
,
00010000
00000010
00001000
00000001
00001000
00000100
00010000
00001000
,
00021000
00000000
00000000
02030000
00000000
00000000
13000000
00100000
,
01000000
00000000
00010000
01000000
00100000
00000000
10000000
00010000
,
00110000
00000000
00011000
00000000
00001100
00000000
00000100
00000020
,
00000000
00000000
00000031
00001000
00000100
00000000
00010000
00001000
,
00021000
00000000
00000000
00230000
00000000
00000000
10300000
01000000
,
00100000
00000000
00010000
00100000
01000000
00000000
10000000
00010000
,
01010000
00011000
00001010
00000101
,
00001001
00000000
00000010
00000001
00000100
00000000
00000010
00001000
,
00000200
00000000
00000000
00000000
,
00000000
00000000
00000302
00000000
,
00000200
00000000
00000000
00000000
,
00000003
00000000
00020300
00000000
,
00002000
00000000
00000000
00000000
,
00030000
00000000
02003000
00000000
,
20000000
00000000
00000000
30000000
,
13000000
00000000
01000000
00000000
00010000
00000000
00100000
01000000
,
20000000
00010000
00000000
00010000
00000000
00010000
30000000
00010000
,
20000000
01000000
00000000
31000000
00200000
00010000
00000000
00310000
,
02000000
00001000
00000000
03001000
00020000
00000010
00000000
00030010
,
00002000
00000100
00000000
00003100
00000020
00000001
00000000
00000031
,
00001000
00000001
00000100
00000010
00000100
00000010
00010000
00001000
,
00010000
00001000
00100000
01000000
00100000
01000000
10000000
00010000
,
10000000
00010000
01000000
00001000
01000000
00001000
00010000
00002000
,
00020000
00000000
00000000
00000000
00000000
00033000
00000000
00000000
,
00010000
00000000
00000000
00001000
00000000
00000000
00000100
00000000
00000010
00000000
00000000
00000100
00000000
00000000
00001000
00000000
,
00010000
00000000
00000000
01000000
00000000
00000000
00100000
00000000
01000000
00000000
00000000
00010000
00000000
00000000
00001000
00000000
,
00010000
00000000
00000000
00000010
00000000
00000000
00000100
00000000
00000001
00000000
00000000
00000100
00000000
00000000
00000010
00000000
,
00010000
00000000
00000000
00001000
00000000
00000000
00100000
00000000
01000000
00000000
00000000
10000000
00000000
00000000
01000000
00000000
,
00100000
00000000
00000000
00001000
00000000
00000000
00010000
00000000
00000100
00000000
00000000
00000010
00000000
00000000
00000100
00000000
,
00010000
00000000
00000000
00001000
00000000
00000000
01000000
00000000
00100000
00000000
00000000
01000000
00000000
00000000
00001000
00000000
,
00010000
00000000
00000000
00000010
00000000
00000000
00001000
00000000
00000001
00000000
00000000
00001000
00000000
00000000
00000100
00000000
,
00010000
00000000
00000000
00001000
00000000
00000000
00100000
00000000
00010000
00000000
00000000
10000000
00000000
00000000
00010000
00000000
,
01000000
00100000
01000000
00010000
10000000
01000000
00100000
01000000
,
10000000
00010000
01000000
00001000
00010000
00000200
00000000
00000310
,
00000001
00000100
00000001
00000200
00000000
00001300
00010000
01000000
,
10000000
00100000
10000000
00200000
00000000
01300000
00010000
00100000
,
01000000
10000000
00100000
01000000
00010000
01000000
00001000
00010000
,
00001000
00000000
00000100
00000001
00000010
00000100
00001000
00000002
,
00000000
00002003
00000000
00003001
00000100
00000010
00001000
00000100
,
00010000
00001000
00100000
00010000
01000000
00100000
10000000
00010000
,
00200000
00000000
01000000
02000000
00000000
00000000
00000000
00000000
,
03300000
00000000
00000000
00000000
;

//---------------dance-single - ----------------
#NOTES:
     dance-single:
     :
     Challenge:
     14:
     0.567545,0.900943,0.028243,0.706068,0.494248,422.000000,419.000000,3.000000,75.000000,0.000000,0.000000,0.567545,0.900943,0.028243,0.706068,0.494248,422.000000,419.000000,3.000000,75.000000,0.000000,0.000000:
// measure 0
0000
0000
0000
0000
,  // measure 1
0000
0000
0000
0000
,  // measure 2
0000
0000
0000
0000
,  // measure 3
0002
0000
0203
0000
2300
0000
3010
0100
,  // measure 4
0002
0000
0023
0000
2030
0000
3001
0010
,  // measure 5
2000
0000
3200
0000
0302
0000
0013
1000
,  // measure 6
0200
0000
2300
0000
3020
0000
0031
0100
,  // measure 7
2000
3200
0320
0031
,  // measure 8
0100
0010
1000
0100
1000
0001
1001
0000
,  // measure 9
0020
2030
3200
0302
,  // measure 10
1003
0010
0001
0100
1000
0010
0001
0000
,  // measure 11
2000
3200
0302
0023
,  // measure 12
1030
0010
0001
0100
1000
0010
0001
0000
,  // measure 13
0200
0302
0023
2030
,  // measure 14
3100
0001
1000
0100
0001
1000
0100
0001
,  // measure 15
0200
1000
0001
0010
,  // measure 16
0302
0000
1000
0000
0010
0010
0013
0000
,  // measure 17
0001
0000
0100
0000
0010
0000
1000
0000
0100
0000
0001
0000
1000
0100
0010
0000
,  // measure 18
0001
0000
0100
0000
1000
0000
0010
0000
0001
0000
1000
0010
0100
0000
0001
0000
,  // measure 19
0020
0000
2030
0000
3200
0000
0301
1000
,  // measure 20
0002
0000
0100
0000
1000
1000
1003
0000
,  // measure 21
0010
0000
0001
0000
0100
0000
0010
0000
1000
0000
0100
0000
0010
0001
0010
0000
,  // measure 22
0001
0000
0100
0000
0010
0000
1000
0000
0001
0000
0100
0010
0100
0000
1000
0000
,  // measure 23
0002
0000
0203
0000
2300
0000
3020
0001
,  // measure 24
0032
0000
1003
0000
0001
1000
1001
0000
,  // measure 25
2200
0000
0000
0000
,  // measure 26
0300
0000
3020
0000
,  // measure 27
0200
0000
0000
0000
,  // measure 28
0300
0000
0032
0000
,  // measure 29
2000
0000
0000
0003
,  // measure 30
0000
0000
0000
0100
0000
0000
3100
0000
0010
0000
0000
0100
0000
0000
0002
0000
,  // measure 31
0200
0000
0000
0000
,  // measure 32
0303
0000
0000
0020
0000
1030
0001
0100
,  // measure 33
0010
0000
0001
0100
0000
0010
1000
0000
0001
0000
0100
1000
0001
0100
0010
0000
,  // measure 34
0001
0000
1000
0100
0000
0010
0001
0000
0100
0010
1000
0100
0010
0000
0001
0000
,  // measure 35
1000
0000
0001
0100
0000
0010
1000
0000
0001
0000
0100
0010
1000
0001
0100
0000
,  // measure 36
0010
0000
1000
0010
0000
0100
0001
0000
0010
0000
0001
0100
1000
0001
0100
0000
,  // measure 37
1000
0000
0100
1000
0000
0010
1000
0000
0100
0000
0010
0001
0000
0100
0001
0000
,  // measure 38
1000
0000
0100
1000
0000
0001
0100
0000
0010
0000
0001
1000
0000
0010
1000
0000
,  // measure 39
0001
0010
0100
1000
0001
0010
0100
1000
0001
0100
0010
1000
0001
0100
0010
1000
,  // measure 40
0001
0010
0100
1000
0100
0010
0001
1000
0010
0100
0001
1000
0100
0010
0001
0010
,  // measure 41
0100
0000
1000
0200
0000
1300
0100
0000
1000
0000
0100
2000
0000
3100
1000
0000
,  // measure 42
0100
0000
0001
0200
0000
0301
0100
0000
0001
0000
0100
0002
0000
0103
0001
0000
,  // measure 43
0010
0000
0001
0020
0000
0031
0010
0000
0100
0000
0010
0002
0000
0013
0001
0000
,  // measure 44
1000
0000
0010
2000
0000
3010
1000
0000
0100
0000
1000
0020
0000
1030
0010
0000
,  // measure 45
0100
0000
0010
0200
0000
0310
0100
0000
0001
0000
0100
0020
0000
0130
0010
0000
,  // measure 46
1000
0000
0001
2000
0000
3001
1000
0000
0100
0000
1000
0002
0000
1003
0001
0000
,  // measure 47
0100
0010
0001
1000
0010
0100
0001
1000
,  // measure 48
0100
0000
0010
0000
0001
0000
1000
0010
0100
0001
0010
0000
0100
0000
1000
0000
,  // measure 49
0001
0010
0100
1000
0002
0000
1003
0000
1000
0100
0010
0001
2000
0000
3001
0000
,  // measure 50
1000
0010
0100
0001
0200
0000
0310
0000
0001
0010
0100
1000
0020
0000
0130
0000
,  // measure 51
1000
0010
0100
0001
2000
0000
3100
0000
0010
0001
0100
0010
0200
0000
1300
0000
,  // measure 52
0010
0001
0100
0010
2000
0000
3010
0000
0100
0010
1000
0001
0020
0000
1030
0000
,  // measure 53
0001
0100
0010
1000
0002
0000
0013
0000
0100
1000
0100
0001
0020
0000
0031
0000
,  // measure 54
0100
0010
1000
0001
0200
0000
0310
0000
0010
0100
0001
1000
0020
0000
0130
0000
,  // measure 55
1000
0001
0010
0100
2000
0000
3001
0000
0001
1000
0010
0100
0002
0000
1003
0000
,  // measure 56
0001
0100
0010
1000
0100
0000
0010
0001
0100
0010
1000
0000
0100
0010
0100
0000
,  // measure 57
0002
0000
0100
0200
0000
0000
0000
0000
,  // measure 58
0303
0000
0000
0000
;
