#VERSION:0.83;
#TITLE:Shine;
#SUBTITLE:;
#ARTIST:TOMOSUKE feat. Adreana;
#TITLETRANSLIT:;
#SUBTITLETRANSLIT:;
#ARTISTTRANSLIT:;
#GENRE:;
#ORIGIN:;
#CREDIT:;
#BANNER:Shine.png;
#BACKGROUND:Shine-bg.png;
#PREVIEWVID:;
#JACKET:Shine-jacket.png;
#CDIMAGE:;
#DISCIMAGE:;
#LYRICSPATH:;
#CDTITLE:;
#MUSIC:Shine.ogg;
#OFFSET:0.000000;
#SAMPLESTART:71.050003;
#SAMPLELENGTH:15.000000;
#SELECTABLE:YES;
#DISPLAYBPM:125.000000;
#BPMS:0.000=124.700,
4.000=125.000;
#STOPS:;
#DELAYS:;
#WARPS:;
#TIMESIGNATURES:0.000=4=4;
#TICKCOUNTS:0.000=4;
#COMBOS:0.000=1;
#SPEEDS:0.000=1.000=0.000=0;
#SCROLLS:0.000=1.000;
#FAKES:;
#LABELS:0.000=Song Start;
#BGCHANGES:;
#KEYSOUNDS:;
#ATTACKS:
;

//---------------dance-single - ----------------
#NOTEDATA:;
#CHARTNAME:;
#STEPSTYPE:dance-single;
#DESCRIPTION:;
#CHARTSTYLE:;
#DIFFICULTY:Beginner;
#METER:2;
#RADARVALUES:0.077317,0.137858,0.000000,0.000000,0.000000,53.000000,53.000000,0.000000,0.000000,0.000000,0.000000,0.000000,0.000000,0.000000,0.077317,0.137858,0.000000,0.000000,0.000000,53.000000,53.000000,0.000000,0.000000,0.000000,0.000000,0.000000,0.000000,0.000000;
#CREDIT:;
#DISPLAYBPM:125.000000;
#NOTES:
0000
0000
0000
0000
,
0000
0000
0000
0000
,
0000
0000
0000
0000
,
0000
0000
0000
0000
,
0000
0000
0000
0000
,
1000
0000
0000
0000
,
0000
0000
0000
0000
,
0001
0000
0000
0000
,
0000
0000
0000
0000
,
1000
0000
0000
0000
,
1000
0000
0000
0000
,
0001
0000
0000
0000
,
0001
0000
0000
0000
,
1000
0000
1000
0000
,
1000
0000
1000
0000
,
0010
0000
0000
0000
,
0010
0000
0000
0000
,
0001
0000
0001
0000
,
0001
0000
0001
0000
,
0010
0000
0000
0000
,
0010
0000
0000
0000
,
0001
0001
0000
0000
,
0100
0000
0000
0000
,
1000
1000
0000
0000
,
1000
0000
0000
0000
,
0001
0001
0000
0000
,
0100
0000
0000
0000
,
0001
0001
0000
0000
,
0001
0000
0000
0000
,
0100
0000
0000
0000
,
0000
0000
0000
0000
,
0100
0000
0000
0000
,
0001
0000
0000
0000
,
0100
0000
0000
0000
,
0000
0000
0000
0000
,
0100
0000
0000
0000
,
1000
0000
0000
0000
,
0001
0000
0001
0000
,
1000
0000
0000
0000
,
1000
0000
1000
0000
,
0001
0000
0000
0000
,
0001
0000
0001
0000
,
1000
1000
1000
0000
,
1000
0000
1000
0000
,
0001
0001
0001
0000
,
0010
0000
0000
0000
,
0000
0000
0000
0000
;

//---------------dance-single - ----------------
#NOTEDATA:;
#CHARTNAME:;
#STEPSTYPE:dance-single;
#DESCRIPTION:;
#CHARTSTYLE:;
#DIFFICULTY:Easy;
#METER:4;
#RADARVALUES:0.141505,0.167982,0.000000,0.091905,0.000000,97.000000,97.000000,0.000000,9.000000,0.000000,0.000000,0.000000,0.000000,0.000000,0.141505,0.167982,0.000000,0.091905,0.000000,97.000000,97.000000,0.000000,9.000000,0.000000,0.000000,0.000000,0.000000,0.000000;
#CREDIT:;
#DISPLAYBPM:125.000000;
#NOTES:
0000
0000
0000
0000
,
0000
0000
0000
0000
,
0000
0000
0000
0000
,
0000
0000
0000
0000
,
0000
0000
0000
0000
,
1000
0000
1000
0000
,
0001
0000
0001
0000
,
1000
0000
1000
0000
,
0001
0000
0000
0000
,
1000
1000
0001
0000
,
1000
1000
0001
0000
,
0010
0000
0010
0000
,
0010
0000
0010
0000
,
0001
0000
0100
0000
,
0001
0000
0100
0000
,
1000
0000
0001
0000
,
1000
0000
0001
0000
,
0001
0000
0100
0000
,
0001
0000
0100
0000
,
1000
0000
0001
0000
,
1000
0000
0001
0000
,
1000
1000
1000
0000
,
0010
0001
0010
0000
,
1000
1000
1000
0000
,
0001
0010
0100
0000
,
0001
0001
0001
0000
,
0010
1000
0010
0000
,
0001
0001
0001
0000
,
1000
0010
0100
0000
,
0002
0000
1000
0000
,
1000
0000
1003
0000
,
2000
0000
0001
0000
,
0001
0000
3001
0000
,
0002
0000
1000
0000
,
1000
0000
1003
0000
,
2000
0000
0001
0000
,
0001
0000
3001
0000
,
0002
0000
0103
0000
,
1000
1000
0100
0100
,
0002
0000
0103
0000
,
1000
1000
0100
0100
,
2000
0000
3100
0000
,
0001
0001
0100
0000
,
2000
0000
3100
0000
,
0001
0001
0100
0100
,
0200
0000
0000
0000
,
0000
0000
0000
0000
,
0300
0000
0000
0000
,
0000
0000
0000
0000
;

//---------------dance-single - ----------------
#NOTEDATA:;
#CHARTNAME:;
#STEPSTYPE:dance-single;
#DESCRIPTION:;
#CHARTSTYLE:;
#DIFFICULTY:Medium;
#METER:6;
#RADARVALUES:0.240704,0.311967,0.081694,0.132752,0.035741,165.000000,157.000000,8.000000,13.000000,0.000000,0.000000,0.000000,0.000000,0.000000,0.240704,0.311967,0.081694,0.132752,0.035741,165.000000,157.000000,8.000000,13.000000,0.000000,0.000000,0.000000,0.000000,0.000000;
#CREDIT:;
#DISPLAYBPM:125.000000;
#NOTES:
0000
0000
0000
0000
,
0000
0000
0000
0000
,
0000
0000
0000
0000
,
0000
0000
0000
0000
,
0000
0000
0000
0000
,
0001
0000
0000
0010
0000
0000
0000
0000
0001
0000
0000
0001
0000
0000
0000
0000
,
1000
0000
0000
1000
0000
0000
0000
0000
0010
0000
0000
0100
0000
0000
0000
0000
,
1000
0000
0000
0010
0000
0000
0000
0000
1000
0000
0000
1000
0000
0000
0000
0000
,
0100
0000
0000
0100
0000
0000
0000
0000
0001
0000
0000
0000
0100
0000
0000
0000
,
0001
0010
0100
0010
,
0001
0000
1000
0000
0010
0000
0100
0001
,
1000
0010
0100
0010
,
1000
0000
0001
0000
0010
0000
0100
1000
,
0001
0001
0100
0100
,
0001
0001
0100
0100
,
0010
1000
0100
1000
,
0010
1000
0100
1000
,
1000
1000
0100
0100
,
1000
1000
0100
0100
,
0010
0001
0100
0001
,
0010
0001
0100
0001
,
0100
0001
1100
0000
,
0010
0010
1000
0100
,
0100
1000
0101
0000
,
0010
0010
0001
0100
,
0100
0001
1100
0000
,
0010
0010
1000
0100
,
0100
1000
0101
0000
,
0010
0010
0001
0100
,
0002
0000
0203
0000
,
0310
1000
0001
0001
,
2000
0000
3200
0000
,
0310
0001
1000
1000
,
0002
0000
0203
0000
,
0310
1000
0001
0001
,
2000
0000
3200
0000
,
0310
0001
1000
1000
,
0002
0010
1003
1100
,
0001
0000
1000
0000
0010
0010
0100
0000
,
0002
0010
1003
1100
,
0001
0000
1000
0000
0010
0010
0100
0010
,
2000
0010
3001
0101
,
1000
0000
0001
0000
0010
0010
0100
0000
,
2000
0010
3001
0101
,
1000
0000
0001
0000
0010
0010
0100
0010
,
0002
0000
0000
0000
,
0000
0000
0000
0000
,
0003
0000
0000
0000
,
0000
0000
0000
0000
;

//---------------dance-single - ----------------
#NOTEDATA:;
#CHARTNAME:;
#STEPSTYPE:dance-single;
#DESCRIPTION:;
#CHARTSTYLE:;
#DIFFICULTY:Hard;
#METER:9;
#RADARVALUES:0.320939,0.383959,0.122540,0.214445,0.076588,220.000000,208.000000,12.000000,21.000000,0.000000,0.000000,0.000000,0.000000,0.000000,0.320939,0.383959,0.122540,0.214445,0.076588,220.000000,208.000000,12.000000,21.000000,0.000000,0.000000,0.000000,0.000000,0.000000;
#CREDIT:;
#DISPLAYBPM:125.000000;
#NOTES:
0000
0000
0000
0000
,
0000
0000
0000
0000
,
0000
0000
0000
0000
,
0000
0000
0000
0000
,
0000
0000
0000
0000
,
0100
0000
0000
0101
0000
0000
0000
0000
1000
0000
0000
1010
0000
0000
0000
0000
,
0100
0000
0000
0101
0000
0000
0000
0000
1000
0000
0000
1100
0000
0000
0001
0000
,
0100
0000
0000
1100
0000
0000
0000
0000
0001
0000
0000
0011
0000
0000
0000
0000
,
0100
0000
0000
0110
0000
0000
0000
0000
0001
0000
0000
0000
1100
0000
0000
0000
,
0010
0000
1000
0000
0100
0000
1000
0100
,
0010
0000
0001
0000
0100
0000
0001
0100
,
1000
0000
0010
0000
1000
0000
0010
0100
,
0001
0000
0010
0000
0001
0000
0010
0100
,
1000
0010
0100
0001
,
1000
0010
0100
0001
,
0010
0000
1000
0000
0010
0001
0100
0000
,
0010
0000
0001
0000
0010
1000
0100
0000
,
0001
0010
0100
1000
,
0001
0010
0100
1000
,
0010
0001
1000
0000
0010
0001
0100
0000
,
0010
1000
0001
0000
0010
1000
0100
0000
,
0001
0000
0101
0000
1000
0001
1000
0100
,
0001
0000
0100
0000
1000
0001
0100
0000
,
0001
0000
0101
0000
1000
0001
1000
0100
,
0010
0001
0010
0001
1000
0100
0010
0000
,
1000
0000
1100
0000
0001
1000
0001
0100
,
1000
0000
0100
0000
0001
1000
0100
0000
,
1000
0000
1100
0000
0001
1000
0001
0100
,
0010
1000
0010
1000
0001
0100
0010
0000
,
2000
0000
0000
0100
0000
0000
3200
0000
0000
0000
0000
0000
0310
0000
0000
0000
,
0002
0013
2000
3100
,
0002
0000
0000
0100
0000
0000
0203
0000
0000
0000
0000
0000
0310
0000
0000
0000
,
2000
3010
0002
0103
,
0002
0000
0000
0010
0000
0000
0023
0000
0000
0000
0000
0000
0130
0000
0000
0000
,
2000
3100
0002
0013
,
2000
0000
0000
0010
0000
0000
3020
0000
0000
0000
0000
0000
0130
0000
0000
0000
,
0002
0103
2000
3010
,
1000
0000
0000
1000
0000
0000
2000
0000
0000
0000
0010
0000
3000
0000
0100
0000
,
0001
0010
0100
1000
0010
0010
0100
0010
,
1000
0000
0000
1000
0000
0000
2000
0000
0000
0000
0010
0000
3000
0000
0100
0000
,
0001
0010
0100
1000
0010
1000
0100
0010
,
0001
0000
0000
0001
0000
0000
0002
0000
0000
0000
0010
0000
0003
0000
0100
0000
,
1000
0010
0100
0001
0010
0010
0100
0010
,
0001
0000
0000
0001
0000
0000
0002
0000
0000
0000
0010
0000
0003
0000
0100
0000
,
1000
0010
0100
0001
0010
0001
0100
0010
,
2000
0000
0000
0000
,
0000
0000
0000
0000
,
3000
0000
0000
0000
,
0000
0000
0000
0000
;

//---------------dance-single - ----------------
#NOTEDATA:;
#CHARTNAME:;
#STEPSTYPE:dance-single;
#DESCRIPTION:;
#CHARTSTYLE:;
#DIFFICULTY:Challenge;
#METER:12;
#RADARVALUES:0.399715,0.527944,0.153175,0.234869,0.316562,274.000000,259.000000,15.000000,23.000000,0.000000,0.000000,0.000000,0.000000,0.000000,0.399715,0.527944,0.153175,0.234869,0.316562,274.000000,259.000000,15.000000,23.000000,0.000000,0.000000,0.000000,0.000000,0.000000;
#CREDIT:;
#DISPLAYBPM:125.000000;
#NOTES:
0000
0000
0000
0000
,
0000
0000
0000
0000
,
0000
0000
0000
0000
,
0000
0000
0000
0000
,
0000
0000
0000
0000
,
0010
0000
0000
0101
0000
0000
0000
0000
0001
0000
0000
1010
0000
0000
0000
0000
,
0010
0000
0000
0101
0000
0000
0000
0000
1000
0000
0000
1100
0000
0000
0001
0000
,
0010
0000
0000
1100
0000
0000
0000
0000
1000
0000
0000
0011
0000
0000
0000
0000
,
1000
0000
0000
0110
0000
0000
0000
0000
0001
0000
0000
0000
1000
0000
0010
0000
,
0100
0000
0000
0001
1000
0000
0010
0000
0100
0000
0100
0000
0001
0000
0010
0000
,
0100
0000
0000
1000
0001
0000
0010
0000
0100
0000
0100
0000
1000
0000
0010
0000
,
0100
0000
0000
0100
0010
0000
0001
0000
0010
0000
1000
0000
0100
0000
0000
0000
,
0100
0000
0000
0100
0010
0000
1000
0000
0010
0000
0001
0000
0100
0000
0000
0000
,
0001
0010
0100
1000
,
0001
0010
0100
1000
,
0020
0000
0000
0130
1000
0000
0100
0000
0010
0002
0010
0000
0103
0000
0000
0000
,
0020
0000
0000
0130
0001
0000
0100
0000
0010
2000
0010
0000
3100
0000
0000
0000
,
1000
0010
0100
0001
,
1000
0010
0100
0001
,
0020
0000
0000
0130
0001
0000
0100
0000
0010
2000
0100
0000
3100
0000
0000
0000
,
0020
0000
0000
0130
1000
0000
0100
0000
0010
0002
0100
0000
0103
0000
0000
0000
,
0010
0101
0020
1000
,
0230
0000
0301
0010
1000
0001
0100
1000
,
0010
0101
0020
1000
,
0130
0000
0001
1000
0000
0100
0000
0100
0010
0000
1000
0000
0010
0000
0100
0000
,
0010
1100
0020
0001
,
0230
0000
1300
0010
0001
1000
0100
0001
,
0010
1100
0020
0001
,
0130
0000
1000
0001
0000
0100
0000
0100
0010
0000
0001
0000
0010
0000
0100
0000
,
0001
0000
0000
0100
0000
0000
0200
0000
0000
0000
0000
0010
0000
0000
0310
0000
,
1000
0100
0000
0020
0000
0000
0100
0000
0000
0000
0000
0001
0030
0000
0001
0000
,
1000
0000
0000
0100
0000
0000
0200
0000
0000
0000
0000
0010
0000
0000
0310
0000
,
0001
0100
0000
0020
0000
0000
0100
0000
0000
0000
0000
1000
0030
0000
1000
0000
,
0001
0000
0000
0001
0000
0000
0200
0000
0000
0000
0000
0010
0000
0000
0310
0000
,
1000
0100
0000
0020
0000
0000
0001
0000
0000
0000
0000
0001
0030
0000
0001
0000
,
1000
0000
0000
0100
0000
0000
0200
0000
0000
0000
0000
0010
0000
0000
0310
0000
,
0001
0100
0000
0020
0000
0000
0100
0000
0000
0000
0000
1000
0030
0000
1000
0000
,
0001
0000
0000
0110
0000
0000
1000
0000
0100
0000
0010
0000
0001
0100
0000
1000
,
0001
0000
0010
0000
0100
0000
1000
0001
0010
0000
0010
0000
0100
0000
0010
0000
,
1000
0000
0000
0110
0000
0000
0001
0000
0100
0000
0010
0000
1000
0100
0000
0001
,
1000
0000
0010
0000
0100
0000
0001
1000
0010
0000
0010
0000
0100
0000
0010
0000
,
0001
0000
0000
0110
0000
0000
1000
0000
0100
0000
0010
0000
0001
0100
0010
1000
,
0001
0000
0010
0000
0100
0000
1000
0001
0010
0000
0010
0000
0100
1000
0010
0000
,
1000
0000
0000
0110
0000
0000
0001
0000
0100
0000
0010
0000
1000
0100
0000
0001
,
1000
0000
0010
0000
0100
0000
0001
1000
0010
0000
0010
0000
0100
0000
0010
0000
,
0002
0000
0000
0000
,
0000
0000
0000
0000
,
0003
0000
0000
0000
,
0000
0000
0000
0000
;

//---------------dance-double - ----------------
#NOTEDATA:;
#CHARTNAME:;
#STEPSTYPE:dance-double;
#DESCRIPTION:;
#CHARTSTYLE:;
#DIFFICULTY:Easy;
#METER:4;
#RADARVALUES:0.144422,0.167982,0.000000,0.163387,0.000000,99.000000,99.000000,0.000000,16.000000,0.000000,0.000000,0.000000,0.000000,0.000000,0.144422,0.167982,0.000000,0.163387,0.000000,99.000000,99.000000,0.000000,16.000000,0.000000,0.000000,0.000000,0.000000,0.000000;
#CREDIT:;
#DISPLAYBPM:125.000000;
#NOTES:
00000000
00000000
00000000
00000000
,
00000000
00000000
00000000
00000000
,
00000000
00000000
00000000
00000000
,
00000000
00000000
00000000
00000000
,
00000000
00000000
00000000
00000000
,
02000000
03000000
00020000
00030000
,
00200000
00300000
00002000
00003000
,
00000200
00000300
00002000
00003000
,
00020000
00000000
00031000
00000000
,
00010000
00000000
00000010
00000000
,
00010000
00000000
00000010
00000000
,
00001000
00001000
01000000
00000000
,
00001000
00001000
01000000
00000000
,
00100000
00000000
10000000
00100000
,
00100000
00000000
10000000
00100000
,
00100000
00000000
00001000
00000000
,
00100000
00000000
00001000
00000000
,
00000010
00000000
00000001
00000010
,
00000010
00000000
00000001
00000010
,
00000010
00000000
00010000
00000000
,
00000010
00000000
00010000
00000000
,
00000000
00001000
00010000
00000000
,
00000010
00001000
00000100
00000000
,
00000000
00010000
00001000
00000000
,
01000000
01000000
00100000
00000000
,
00000000
00010000
00001000
00000000
,
00100000
00010000
01000000
00000000
,
00000000
00001000
00010000
00000000
,
00000100
00000100
00000100
00000000
,
00000020
00000000
00000030
00000000
,
00010000
00000100
00001000
00000000
,
00000020
00000000
00000030
00000000
,
00010000
00000100
00001000
00000000
,
00200000
00000000
00300000
00000000
,
00001000
01000000
00010000
00000000
,
00200000
00000000
00300000
00000000
,
00001000
01000000
00010000
00000000
,
20000000
00000000
31000000
00000000
,
00010000
00010000
00001000
00000100
,
00000002
00000000
00000103
00000000
,
00001000
00001000
00010000
01000000
,
20000000
00000000
30100000
00000000
,
00010000
00010000
00001000
00000010
,
00000002
00000000
00000013
00000000
,
00001000
00001000
00010000
00100000
,
20000000
00000000
00000000
00000000
,
00000000
00000000
00000000
00000000
,
30000000
00000000
00000000
00000000
,
00000000
00000000
00000000
00000000
;

//---------------dance-double - ----------------
#NOTEDATA:;
#CHARTNAME:;
#STEPSTYPE:dance-double;
#DESCRIPTION:;
#CHARTSTYLE:;
#DIFFICULTY:Medium;
#METER:7;
#RADARVALUES:0.247998,0.311967,0.112329,0.010212,0.056164,170.000000,159.000000,11.000000,1.000000,0.000000,0.000000,0.000000,0.000000,0.000000,0.247998,0.311967,0.112329,0.010212,0.056164,170.000000,159.000000,11.000000,1.000000,0.000000,0.000000,0.000000,0.000000,0.000000;
#CREDIT:;
#DISPLAYBPM:125.000000;
#NOTES:
00000000
00000000
00000000
00000000
,
00000000
00000000
00000000
00000000
,
00000000
00000000
00000000
00000000
,
00000000
00000000
00000000
00000000
,
00000000
00000000
00000000
00000000
,
00001000
00000000
00000000
00001000
00000000
00000000
00000000
00000000
00000100
00000000
00000000
00000100
00000000
00000000
00000000
00000000
,
00000010
00000000
00000000
00000010
00000000
00000000
00000000
00000000
00001000
00000000
00000000
00001000
00000000
00000000
00000000
00000000
,
00010000
00000000
00000000
00010000
00000000
00000000
00000000
00000000
01000000
00000000
00000000
01000000
00000000
00000000
00000000
00000000
,
00100000
00000000
00000000
00100000
00000000
00000000
00000000
00000000
00010000
00000000
00000000
00000000
10000000
00000000
00000000
00000000
,
00100000
00000000
01000000
00000000
00001000
00000000
00010000
00001000
,
00000010
00000000
00000100
00000000
00010000
00000000
00001000
00010000
,
00100000
00010000
00001000
00001000
,
00000010
00001000
00010000
00010000
,
00100000
00010000
00100000
01000000
,
00100000
10000000
00100000
01000000
,
00010000
01010000
00001000
00011000
,
00001000
00001100
00010000
00011000
,
00000010
00001000
00000010
00000100
,
00000010
00000001
00000010
00000100
,
00001000
00001100
00010000
00011000
,
00010000
01010000
00001000
00011000
,
00000000
00000100
00000000
00000010
00000000
00010000
00000000
00000100
,
00000000
00001000
00000000
00000011
00000000
00000100
00000000
00010000
,
00000000
01000000
00000000
00100000
00000000
00001000
00000000
01000000
,
00000000
00010000
00000000
00001000
00000000
01000000
00000000
00000000
,
00000000
01000000
00000000
00100000
00000000
00001000
00000000
01000000
,
00000000
00010000
00000000
10100000
00000000
01000000
00000000
00001000
,
00000000
00000100
00000000
00000010
00000000
00010000
00000000
00000100
,
00000000
00001000
00000000
00011000
00000000
00000100
00000000
00000000
,
00000001
00000000
00000010
00000000
,
00000100
00000000
00001000
00000000
00000010
00000001
00000010
00000000
,
00001000
00000000
00000010
00000000
,
00000100
00000000
00000001
00000000
00000010
00001000
00000010
00000000
,
00010000
00000000
01000000
00000000
,
00100000
00000000
10000000
00000000
01000000
00010000
01000000
00000000
,
10000000
00000000
01000000
00000000
,
00100000
00000000
00010000
00000000
01000000
10000000
01000000
00000000
,
00010000
00000000
00000000
00010000
00000000
00000000
00010000
00000000
00000000
00000000
00000000
00000000
00100000
00000000
00000000
00000000
,
00001000
00001000
00000010
00000100
,
00001000
00000000
00000000
00001000
00000000
00000000
00001000
00000000
00000000
00000000
00000000
00000000
00000010
00000000
00000000
00000000
,
00010000
00001000
00010000
00000000
00100000
00000000
01000000
00000000
,
00010000
00000000
00000000
00010000
00000000
00000000
00010000
00000000
00000000
00000000
00000000
00000000
00100000
00000000
00000000
00000000
,
00001000
00001000
00000010
00000100
,
00001000
00000000
00000000
00001000
00000000
00000000
00001000
00000000
00000000
00000000
00000000
00000000
00000010
00000000
00000000
00000000
,
00010000
00001000
00010000
00000000
00100000
00000000
01000000
00000000
,
00200000
00000000
00000000
00000000
,
00000000
00000000
00000000
00000000
,
00300000
00000000
00000000
00000000
,
00000000
00000000
00000000
00000000
;

//---------------dance-double - ----------------
#NOTEDATA:;
#CHARTNAME:;
#STEPSTYPE:dance-double;
#DESCRIPTION:;
#CHARTSTYLE:;
#DIFFICULTY:Hard;
#METER:9;
#RADARVALUES:0.345739,0.383959,0.122540,0.010212,0.137858,237.000000,225.000000,12.000000,1.000000,0.000000,0.000000,0.000000,0.000000,0.000000,0.345739,0.383959,0.122540,0.010212,0.137858,237.000000,225.000000,12.000000,1.000000,0.000000,0.000000,0.000000,0.000000,0.000000;
#CREDIT:;
#DISPLAYBPM:125.000000;
#NOTES:
00000000
00000000
00000000
00000000
,
00000000
00000000
00000000
00000000
,
00000000
00000000
00000000
00000000
,
00000000
00000000
00000000
00000000
,
00000000
00000000
00000000
00000000
,
00000001
00000000
00000000
00000011
00000000
00000000
00000000
00000000
00000100
00000000
00000000
00000110
00000000
00000000
00000000
00000000
,
00000001
00000000
00000000
00001100
00000000
00000000
00000000
00000000
00000010
00000000
00000000
00001100
00000000
00000000
00000000
00000000
,
00010000
00000000
00000000
11000000
00000000
00000000
00000000
00000000
00100000
00000000
00000000
11000000
00000000
00000000
00000000
00000000
,
10000000
00000000
00000000
01010000
00000000
00000000
00000000
00000000
00100000
00000000
00000000
00000000
01000000
00000000
00000000
00000000
,
00010000
00000000
10000000
00100000
00000000
00010000
00001000
00000010
,
00001000
00000000
00000001
00000010
00000000
00001000
00010000
00100000
,
01000000
00010000
01000000
00001000
,
00000100
00001000
00000100
00010000
,
00000010
00000000
00001000
00000000
00000001
00000100
00000010
00000000
,
00000100
00000000
00001000
00000000
00000001
00000010
00000100
00000000
,
00010000
00000100
00001000
00000000
00000100
00010000
00001000
00000000
,
00001000
01000000
00010000
00000000
01000000
00001000
00010000
00000000
,
00100000
00000000
00010000
00000000
10000000
01000000
00100000
00000000
,
01000000
00000000
00010000
00000000
10000000
00100000
01000000
00000000
,
00001000
01000000
00010000
00010000
01000000
00001000
00010000
00000000
,
00010000
00000100
00001000
00001000
00000100
00010000
00001000
00000000
,
00100000
00010000
00000000
01000000
00000000
10100000
00000000
00010000
,
00001000
00010000
00000000
00100000
01000000
10000000
01000000
00000000
,
00100000
00010000
00000000
01000000
00000000
10100000
00000000
00010000
,
00100000
10000000
01000000
00010000
00001000
00000100
00000001
00000000
,
00000010
00001000
00000000
00000100
00000000
00000011
00000000
00001000
,
00010000
00001000
00000000
00000010
00000100
00000001
00000100
00000000
,
00000010
00001000
00000000
00000100
00000000
00000011
00000000
00001000
,
00000010
00000001
00000100
00001000
00010000
00100000
10000000
00000000
,
00010000
00000000
00000000
00010000
00000000
00000000
10000000
00000000
00000000
00000000
00000000
01000000
00000000
00000000
00010000
00000000
,
00001000
00000000
00000000
00000100
00000000
00000000
00000001
00000000
00000000
00000000
00000000
00000001
00000000
00000000
00001000
00000000
,
00001000
00000000
00000000
00001000
00000000
00000000
00000001
00000000
00000000
00000000
00000000
00000100
00000000
00000000
00001000
00000000
,
00010000
00000000
00000000
00001000
00000000
00000000
00100000
00000000
00000000
00000000
00000000
01000000
00000000
00000000
10000000
00000000
,
00010000
00000000
00000000
00010000
00000000
00000000
10000000
00000000
00000000
00000000
00000000
01000000
00000000
00000000
00010000
00000000
,
00001000
00000000
00000000
00000100
00000000
00000000
00000001
00000000
00000000
00000000
00000000
00000001
00000000
00000000
00001000
00000000
,
00001000
00000000
00000000
00001000
00000000
00000000
00000001
00000000
00000000
00000000
00000000
00000100
00000000
00000000
00001000
00000000
,
00010000
00000000
00000000
00001000
00000000
00000000
00100000
00000000
00000000
00000000
00000000
01000000
00000000
00000000
10010000
00000000
,
00100000
00000000
00000000
00100000
00000000
00000000
10000000
00000000
00000000
00000000
01000000
00000000
00100000
00000000
00001000
00000000
,
00100000
00010000
00001000
00000010
00010000
00001000
00000100
00000001
,
00000010
00000000
00000000
00000010
00000000
00000000
00000001
00000000
00000000
00000000
00000100
00000000
00000010
00000000
00010000
00000000
,
00000100
00001000
00010000
00100000
00001000
00010000
01000000
10000000
,
00100000
00000000
00000000
00100000
00000000
00000000
10000000
00000000
00000000
00000000
01000000
00000000
00100000
00000000
00001000
00000000
,
00100000
00010000
00001000
00000010
00010000
00001000
00000100
00000001
,
00000010
00000000
00000000
00000010
00000000
00000000
00000001
00000000
00000000
00000000
00000100
00000000
00000010
00000000
00010000
00000000
,
00000100
00001000
00010000
00100000
00001000
00010000
01000000
10000000
,
00200000
00000000
00000000
00000000
,
00000000
00000000
00000000
00000000
,
00300000
00000000
00000000
00000000
,
00000000
00000000
00000000
00000000
;

//---------------dance-double - ----------------
#NOTEDATA:;
#CHARTNAME:;
#STEPSTYPE:dance-double;
#DESCRIPTION:;
#CHARTSTYLE:;
#DIFFICULTY:Challenge;
#METER:12;
#RADARVALUES:0.396797,0.431954,0.112329,0.214445,0.311457,272.000000,261.000000,11.000000,21.000000,0.000000,0.000000,0.000000,0.000000,0.000000,0.396797,0.431954,0.112329,0.214445,0.311457,272.000000,261.000000,11.000000,21.000000,0.000000,0.000000,0.000000,0.000000,0.000000;
#CREDIT:;
#DISPLAYBPM:125.000000;
#NOTES:
00000000
00000000
00000000
00000000
,
00000000
00000000
00000000
00000000
,
00000000
00000000
00000000
00000000
,
00000000
00000000
00000000
00000000
,
00000000
00000000
00000000
00000000
,
00000010
00000000
00000000
00010100
00000000
00000000
00000000
00000000
00100000
00000000
00000000
01001000
00000000
00000000
00000000
00000000
,
00010000
00000000
00000000
11000000
00000000
00000000
00000000
00000000
00100000
00000000
00000000
00011000
00000000
00000000
00001000
00000000
,
00100000
00000000
00000000
01001000
00000000
00000000
00000000
00000000
00000010
00000000
00000000
00010100
00000000
00000000
00000000
00000000
,
00001000
00000000
00000000
00000101
00000000
00000000
00000000
00000000
00001000
00000000
00000000
00000000
00010000
00000000
00000000
00000000
,
00100000
00000000
00000000
10000000
00010000
00000000
01000000
00000000
00001000
00000000
00000010
00000000
00000001
00000000
00000000
00000000
,
00000010
00000000
00000000
00000001
00001000
00000000
00000100
00000000
00010000
00000000
00100000
00000000
10000000
00000000
00000000
00000000
,
00010000
01000000
00001000
00000100
00000001
00001000
00000001
00000000
,
00001000
00000100
00010000
01000000
10000000
00010000
10000000
00000000
,
01000000
00010000
00001000
00000001
,
00000100
00001000
00010000
10000000
,
00200000
00000000
00000000
00310000
00001000
00000000
00010000
00000000
00002000
00000000
00000000
00003100
00001000
00000000
00000100
00000000
,
00000020
00000000
00000000
00001030
00010000
00000000
00001000
00000000
00020000
00000000
00000000
01030000
00010000
00000000
01000000
00000000
,
00100000
00010000
00001000
00000001
,
00000010
00001000
00010000
10000000
,
00200000
00000000
00000000
00310000
00001000
00000000
00010000
00000000
00002000
00000000
00000000
00003100
00001000
00000000
00010000
00000000
,
00000020
00000000
00000000
00001030
00010000
00000000
00001000
00000000
00020000
00000000
00000000
01030000
00010000
00000000
00001000
00000000
,
00000010
00000100
00000000
00010000
00000000
00101000
00000000
00010000
,
00001000
00010000
00001000
00100000
01000000
10000000
01000000
10000000
,
00100000
01000000
00000000
00001000
00000000
00010010
00000000
00001000
,
00010000
00001000
00000100
00000001
00000010
00000100
00001000
00000001
,
00000010
00000100
00000000
00010000
00000000
00101000
00000000
00010000
,
00001000
00010000
00001000
00100000
01000000
10000000
01000000
10000000
,
00100000
01000000
00000000
00001000
00000000
00010010
00000000
00001000
,
00010000
00001000
00000100
00000001
00000010
00000100
00001000
00000000
,
00020000
00100000
00000000
01000000
00000000
00000000
02000000
00000000
00030000
00000000
00000000
10000000
00000000
00000000
13000000
00000000
,
01000000
00010000
00000000
00001000
00000000
00000000
00020000
00000000
00000000
00000000
00000000
00000010
00030000
00000000
00000100
00000000
,
00002000
00000010
00000000
00000100
00000000
00000000
00000200
00000000
00003000
00000000
00000000
00000001
00000000
00000000
00000301
00000000
,
00000100
00001000
00000000
00010000
00000000
00000000
00002000
00000000
00000000
00000000
00000000
00100000
00003000
00000000
01000000
00000000
,
00020000
01000000
00000000
01000000
00000000
00000000
02000000
00000000
00030000
00000000
00000000
10000000
00000000
00000000
13000000
00000000
,
01000000
00010000
00000000
00100000
00000000
00000000
00020000
00000000
00000000
00000000
00000000
00000010
00030000
00000000
00000100
00000000
,
00002000
00000010
00000000
00000100
00000000
00000000
00000200
00000000
00003000
00000000
00000000
00000001
00000000
00000000
00000301
00000000
,
00000100
00001000
00000000
00010000
00000000
00000000
00002000
00000000
00000000
00000000
00000000
00100000
00003000
00000000
01000000
00000000
,
00010000
00000000
00000000
01000000
00000000
00000000
01000000
00000000
00001000
00000000
00010000
00000000
01000000
00000000
00010000
00000000
,
00001000
00000010
00000000
00000010
00000001
00000000
00000100
00000000
00001000
00010000
00000000
00010000
01000000
00000000
00010000
00000000
,
00001000
00000000
00000000
00000100
00000000
00000000
00000100
00000000
00010000
00000000
00001000
00000000
00000100
00000000
00001000
00000000
,
00010000
00100000
00000000
00100000
10000000
00000000
01000000
00000000
00010000
00001000
00000000
00001000
00010000
00000000
00001000
00000000
,
00010000
00000000
00000000
01000000
00000000
00000000
01000000
00000000
00001000
00000000
00010000
00000000
01000000
00000000
00010000
00000000
,
00001000
00000010
00000000
00000010
00000001
00000000
00000100
00000000
00001000
00010000
00000000
00010000
01000000
00000000
00010000
00000000
,
00001000
00000000
00000000
00000100
00000000
00000000
00000100
00000000
00010000
00000000
00001000
00000000
00000100
00000000
00001000
00000000
,
00010000
00100000
00000000
00100000
10000000
00000000
01000000
00000000
00010000
00001000
00000000
00001000
00010000
00000000
00001000
00000000
,
00020000
00000000
00000000
00000000
,
00000000
00000000
00000000
00000000
,
00030000
00000000
00000000
00000000
,
00000000
00000000
00000000
00000000
;

//---------------dance-single - Edit----------------
#NOTEDATA:;
#CHARTNAME:;
#STEPSTYPE:dance-single;
#DESCRIPTION:Edit;
#CHARTSTYLE:;
#DIFFICULTY:Edit;
#METER:13;
#RADARVALUES:0.564560,0.735242,0.388044,0.500373,0.658654,387.000000,349.000000,38.000000,49.000000,0.000000,0.000000,0.000000,0.000000,0.000000,0.564560,0.735242,0.388044,0.500373,0.658654,387.000000,349.000000,38.000000,49.000000,0.000000,0.000000,0.000000,0.000000,0.000000;
#CREDIT:;
#DISPLAYBPM:125.000000;
#NOTES:
// measure 0
0000
0000
0000
0000
,  // measure 1
0000
0000
0000
0000
,  // measure 2
0000
0000
0000
0000
,  // measure 3
0000
0000
0000
0000
,  // measure 4
0000
0000
0000
0000
,  // measure 5
0010
0000
0001
0020
0000
1030
0001
0000
0100
0000
1000
0200
0000
0310
0001
0000
,  // measure 6
0010
0000
0001
2000
0000
3010
0100
0000
0010
0000
0100
0002
0000
0013
0100
0000
,  // measure 7
0010
0000
0100
2000
0000
3010
0100
0000
1000
0000
0010
0002
0000
0103
0010
0000
,  // measure 8
0100
0000
0001
0100
0000
1000
0100
0010
0001
0000
0000
0000
0202
0000
0303
0000
,  // measure 9
1000
0000
0100
0000
0001
0000
0001
0100
1000
0000
1100
0000
0101
0000
0001
0100
,  // measure 10
1000
0000
1100
0000
0101
0000
0001
0100
1000
0000
1100
0000
0101
0000
0001
0010
,  // measure 11
1000
0000
1010
0000
0011
0000
0001
0010
1000
0000
1010
0000
0011
0000
0001
0010
,  // measure 12
0100
0000
0100
1000
0010
0000
0010
0001
0100
0000
0100
0001
1000
0100
0010
0001
,  // measure 13
0200
0001
0010
0001
,  // measure 14
1000
0010
2300
3001
,  // measure 15
2001
0000
0000
3100
0010
0001
0200
0000
0001
0000
1300
0000
1010
0000
0000
0000
,  // measure 16
0012
0000
0000
0103
1000
0000
0200
0000
1000
0000
0301
0000
0101
0000
0000
0000
,  // measure 17
2001
0000
0000
3010
0100
0001
0020
0000
1000
0000
0031
0000
0011
0000
0000
0000
,  // measure 18
1002
0000
0000
0013
0100
0000
0020
0000
0001
0000
0000
0000
0130
0000
0000
0000
,  // measure 19
0100
0010
0100
0010
1000
0001
1000
0001
0010
0100
0010
0100
0001
1000
0001
1000
,  // measure 20
0020
0000
0100
0000
0100
0100
0130
0101
,  // measure 21
2010
0100
0001
0100
,  // measure 22
3020
0000
0000
0000
1030
0000
0010
0000
0001
0000
0001
0010
1000
0000
1001
0000
,  // measure 23
0012
0100
1000
0100
,  // measure 24
0203
0000
0001
1000
0000
1000
0000
1000
0000
1000
0301
0000
1001
0000
1001
0000
,  // measure 25
1020
0001
0100
1000
,  // measure 26
2030
0000
0000
0000
3100
0000
0010
0000
0001
0000
0010
0100
1000
0000
1100
0000
,  // measure 27
0201
1000
0010
0001
,  // measure 28
0302
0000
0100
0010
0000
0010
0000
0010
0000
0000
0003
0000
2020
0000
3030
0000
,  // measure 29
2000
0100
0000
0010
0000
0001
0000
0010
0000
0100
3100
0000
1001
0000
0000
0000
,  // measure 30
0002
0010
0000
0100
0000
1000
0000
0100
0000
0010
0013
0000
1001
0000
0000
0000
,  // measure 31
2000
0001
0000
0010
0000
0100
0000
0010
0000
0001
3001
0000
1001
0000
0000
0000
,  // measure 32
0002
1000
0000
0100
0000
0010
0000
0100
0000
1000
1003
0000
1001
0000
0000
0000
,  // measure 33
0020
0001
0000
0100
0000
1000
0000
0100
0000
0001
0031
0000
0110
0000
0000
0000
,  // measure 34
0200
1000
0000
0010
0000
0001
0000
0010
0000
1000
1300
0000
0110
0000
0000
0000
,  // measure 35
0020
0001
0000
1000
0000
0001
0000
1000
0000
0100
0130
0000
0110
0000
0000
0000
,  // measure 36
0200
0302
0023
2030
,  // measure 37
3010
0001
0010
0001
1000
0010
1000
0010
0100
0001
0100
0001
1000
0100
1000
0100
,  // measure 38
0010
0000
0010
0001
0000
0001
0100
0001
1000
0100
0010
0001
1000
0000
1001
0000
,  // measure 39
0001
0010
0100
1000
0001
0100
0010
1000
0001
0010
0100
1000
0001
0100
0010
1000
,  // measure 40
0100
0000
0100
1000
0000
1000
0010
0000
0010
0001
1000
0000
2020
0000
3030
0000
,  // measure 41
1000
0100
0001
0010
0100
0001
1000
0100
0010
0001
1000
0010
0100
0001
1000
0100
,  // measure 42
0010
0000
0010
1000
0000
1000
0100
0000
0100
0001
0000
0001
0010
0000
0011
0000
,  // measure 43
0001
0010
0001
0010
0100
1000
0100
1000
0001
0010
0100
1000
0001
0010
0100
1000
,  // measure 44
0200
0000
0000
2300
0000
0000
3020
0000
0000
0000
0032
0000
0203
0000
2300
0000
,  // measure 45
0200
0000
0000
0000
,  // measure 46
0000
0000
0000
0000
,  // measure 47
0000
0000
0000
0000
,  // measure 48
3300
0000
0000
0000
;
