#VERSION:0.83;
#TITLE:Share My Love;
#SUBTITLE:;
#ARTIST:Julie Frost;
#TITLETRANSLIT:;
#SUBTITLETRANSLIT:;
#ARTISTTRANSLIT:;
#GENRE:;
#ORIGIN:;
#CREDIT:;
#BANNER:Share My Love.png;
#BACKGROUND:Share My Love-bg.png;
#PREVIEWVID:;
#JACKET:Share My Love-jacket.png;
#CDIMAGE:;
#DISCIMAGE:;
#LYRICSPATH:;
#CDTITLE:;
#MUSIC:Share My Love.ogg;
#OFFSET:0.000000;
#SAMPLESTART:63.193001;
#SAMPLELENGTH:15.000000;
#SELECTABLE:YES;
#DISPLAYBPM:125.000000;
#BPMS:0.000=129.400,
4.000=125.000;
#STOPS:;
#DELAYS:;
#WARPS:;
#TIMESIGNATURES:0.000=4=4;
#TICKCOUNTS:0.000=4;
#COMBOS:0.000=1;
#SPEEDS:0.000=1.000=0.000=0;
#SCROLLS:0.000=1.000;
#FAKES:;
#LABELS:0.000=Song Start;
#BGCHANGES:;
#KEYSOUNDS:;
#ATTACKS:
;

//---------------dance-single - ----------------
#NOTEDATA:;
#CHARTNAME:;
#STEPSTYPE:dance-single;
#DESCRIPTION:;
#CHARTSTYLE:;
#DIFFICULTY:Beginner;
#METER:2;
#RADARVALUES:0.104303,0.150395,0.000000,0.000000,0.000000,71.000000,71.000000,0.000000,0.000000,0.000000,0.000000,0.000000,0.000000,0.000000,0.104303,0.150395,0.000000,0.000000,0.000000,71.000000,71.000000,0.000000,0.000000,0.000000,0.000000,0.000000,0.000000,0.000000;
#CREDIT:;
#DISPLAYBPM:125.000000;
#NOTES:
0000
0000
0000
0000
,
0000
0000
0000
0000
,
0000
0000
0000
0000
,
0000
0000
0000
0000
,
0000
0000
0000
0000
,
0010
0000
0000
0000
,
0000
0000
0000
0000
,
0100
0000
0000
0000
,
0010
0000
0000
0000
,
0001
0000
0000
0000
,
0010
0000
0000
0000
,
1000
0000
0000
0000
,
0100
0000
0000
0000
,
0100
0000
0000
0000
,
0001
0000
0000
0000
,
0001
0000
0000
0000
,
0100
0100
0000
0100
,
0000
0001
0000
0001
,
0000
0100
0000
0100
,
0000
0010
0000
0010
,
0000
1000
1000
1000
,
0000
0001
0000
1000
,
0000
0001
0000
1000
,
0000
0010
0000
0100
,
0000
0010
0010
0010
,
0000
1000
0000
1000
,
0000
1000
0000
1000
,
0000
1000
0000
0001
,
0000
0001
0000
0001
,
0001
0000
0100
0000
,
0100
0000
0100
0000
,
0010
0000
0010
0000
,
1000
1000
1000
0000
,
0010
0000
0000
0000
,
0100
0000
0100
0000
,
0001
0000
0000
0000
,
1000
0000
1000
0000
,
0010
0000
0000
0000
,
0100
0000
0100
0000
,
0001
0000
0000
0000
,
1000
0000
1000
0000
,
0010
0010
0000
0000
,
0000
0000
0000
0000
,
1000
1000
0000
0000
,
0000
0000
0000
0000
,
0100
0100
0000
0000
,
0000
0000
0000
0000
,
0001
0001
0000
0000
,
0010
0010
0000
1000
;

//---------------dance-single - ----------------
#NOTEDATA:;
#CHARTNAME:;
#STEPSTYPE:dance-single;
#DESCRIPTION:;
#CHARTSTYLE:;
#DIFFICULTY:Easy;
#METER:4;
#RADARVALUES:0.185101,0.275724,0.020567,0.000000,0.010283,126.000000,124.000000,2.000000,0.000000,0.000000,0.000000,0.000000,0.000000,0.000000,0.185101,0.275724,0.020567,0.000000,0.010283,126.000000,124.000000,2.000000,0.000000,0.000000,0.000000,0.000000,0.000000,0.000000;
#CREDIT:;
#DISPLAYBPM:125.000000;
#NOTES:
0000
0000
0000
0000
,
0000
0000
0000
0000
,
0000
0000
0000
0000
,
0000
0000
0000
0000
,
0000
0000
0000
0000
,
0010
0000
0000
0000
,
0010
0000
0000
0000
,
0001
0000
1000
0000
,
0010
0000
0010
0100
,
0001
0000
1000
0000
,
0010
0000
0010
0100
,
0010
0000
1000
0000
,
0001
0000
1000
0010
,
0100
0001
1000
0001
,
0100
0100
0100
0010
,
0100
0001
1000
0001
,
0010
0010
0000
1000
,
0000
0000
0010
0000
,
0001
0000
0100
0000
,
1000
0000
0010
0000
,
1000
0000
1001
1001
,
0010
0001
0100
1000
,
0001
0001
0001
1000
,
0010
0001
0100
1000
,
0010
1000
0100
0001
,
0000
0100
0100
0100
,
0001
0001
0001
0001
,
0010
1000
0100
0001
,
0010
0001
1000
0000
,
1000
0010
0001
0100
,
0010
0010
0010
1000
,
1000
1000
1000
0000
,
0001
0000
0000
0000
,
0010
1000
0100
0001
,
0010
1000
0100
0001
,
1000
1000
1000
0010
,
0100
1000
0001
0010
,
0100
0100
0100
0010
,
0001
0100
1000
0001
,
0010
0010
0010
0000
,
0000
0000
0000
0000
,
0010
0000
0000
0000
0010
0000
0000
0010
0000
0000
0000
0000
0000
0000
0000
0000
,
0000
0000
0000
0000
,
0010
1000
0001
0000
,
0000
0000
0000
0000
,
0010
0000
0000
0000
0010
0000
0000
0010
0000
0000
0000
0000
0000
0000
0000
0000
,
0000
0000
0000
0000
,
0010
0001
1000
0000
,
0010
0010
0000
0100
;

//---------------dance-single - ----------------
#NOTEDATA:;
#CHARTNAME:;
#STEPSTYPE:dance-single;
#DESCRIPTION:;
#CHARTSTYLE:;
#DIFFICULTY:Medium;
#METER:6;
#RADARVALUES:0.282059,0.401053,0.236518,0.000000,0.097692,192.000000,169.000000,23.000000,0.000000,0.000000,0.000000,0.000000,0.000000,0.000000,0.282059,0.401053,0.236518,0.000000,0.097692,192.000000,169.000000,23.000000,0.000000,0.000000,0.000000,0.000000,0.000000,0.000000;
#CREDIT:;
#DISPLAYBPM:125.000000;
#NOTES:
0000
0000
0000
0000
,
0000
0000
0000
0000
,
0000
0000
0000
0000
,
0000
0000
0000
0000
,
0000
0000
0000
0000
0000
0000
0000
0010
,
1000
0000
0000
0000
,
0010
0000
0000
0000
,
0001
0000
1000
0000
,
0010
0000
0010
0100
,
0001
0000
0100
0000
,
0001
0000
0000
0000
0010
0000
0000
0001
,
1000
0000
0100
0000
,
0010
0000
0000
0000
0000
0000
0000
0000
1000
0000
0000
0010
0000
0000
0100
0000
,
0001
0100
0010
1000
,
0010
0000
0000
0000
0010
0000
0000
0000
0010
0000
0000
1000
0000
0000
0100
0000
,
0001
1000
0001
0010
,
0010
0000
0100
0001
0000
1000
0000
0010
0000
0100
0000
0010
0100
0000
0010
0000
,
0000
0000
0010
0000
,
0001
0000
0100
0000
,
1000
0000
0010
0000
,
0100
0000
1010
0101
,
0010
0001
0100
1000
,
0001
0000
0001
0000
0001
0000
1000
1000
,
0010
0001
0100
1000
,
0010
1000
0100
0001
,
0000
1100
1100
1100
,
0101
0101
0101
0101
,
0010
1000
0100
0001
,
0010
0000
0000
0000
0001
0000
0000
0000
1000
0000
0000
0100
0000
0000
0001
0000
,
0010
1000
0100
0001
,
0010
0010
0010
1000
,
1000
1000
1000
0000
,
0010
0000
1000
0001
0000
0001
0000
0001
0000
0000
0000
0000
0000
0000
0000
0000
,
0010
0000
0010
0000
0010
0000
1000
0001
,
0100
0010
0001
1000
,
0010
0000
0000
0000
0011
0000
0000
1010
0000
0000
0000
0000
0100
0000
0000
0000
,
0001
1000
0010
0001
,
0100
0000
0000
0000
1100
0000
0000
0101
0000
0000
0000
0000
0010
0000
0000
0000
,
0001
0100
0010
1000
,
0010
0000
0000
0000
0011
0000
0000
1010
0000
0000
0000
0000
0100
0000
0000
0000
,
0001
0000
0010
0100
0010
0000
0000
0000
,
0100
1100
0101
1000
,
0010
0010
0010
1000
,
0010
0011
1010
0100
,
0010
1000
0001
0000
0100
0000
0010
0000
,
0100
1100
0101
0001
,
0010
1000
0001
0000
1000
0000
0100
0000
,
0010
1010
0011
0100
,
0010
0000
0100
0001
0000
1000
0000
0010
0000
0100
0000
0010
0100
0000
0000
0000
;

//---------------dance-single - ----------------
#NOTEDATA:;
#CHARTNAME:;
#STEPSTYPE:dance-single;
#DESCRIPTION:;
#CHARTSTYLE:;
#DIFFICULTY:Hard;
#METER:8;
#RADARVALUES:0.383424,0.426119,0.339353,0.000000,0.205668,261.000000,228.000000,33.000000,0.000000,0.000000,0.000000,0.000000,0.000000,0.000000,0.383424,0.426119,0.339353,0.000000,0.205668,261.000000,228.000000,33.000000,0.000000,0.000000,0.000000,0.000000,0.000000,0.000000;
#CREDIT:;
#DISPLAYBPM:125.000000;
#NOTES:
0000
0000
0000
0000
,
0000
0000
0000
0000
,
0000
0000
0000
0000
,
0000
0000
0000
0000
,
0000
0000
0000
0000
0000
0000
0000
0000
0000
0000
0000
0010
0000
0000
1000
0000
,
0001
0000
0010
0000
0000
0100
0000
0000
0010
0000
0000
0100
0000
0000
1001
0000
,
0000
0000
0010
0000
0000
0100
0000
0000
0001
0000
0000
1000
0000
0000
1001
0000
,
0000
0000
0010
0000
0000
1000
0000
0000
0001
0000
0000
1000
0000
0000
0010
0000
,
0000
0000
0000
0000
0000
0000
0000
0000
0100
0000
0000
0000
0000
0000
0000
0000
0000
0000
0000
0000
0001
0000
0000
0000
0000
0000
0000
0000
0000
0000
0000
0000
1000
0000
0000
0000
0000
0001
0000
0000
0000
0000
1000
0000
0000
0000
0000
0000
0010
0000
0000
0000
0000
0000
0000
0000
0000
0000
0000
0000
0000
0000
0000
0000
,
0100
0101
0010
1100
,
0010
0000
0000
0000
0101
0000
0000
0000
0010
0000
0000
1000
0000
0000
0001
0000
,
0010
0101
0010
1100
,
0010
0000
0000
0000
0101
0000
0000
0000
1000
0000
0000
0001
0000
0000
0100
0000
,
1000
0100
0010
1100
,
0010
0000
0000
0000
0010
0000
0000
0000
0010
0000
0000
1000
0000
0000
0001
0000
,
0100
1000
0001
0010
,
0010
0000
0100
0001
0000
1000
0000
0010
0000
0100
0000
0010
0100
0000
0010
0000
,
0000
0000
0000
0000
0010
0001
1000
0100
,
0001
0000
1000
0000
0001
0010
1000
0100
,
1000
0000
0001
0000
1000
0000
0001
0010
,
1000
0000
0010
0101
,
0010
0000
0001
0000
0100
0001
0010
1000
,
0100
0000
0001
0000
0001
0000
1000
1000
,
0010
0000
0001
0000
0100
0000
1000
1000
,
0010
0000
0001
0000
1000
0100
0001
0000
,
0000
0011
1010
1100
,
0101
1100
1010
0011
,
0100
1001
0010
1001
,
0010
0000
0000
0000
0001
0000
0000
0000
1000
0000
0000
0100
0000
0000
0001
0000
,
0010
1000
0100
0001
,
0010
0000
0010
0000
0010
0000
1000
0001
,
0100
0000
0000
0000
0000
0000
0000
0000
0000
0000
0000
0000
0000
0000
0000
0000
0100
0000
0000
0000
0000
0000
0000
0000
0000
0000
0000
0000
0000
0000
0000
0000
0100
0000
0000
0000
0000
0000
0000
0000
0000
0000
0000
0000
0000
0000
0000
0000
0010
0000
0000
0000
0000
0100
0000
0000
0000
0000
0001
0000
0000
0000
0000
0000
,
1000
0000
0010
0100
0000
0010
0000
0100
0000
0000
0000
0000
0000
0000
0000
0000
,
0010
0000
0000
0000
0010
0000
0000
0010
0000
0000
0000
0000
1000
0000
0001
0000
,
0100
0000
0010
0000
1000
0000
0001
1000
,
0010
0000
0000
0000
0011
0000
0000
1010
0000
0000
0000
0000
0100
0000
0010
0000
,
0100
0000
0001
1000
0010
0000
1000
0001
,
0100
0000
0000
0000
0101
0000
0000
1100
0000
0000
0000
0000
0010
0000
1000
0000
,
0001
0000
0100
0000
0010
0000
0001
1000
,
0100
0000
0000
0000
1001
0000
0000
1001
0000
0000
0000
0000
0010
0000
0010
0000
,
1000
0000
0001
0100
0001
0000
1000
0010
,
0100
0000
1001
0000
1001
0000
0010
0100
,
0010
0000
0000
0000
1000
0000
0000
0010
0000
0000
0100
0000
0001
0000
1000
0000
,
0010
0000
0011
0000
1010
0000
0010
0100
,
0001
0000
1000
0000
0000
0010
0000
0100
0000
0001
0000
0000
1000
0000
0001
0000
,
0100
0000
1100
0000
0101
0000
0010
1000
,
0001
0000
0000
0100
0000
0001
0000
1000
0000
0000
0010
0000
0100
0000
0001
0000
,
0010
1010
0011
0100
,
0010
0000
0100
0001
0000
1000
0000
0010
0000
0100
0000
0010
0100
0000
0000
0000
;

//---------------dance-double - ----------------
#NOTEDATA:;
#CHARTNAME:;
#STEPSTYPE:dance-double;
#DESCRIPTION:;
#CHARTSTYLE:;
#DIFFICULTY:Easy;
#METER:4;
#RADARVALUES:0.193916,0.275724,0.020567,0.000000,0.010283,132.000000,130.000000,2.000000,0.000000,0.000000,0.000000,0.000000,0.000000,0.000000,0.193916,0.275724,0.020567,0.000000,0.010283,132.000000,130.000000,2.000000,0.000000,0.000000,0.000000,0.000000,0.000000,0.000000;
#CREDIT:;
#DISPLAYBPM:125.000000;
#NOTES:
00000000
00000000
00000000
00000000
,
00000000
00000000
00000000
00000000
,
00000000
00000000
00000000
00000000
,
00000000
00000000
00000000
00000000
,
00000000
00000000
00000000
00000000
,
00100000
00000000
00000000
00000000
,
10000000
00000000
00000000
00000000
,
01000000
00000000
00010000
00000000
,
00000010
00000000
00001000
00000001
,
00000100
00000000
00000010
00000000
,
00010000
00000000
01000000
00000000
,
10000000
00000000
00100000
00000000
,
01000000
00000000
00010000
01000000
,
00001000
00000100
00000010
00001000
,
00000001
00000001
00000001
00000100
,
00000010
00001000
01000000
00100000
,
00010000
10000000
00000000
00100000
,
00000000
00000000
00100000
00000000
,
01000000
00000000
10000000
00000000
,
00010000
00000000
00000100
00000000
,
00000001
00000000
00001001
00001001
,
00000010
00000100
00000001
00001000
,
00000010
00000010
00000010
00000010
,
00001000
01000000
00100000
00010000
,
10000000
00100000
00010000
01000000
,
00000000
00010000
00010000
00010000
,
01000000
01000000
01000000
01000000
,
00001000
00010000
00000010
00000100
,
00000001
00000100
00001000
00000000
,
00000010
00001000
00000001
00000100
,
00000010
00000010
00000010
00001000
,
00001000
00001000
00001000
00000000
,
00100000
00000000
00000000
00000000
,
10000000
10000000
10000000
00100000
,
01000000
00001000
00000100
00000010
,
00001000
00000001
00000001
00000010
,
00001000
01000000
00100000
00010000
,
01000000
00100000
00100000
10000000
,
00010000
01000000
00010000
00000100
,
00000010
00000100
00000100
00000010
,
00001000
00000000
00000100
00000000
,
00001000
00000000
00000000
00000000
00010000
00000000
00000000
00010000
00000000
00000000
00000000
00000000
00000000
00000000
00000000
00000000
,
00000000
00000000
00000000
00000000
,
01000000
00000000
00000000
00000000
01000000
00000000
00000000
01000000
00000000
00000000
00000000
00000000
00010000
00000000
00000000
00000000
,
00000100
00000000
00000000
00000000
,
00000010
00001000
00000001
00000100
,
00000010
00000000
00000000
00000000
,
00010000
00100000
00100000
00000000
,
10000000
10000000
00000000
01000000
;

//---------------dance-double - ----------------
#NOTEDATA:;
#CHARTNAME:;
#STEPSTYPE:dance-double;
#DESCRIPTION:;
#CHARTSTYLE:;
#DIFFICULTY:Medium;
#METER:6;
#RADARVALUES:0.273245,0.401053,0.236518,0.000000,0.097692,186.000000,163.000000,23.000000,0.000000,0.000000,0.000000,0.000000,0.000000,0.000000,0.273245,0.401053,0.236518,0.000000,0.097692,186.000000,163.000000,23.000000,0.000000,0.000000,0.000000,0.000000,0.000000,0.000000;
#CREDIT:;
#DISPLAYBPM:125.000000;
#NOTES:
00000000
00000000
00000000
00000000
,
00000000
00000000
00000000
00000000
,
00000000
00000000
00000000
00000000
,
00000000
00000000
00000000
00000000
,
00000000
00000000
00000000
00000000
00000000
00000000
00000000
00100000
,
10000000
00000000
00000000
00000000
,
01000000
00000000
00000000
00000000
,
00010000
00000000
00000100
00000000
,
00000010
00000000
00001000
00000001
,
00000100
00000000
00000010
00000000
,
00010000
00000000
00000000
00000000
01000000
00000000
00000000
00100000
,
01000000
00000000
00001000
00000000
,
00000100
00000000
00000000
00000000
00000000
00000000
00000000
00000000
00000001
00000000
00000000
00000010
00000000
00000000
00000100
00000000
,
00000001
00000100
00000010
00010000
,
01000000
00000000
00000000
00000000
01000000
00000000
00000000
00000000
01000000
00000000
00000000
00100000
00000000
00000000
10000000
00000000
,
01000000
00001000
00000100
00000010
,
00000010
00000000
00000100
00000001
00000000
00001000
00000000
00000010
00000000
00000100
00000000
00000010
00000100
00000000
00000010
00000000
,
00000000
00000000
00010000
00000000
,
00100000
00000000
10000000
00000000
,
01000000
00000000
00010000
00000000
,
00001000
00000000
00001010
00000101
,
00000010
00000001
00000100
00001000
,
00010000
00000000
00010000
00000000
00010000
00000000
00100000
00100000
,
10000000
01000000
00010000
00000100
,
00000010
00001000
00000001
00000100
,
00000000
00001010
00001010
00001010
,
00011000
00011000
00011000
00011000
,
01000000
00000000
00100000
00000000
10000000
00010000
01000000
00000000
,
00010000
00000000
00000000
00000000
00000100
00000000
00000000
00000000
00000010
00000000
00000000
00001000
00000000
00000000
00000001
00000000
,
00000100
00000010
00000001
00000100
,
00001000
00001000
00001000
01000000
,
01000000
01000000
01000000
00000000
,
00100000
00000000
01000000
00010000
00000000
00010000
00000000
00010000
00000000
00000000
00000000
00000000
00000000
00000000
00000000
00000000
,
10000000
10000000
10000000
00100000
,
00010000
00000100
00000010
00001000
,
00000010
00000000
00000000
00000000
00000011
00000000
00000000
00001010
00000000
00000000
00000000
00000000
00000100
00000000
00000000
00000000
,
00000010
00001000
01000000
00100000
,
01000000
00000000
00000000
00000000
01010000
00000000
00000000
11000000
00000000
00000000
00000000
00000000
00100000
00000000
00000000
00000000
,
01000000
00010000
00000100
00000010
,
00000100
00000000
00000000
00000000
00001100
00000000
00000000
00000101
00000000
00000000
00000000
00000000
00000010
00000000
00000000
00000000
,
00000100
00000000
00000000
00001000
00010000
00000000
00000000
00000000
,
00100000
00110000
10100000
01000000
,
00010000
00000100
00000000
00000000
,
00000010
00000011
00001010
00000100
,
00010000
00010000
00000000
00000000
00000000
00000000
00000000
00000000
,
00100000
00110000
10100000
00010000
,
01000000
00000000
00100000
00000000
10000000
00010000
01000000
00000000
,
00100000
10100000
00110000
01000000
,
00100000
00000000
01000000
00010000
00000000
10000000
00000000
00100000
00000000
01000000
00000000
00100000
01000000
00000000
00000000
00000000
;

//---------------dance-double - ----------------
#NOTEDATA:;
#CHARTNAME:;
#STEPSTYPE:dance-double;
#DESCRIPTION:;
#CHARTSTYLE:;
#DIFFICULTY:Hard;
#METER:8;
#RADARVALUES:0.381955,0.426119,0.339353,0.000000,0.200527,260.000000,227.000000,33.000000,0.000000,0.000000,0.000000,0.000000,0.000000,0.000000,0.381955,0.426119,0.339353,0.000000,0.200527,260.000000,227.000000,33.000000,0.000000,0.000000,0.000000,0.000000,0.000000,0.000000;
#CREDIT:;
#DISPLAYBPM:125.000000;
#NOTES:
00000000
00000000
00000000
00000000
,
00000000
00000000
00000000
00000000
,
00000000
00000000
00000000
00000000
,
00000000
00000000
00000000
00000000
,
00000000
00000000
00000000
00000000
00000000
00000000
00000000
00000000
00000000
00000000
00000000
00100000
00000000
00000000
01000000
00000000
,
00010000
00000000
10000000
00000000
00000000
01000000
00000000
00000000
00010000
00000000
00000000
00000100
00000000
00000000
00000110
00000000
,
00000000
00000000
00000001
00000000
00000000
00000100
00000000
00000000
00000001
00000000
00000000
00001000
00000000
00000000
00001100
00000000
,
00000000
00000000
00010000
00000000
00000000
01000000
00000000
00000000
00100000
00000000
00000000
00010000
00000000
00000000
10000000
00000000
,
00000000
00000000
00000000
00000000
00000000
00000000
00000000
00000000
00010000
00000000
00000000
00000000
00000000
00000000
00000000
00000000
00000000
00000000
00000000
00000000
01000000
00000000
00000000
00000000
00000000
00000000
00000000
00000000
00000000
00000000
00000000
00000000
10000000
00000000
00000000
00000000
00000000
00010000
00000000
00000000
00000000
00000000
10000000
00000000
00000000
00000000
00000000
00000000
00100000
00000000
00000000
00000000
00000000
00000000
00000000
00000000
00000000
00000000
00000000
00000000
00000000
00000000
00000000
00000000
,
01000000
01010000
00001000
00001010
,
00000010
00000000
00000000
00000000
00000101
00000000
00000000
00000000
00000010
00000000
00000000
00001000
00000000
00000000
01000000
00000000
,
00100000
00110000
00100000
11000000
,
00100000
00000000
00000000
00000000
00110000
00000000
00000000
00000000
10000000
00000000
00000000
00010000
00000000
00000000
00000100
00000000
,
00000010
00001000
00000010
00001100
,
00000010
00000000
00000000
00000000
00000010
00000000
00000000
00000000
00000010
00000000
00000000
00000100
00000000
00000000
00000010
00000000
,
00010000
01000000
00100000
10000000
,
00100000
00000000
01000000
00010000
00000000
01000000
00000000
00001000
00000000
00010000
00000000
00000010
00000100
00000000
00000010
00000000
,
00000000
00000000
00000000
00000000
00000010
00000001
00000100
00001000
,
00010000
00000000
01000000
00000000
00100000
01000000
10000000
00010000
,
00100000
00000000
00010000
00000000
00000100
00000000
00000010
00000001
,
00000100
00000000
00000010
00001100
,
00010000
00000000
01000000
00000000
00100000
00010000
10000000
01000000
,
10000000
00000000
00010000
00000000
00000100
00000000
00000010
00001000
,
00000001
00000000
00000100
00000000
00010000
00000000
00100000
10000000
,
01000000
00000000
00010000
00000000
00000100
00000010
00001000
00000000
,
00000000
00000011
00001100
00011000
,
00110000
10100000
11000000
01010000
,
00001000
00001001
00000010
00001100
,
00000010
00000000
00000000
00000000
00010000
00000000
00000000
00000000
01000000
00000000
00000000
00100000
00000000
00000000
10000000
00000000
,
00100000
01000000
10000000
00010000
,
00000100
00000000
00000010
00000000
00001000
00000000
00000010
00000001
,
00000100
00000000
00000000
00000000
00000000
00000000
00000000
00000000
00000000
00000000
00000000
00000000
00000000
00000000
00000000
00000000
00000100
00000000
00000000
00000000
00000000
00000000
00000000
00000000
00000000
00000000
00000000
00000000
00000000
00000000
00000000
00000000
00000100
00000000
00000000
00000000
00000000
00000000
00000000
00000000
00000000
00000000
00000000
00000000
00000000
00000000
00000000
00000000
00000010
00000000
00000000
00000000
00000000
00010000
00000000
00000000
00000000
00000000
00001000
00000000
00000000
00000000
00000000
00000000
,
00010000
00000000
00001000
01000000
00000000
00010000
00000000
01000000
00000000
00000000
00000000
00000000
00000000
00000000
00000000
00000000
,
00100000
00000000
00000000
00000000
00010000
00000000
00000000
10000000
00000000
00000000
00000000
00000000
00010000
00000000
00000100
00000000
,
00000010
00000000
00001000
00000000
00000100
00000000
00010000
01000000
,
00100000
00000000
00000000
00000000
10010000
00000000
00000000
10010000
00000000
00000000
00000000
00000000
00100000
00000000
01000000
00000000
,
00010000
00000000
00000100
00000010
00001000
00000000
00000001
00000100
,
00000010
00000000
00011000
00000000
01010000
00000000
00100000
01000000
,
00010000
00000000
10000000
00000000
00100000
00000000
01000000
00010000
,
00000100
00000000
00000000
00000000
00001010
00000000
00000000
00000101
00000000
00000000
00000000
00000000
00000010
00000000
00000100
00000000
,
00000001
00000000
00000100
00010000
01000000
00000000
00100000
10000000
,
01000000
00000000
10010000
00000000
10010000
00000000
00100000
01000000
,
00010000
00000000
00000000
00000000
00000100
00000000
00000000
00000010
00000000
00000000
00001000
00000000
00000001
00000000
00000100
00000000
,
00000010
00000000
00001010
00000000
00000101
00000000
00000010
00001000
,
01000000
00000000
00100000
00000000
00000000
00010000
00000000
10000000
00000000
00100000
00000000
00000000
01000000
00000000
00000000
00000000
,
00100000
00000000
01010000
00000000
11000000
00000000
00100000
01000000
,
00010000
00000000
00000000
00000100
00000000
00000010
00000000
00001000
00000000
00000000
00000001
00000000
00000100
00000000
00000010
00000000
,
00001000
00011000
00110000
01000000
,
00100000
00000000
01000000
00010000
00000000
10000000
00000000
00100000
00000000
01000000
00000000
00100000
01000000
00000000
00000000
00000000
;

//---------------dance-solo - ----------------
#NOTEDATA:;
#CHARTNAME:;
#STEPSTYPE:dance-solo;
#DESCRIPTION:;
#CHARTSTYLE:;
#DIFFICULTY:Easy;
#METER:3;
#RADARVALUES:0.185101,0.275724,0.020567,0.000000,0.010283,126.000000,124.000000,2.000000,0.000000,0.000000,0.000000,0.000000,0.000000,0.000000,0.185101,0.275724,0.020567,0.000000,0.010283,126.000000,124.000000,2.000000,0.000000,0.000000,0.000000,0.000000,0.000000,0.000000;
#CREDIT:;
#DISPLAYBPM:125.000000;
#NOTES:
000000
000000
000000
000000
,
000000
000000
000000
000000
,
000000
000000
000000
000000
,
000000
000000
000000
000000
,
000000
000000
000000
000000
,
000100
000000
000000
000000
,
000100
000000
000000
000000
,
000001
000000
100000
000000
,
000100
000000
000100
001000
,
000010
000000
010000
000000
,
000100
000000
000100
001000
,
000100
000000
100000
000000
,
000001
000000
010000
000100
,
001000
000010
100000
000001
,
001000
001000
001000
000100
,
001000
000010
010000
000001
,
000100
000100
000000
100000
,
000000
000000
000100
000000
,
000010
000000
001000
000000
,
000001
000000
000100
000000
,
100000
000000
010010
010010
,
000100
000010
001000
000001
,
100000
000100
000100
100000
,
000100
000010
001000
100000
,
000100
010000
001000
000001
,
000000
001000
001000
001000
,
000001
000001
000001
000001
,
000100
100000
001000
000001
,
000100
000010
010000
000000
,
100000
000100
000010
001000
,
000100
000100
000100
100000
,
100000
100000
100000
000000
,
000001
000000
000000
000000
,
000100
010000
000001
001000
,
000010
010000
100000
001000
,
100000
100000
100000
000100
,
001000
100000
000001
000100
,
001000
001000
001000
000100
,
000010
001000
000001
100000
,
001000
001000
001000
000000
,
000000
000000
000000
000000
,
000100
000000
000000
000000
000100
000000
000000
000100
000000
000000
000000
000000
000000
000000
000000
000000
,
000000
000000
000000
000000
,
000100
010000
001000
000000
,
000000
000000
000000
000000
,
000100
000000
000000
000000
000100
000000
000000
000100
000000
000000
000000
000000
000000
000000
000000
000000
,
000000
000000
000000
000000
,
000100
000010
001000
000000
,
000100
000100
000000
001000
;

//---------------dance-solo - ----------------
#NOTEDATA:;
#CHARTNAME:;
#STEPSTYPE:dance-solo;
#DESCRIPTION:;
#CHARTSTYLE:;
#DIFFICULTY:Medium;
#METER:4;
#RADARVALUES:0.282059,0.401053,0.236518,0.000000,0.097692,192.000000,169.000000,23.000000,0.000000,0.000000,0.000000,0.000000,0.000000,0.000000,0.282059,0.401053,0.236518,0.000000,0.097692,192.000000,169.000000,23.000000,0.000000,0.000000,0.000000,0.000000,0.000000,0.000000;
#CREDIT:;
#DISPLAYBPM:125.000000;
#NOTES:
000000
000000
000000
000000
,
000000
000000
000000
000000
,
000000
000000
000000
000000
,
000000
000000
000000
000000
,
000000
000000
000000
000000
000000
000000
000000
000100
,
010000
000000
000000
000000
,
000100
000000
000000
000000
,
000010
000000
010000
000000
,
000100
000000
000100
001000
,
000001
000000
100000
000000
,
000100
000000
000000
000000
000100
000000
000000
000010
,
001000
000000
010000
000000
,
000010
000000
000000
000000
000000
000000
000000
000000
100000
000000
000000
000100
000000
000000
001000
000000
,
000010
001000
000100
010000
,
000100
000000
000000
000000
000100
000000
000000
000000
000100
000000
000000
100000
000000
000000
000010
000000
,
001000
100000
000001
000100
,
000100
000000
001000
000001
000000
100000
000000
000100
000000
001000
000000
000100
001000
000000
000100
000000
,
000000
000000
000100
000000
,
000001
000000
001000
000000
,
100000
000000
000100
000000
,
010000
000000
100100
001001
,
000100
000001
001000
100000
,
000010
000000
000010
000000
000010
000000
010000
010000
,
000100
000010
001000
100000
,
000100
010000
001000
000001
,
000000
100100
100100
100100
,
001001
001001
001001
001001
,
000100
100000
001000
000001
,
000100
000000
000000
000000
000010
000000
000000
000000
100000
000000
000000
001000
000000
000000
000001
000000
,
000100
010000
001000
000001
,
000100
000100
000100
010000
,
010000
010000
010000
000000
,
000100
000000
100000
000001
000000
000001
000000
000001
000000
000000
000000
000000
000000
000000
000000
000000
,
000100
000000
000100
000000
000100
000000
010000
000010
,
001000
000100
000001
100000
,
000010
000000
000000
000000
000101
000000
000000
100100
000000
000000
000000
000000
001000
000000
000000
000000
,
000010
010000
000100
000001
,
001000
000000
000000
000000
100010
000000
000000
010001
000000
000000
000000
000000
000100
000000
000000
000000
,
000001
001000
000100
100000
,
000100
000000
000000
000000
010001
000000
000000
100010
000000
000000
000000
000000
000100
000000
000000
000000
,
000001
000000
001000
000100
001000
000000
000000
000000
,
001000
101000
001001
100000
,
000100
000100
000100
100000
,
000100
000101
100100
001000
,
000001
001000
000100
000000
001000
000000
000001
000000
,
001000
101000
001001
000001
,
001000
000100
100000
000000
000001
000000
001000
000000
,
010000
100100
000101
001000
,
000100
000000
001000
000001
000000
100000
000000
000100
000000
001000
000000
000100
001000
000000
000000
000000
;

//---------------dance-solo - ----------------
#NOTEDATA:;
#CHARTNAME:;
#STEPSTYPE:dance-solo;
#DESCRIPTION:;
#CHARTSTYLE:;
#DIFFICULTY:Hard;
#METER:5;
#RADARVALUES:0.380486,0.426119,0.318786,0.000000,0.205668,259.000000,228.000000,31.000000,0.000000,0.000000,0.000000,0.000000,0.000000,0.000000,0.380486,0.426119,0.318786,0.000000,0.205668,259.000000,228.000000,31.000000,0.000000,0.000000,0.000000,0.000000,0.000000,0.000000;
#CREDIT:;
#DISPLAYBPM:125.000000;
#NOTES:
000000
000000
000000
000000
,
000000
000000
000000
000000
,
000000
000000
000000
000000
,
000000
000000
000000
000000
,
000000
000000
000000
000000
000000
000000
000000
000000
000000
000000
000000
000100
000000
000000
010000
000000
,
000001
000000
001000
000000
000000
000100
000000
000000
001000
000000
000000
000100
000000
000000
100001
000000
,
000000
000000
000100
000000
000000
001000
000000
000000
000001
000000
000000
100000
000000
000000
010010
000000
,
000000
000000
001000
000000
000000
000010
000000
000000
100000
000000
000000
000001
000000
000000
000100
000000
,
000000
000000
000000
000000
000000
000000
000000
000000
001000
000000
000000
000000
000000
000000
000000
000000
000000
000000
000000
000000
000001
000000
000000
000000
000000
000000
000000
000000
000000
000000
000000
000000
100000
000000
000000
000000
000000
000001
000000
000000
000000
000000
100000
000000
000000
000000
000000
000000
000100
000000
000000
000000
000000
000000
000000
000000
000000
000000
000000
000000
000000
000000
000000
000000
,
001000
000110
001000
010100
,
001000
000000
000000
000000
000101
000000
000000
000000
001000
000000
000000
100000
000000
000000
000001
000000
,
000100
000110
001000
010100
,
001000
000000
000000
000000
000001
000000
000000
000000
100000
000000
000000
000010
000000
000000
100000
000000
,
001000
010000
000100
001000
,
000100
000000
000000
000000
000100
000000
000000
000000
000100
000000
000000
010000
000000
000000
000010
000000
,
100000
000100
001000
000100
,
000100
000000
001000
000001
000000
100000
000000
000100
000000
001000
000000
000100
001000
000000
000100
000000
,
000000
000000
000000
000000
000100
000010
100000
000001
,
001000
000000
000100
000000
100000
000010
100000
001000
,
000100
000000
000001
000000
100000
000000
000010
000100
,
001000
000000
000100
010010
,
001000
000000
000001
000000
001000
000001
000100
100000
,
001000
000000
000010
000000
000010
000000
100000
100000
,
000100
000000
000001
000000
001000
000000
100000
100000
,
000100
000000
000010
000000
010000
001000
000001
000000
,
000000
001001
101000
100100
,
000101
101000
100100
000101
,
001000
010010
000100
100001
,
000100
000000
000000
000000
000001
000000
000000
000000
100000
000000
000000
001000
000000
000000
000010
000000
,
010000
000001
100000
000010
,
001000
000000
001000
000000
001000
000000
000001
001000
,
100000
000000
000000
000000
000000
000000
000000
000000
000000
000000
000000
000000
000000
000000
000000
000000
100000
000000
000000
000000
000000
000000
000000
000000
000000
000000
000000
000000
000000
000000
000000
000000
100000
000000
000000
000000
000000
000000
000000
000000
000000
000000
000000
000000
000000
000000
000000
000000
000100
000000
000000
000000
000000
001000
000000
000000
000000
000000
000001
000000
000000
000000
000000
000000
,
100000
000000
000100
001000
000000
000100
000000
001000
000000
000000
000000
000000
000000
000000
000000
000000
,
000100
000000
000000
000000
000100
000000
000000
000100
000000
000000
000000
000000
010000
000000
000010
000000
,
001000
000000
000100
000000
010000
000000
000001
100000
,
000100
000000
000000
000000
010001
000000
000000
100010
000000
000000
000000
000000
000100
000000
001000
000000
,
000100
000000
000001
010000
000100
000000
100000
000010
,
001000
000000
000000
000000
001001
000000
000000
101000
000000
000000
000000
000000
000100
000000
010000
000000
,
000010
000000
001000
000000
000100
000000
000010
010000
,
001000
000000
000000
000000
100001
000000
000000
100001
000000
000000
000000
000000
000100
000000
000100
000000
,
010000
000000
000010
001000
000001
000000
100000
000100
,
001000
000000
001010
000000
001010
000000
000100
001000
,
000100
000000
000000
000000
100000
000000
000000
000100
000000
000000
001000
000000
000010
000000
010000
000000
,
000100
000000
001010
000000
011000
000000
000100
001000
,
000001
000000
100000
000000
000000
000100
000000
001000
000000
000010
000000
000000
100000
000000
000001
000000
,
001000
000000
001010
000000
011000
000000
000100
100000
,
000001
000000
000000
001000
000000
000010
000000
010000
000000
000000
000100
000000
001000
000000
000001
000000
,
001000
001001
101000
000100
,
000100
000000
001000
000001
000000
100000
000000
000100
000000
001000
000000
000100
001000
000000
000000
000000
;

//---------------dance-single - ----------------
#NOTEDATA:;
#CHARTNAME:;
#STEPSTYPE:dance-single;
#DESCRIPTION:;
#CHARTSTYLE:;
#DIFFICULTY:Challenge;
#METER:14;
#RADARVALUES:0.518578,0.576514,0.143968,0.277652,0.596438,353.000000,339.000000,14.000000,27.000000,0.000000,0.000000,0.000000,0.000000,0.000000,0.518578,0.576514,0.143968,0.277652,0.596438,353.000000,339.000000,14.000000,27.000000,0.000000,0.000000,0.000000,0.000000,0.000000;
#CREDIT:;
#DISPLAYBPM:125.000000;
#NOTES:
// measure 0
0000
0000
0000
0000
,  // measure 1
0000
0000
0000
0000
,  // measure 2
0000
0000
0000
0000
,  // measure 3
0000
0000
0000
0000
,  // measure 4
0000
0000
0000
0000
0000
0000
0000
0000
0000
0000
0000
0010
0000
0000
0100
0000
,  // measure 5
0020
0000
0100
0000
0000
0100
0000
0000
0100
0000
0000
0100
0000
0030
0100
0000
,  // measure 6
0002
0000
0010
0000
0000
0010
0000
0000
0010
0000
0000
0010
0000
0003
0010
0000
,  // measure 7
2000
0000
0100
0000
0000
0100
0000
0000
0100
0000
0000
0100
0000
3000
0100
0000
,  // measure 8
1000
0000
0000
0001
0000
0000
0100
0000
0000
0010
0000
0000
0100
0000
0010
0000
0100
0000
0010
0000
0000
0000
0000
0000
,  // measure 9
0001
0000
1000
0100
0020
0000
0001
0000
0031
0000
1000
0000
0001
0000
0100
0000
,  // measure 10
0010
0000
1000
0000
0100
0000
1000
0000
0001
0000
0010
0100
2000
0000
0100
0000
,  // measure 11
3100
1000
0010
0100
0002
0000
1000
0000
1003
0000
0001
0000
0100
0000
0010
0000
,  // measure 12
1000
0000
0001
0010
0100
0000
1000
0000
0001
0000
0000
0011
0000
0000
1001
0000
,  // measure 13
1000
0000
0100
1000
0100
0000
0001
1000
0001
0000
0010
0001
0010
0000
0100
0000
,  // measure 14
0010
0001
0010
0100
1000
0001
0200
0000
,  // measure 15
0310
0000
0010
0000
0010
0000
0010
0000
0010
0000
0010
0000
0010
1000
0010
1000
,  // measure 16
0001
0000
0010
0001
0000
1000
0000
0001
0000
1000
0000
0100
1000
0000
0100
0000
,  // measure 17
1000
0000
1000
0100
0000
1000
0000
0100
1000
0001
0100
0000
0020
0000
0000
0000
,  // measure 18
1030
0000
0001
0010
0000
0001
0000
0010
0000
0001
0000
1000
0002
0000
0000
0000
,  // measure 19
1003
0000
0001
0100
0000
0010
0000
1000
0000
0001
0000
0010
0200
0000
0000
0000
,  // measure 20
1300
0000
0010
0100
0001
0000
1000
0001
0000
0001
0000
0001
1000
0000
0100
0000
,  // measure 21
1000
0000
0001
0000
0010
0000
0001
0000
1000
0001
0000
0001
1000
0000
0001
0000
,  // measure 22
0100
0000
0010
0000
1000
0000
0001
0000
1000
0100
0000
0100
1000
0000
0100
0000
,  // measure 23
1000
0001
0010
0001
1000
0010
0100
0000
,  // measure 24
0101
0000
1010
0000
1100
0000
0011
0001
,  // measure 25
2000
0001
0010
3100
,  // measure 26
1002
0100
0010
0103
,  // measure 27
1020
0000
0000
0100
0000
0000
1000
0000
1000
0000
0000
0000
1000
0000
1030
0000
,  // measure 28
0012
0000
0000
0000
0100
0000
0000
0000
1000
0000
0000
1000
0000
0000
1003
0000
,  // measure 29
0201
0010
0001
1300
,  // measure 30
2100
0010
0001
3100
,  // measure 31
1001
0000
0000
0011
0000
0000
0001
0000
1000
0000
0001
1000
0001
1000
0001
0100
,  // measure 32
0010
0000
1000
0010
0000
0001
0000
0010
0000
1000
0010
0100
0010
0000
0000
0100
,  // measure 33
0020
0000
0000
0000
1000
0000
0000
0100
0000
0000
1030
0000
0100
0000
1000
0001
,  // measure 34
0010
0000
0001
0010
0000
0001
0000
1000
0000
0001
0000
1000
0200
0000
0000
0000
,  // measure 35
2300
0000
0000
0000
0010
0000
0000
0100
0000
0000
3001
0000
1000
0000
0100
0010
,  // measure 36
0001
0000
1000
0010
0000
0100
0000
0001
0000
1000
0000
0001
1000
0000
1001
0000
,  // measure 37
0002
0000
0000
0000
0010
0000
0000
0100
0000
0000
1003
0000
0001
0000
1000
0100
,  // measure 38
0010
0000
0001
0010
0000
0001
0000
1000
0000
0100
0000
1000
0200
0000
0000
0000
,  // measure 39
0320
0000
0000
0000
0001
0000
0000
0100
0000
0000
0031
0000
1000
0000
0100
1000
,  // measure 40
0001
0000
0100
0010
0000
1000
0000
0001
0000
0010
0000
0001
1000
0000
0001
0000
,  // measure 41
0200
0000
0000
0000
0010
0000
0000
0001
0000
0000
1300
0000
0001
0000
1000
0100
,  // measure 42
0010
0000
0001
1000
0000
0010
0000
0100
0000
0001
0000
1000
0001
0000
1000
0000
,  // measure 43
0002
0000
0000
0000
0010
0000
0000
1000
0000
0000
0103
0000
0010
0000
1000
0001
,  // measure 44
0010
0000
0001
1000
0000
0100
0000
1000
0000
0001
0000
0100
0010
0000
0100
0000
,  // measure 45
0002
0000
0000
0000
1000
0000
0000
0100
0000
0000
0013
0000
0001
0000
0010
0100
,  // measure 46
1000
0000
0001
1000
0000
0100
0000
0010
0000
0001
0000
0010
0001
0000
1000
0000
,  // measure 47
0020
0000
0000
0000
1000
0000
0000
0100
0000
0000
1030
0000
0001
0010
0001
0010
,  // measure 48
0200
0000
1000
1000
0000
1000
0000
1000
0000
1000
0000
1000
0310
0000
0000
0000
;
